osu file format v14

[General]
AudioFilename: audio.mp3
AudioLeadIn: 0
PreviewTime: 17725
Countdown: 0
SampleSet: Soft
StackLeniency: 0.7
Mode: 2
LetterboxInBreaks: 0
WidescreenStoryboard: 0

[Editor]
DistanceSpacing: 2.4
BeatDivisor: 4
GridSize: 4
TimelineZoom: 1.4

[Metadata]
Title:introduction
TitleUnicode:introduction
Artist:in love with a ghost
ArtistUnicode:in love with a ghost
Creator:ZiRoX
Version:rain
Source:
Tags:healing ilwag electronic lofi lo-fi dream pop chillstep ambient chillout chillwave instrumental LGTB LGTBQ pride fa featured artist mappers' guild mpg bighzonda bigh
BeatmapID:3580551
BeatmapSetID:1750191

[Difficulty]
HPDrainRate:5
CircleSize:5
OverallDifficulty:8
ApproachRate:8
SliderMultiplier:2.7
SliderTickRate:1

[Events]
//Background and Video events
0,0,"introduction.jpg",0,0
//Break Periods
//Storyboard Layer 0 (Background)
//Storyboard Layer 1 (Fail)
//Storyboard Layer 2 (Pass)
//Storyboard Layer 3 (Foreground)
//Storyboard Layer 4 (Overlay)
//Storyboard Sound Samples

[TimingPoints]
180,550.45871559633,4,2,1,40,1,0
17794,-100,4,2,1,50,0,0
26602,-100,4,2,1,60,0,0

[Colours]
Combo1 : 255,238,182
Combo2 : 235,124,133
Combo3 : 234,167,140
Combo4 : 247,214,179

[HitObjects]
136,192,180,5,2,0:0:0:0:
376,192,730,1,2,0:0:0:0:
136,192,1280,1,2,0:0:0:0:
376,192,1831,1,2,0:0:0:0:
96,140,2381,6,0,L|96:212,1,67.5,2|0,0:0|0:0,0:0:0:0:
164,208,2657,2,0,L|164:280,1,67.5
300,208,2932,2,0,L|300:280,1,67.5,2|0,0:0|0:0,0:0:0:0:
232,276,3208,2,0,L|232:348,1,67.5
368,212,3482,2,0,L|368:284,1,67.5,2|0,0:0|0:0,0:0:0:0:
300,280,3758,2,0,L|300:352,1,67.5
164,216,4033,2,0,L|164:288,1,67.5,2|0,0:0|0:0,0:0:0:0:
232,284,4309,2,0,L|232:356,1,67.5
436,348,4583,5,2,0:0:0:0:
220,348,5134,1,2,0:0:0:0:
436,220,5684,1,2,0:0:0:0:
312,224,5959,1,0,0:0:0:0:
312,224,6235,1,2,0:0:0:0:
436,220,6510,1,0,0:0:0:0:
92,152,6785,5,10,0:0:0:0:
32,152,6923,1,0,0:0:0:0:
92,152,7060,1,0,0:0:0:0:
320,152,7335,1,2,0:0:0:0:
212,152,7611,1,0,0:0:0:0:
440,92,7886,1,2,0:0:0:0:
376,92,8024,1,0,0:0:0:0:
312,92,8161,1,0,0:0:0:0:
248,92,8299,1,0,0:0:0:0:
184,92,8436,1,2,0:0:0:0:
416,92,8712,1,2,0:0:0:0:
88,96,8987,5,2,0:0:0:0:
304,92,9537,1,2,0:0:0:0:
88,96,10087,1,2,0:0:0:0:
304,92,10638,1,2,0:0:0:0:
36,140,11189,6,0,L|36:212,1,67.5,2|0,0:0|0:0,0:0:0:0:
104,208,11465,2,0,L|104:280,1,67.5
240,212,11740,2,0,L|240:284,1,67.5,2|0,0:0|0:0,0:0:0:0:
172,280,12014,2,0,L|172:352,1,67.5
308,212,12290,2,0,L|308:284,1,67.5,2|0,0:0|0:0,0:0:0:0:
376,280,12566,2,0,L|376:352,1,67.5
240,211,12841,2,0,L|240:283,1,67.5,2|0,0:0|0:0,0:0:0:0:
308,279,13115,2,0,L|308:351,1,67.5
104,344,13391,5,2,0:0:0:0:
320,348,13941,1,2,0:0:0:0:
104,220,14491,1,2,0:0:0:0:
228,220,14766,1,0,0:0:0:0:
228,220,15042,1,2,0:0:0:0:
104,220,15317,1,0,0:0:0:0:
432,152,15592,5,10,0:0:0:0:
492,152,15730,1,0,0:0:0:0:
432,152,15867,1,0,0:0:0:0:
204,152,16142,1,2,0:0:0:0:
312,152,16418,1,0,0:0:0:0:
84,92,16693,1,2,0:0:0:0:
148,92,16831,1,0,0:0:0:0:
212,92,16968,1,0,0:0:0:0:
276,92,17106,1,0,0:0:0:0:
340,92,17243,1,2,0:0:0:0:
108,92,17519,1,2,0:0:0:0:
440,92,17794,5,10,0:0:0:0:
440,136,17932,1,0,0:0:0:0:
392,136,18069,1,0,0:0:0:0:
168,136,18345,1,8,0:0:0:0:
168,224,18620,1,0,0:0:0:0:
368,224,18757,1,0,0:0:0:0:
368,224,18895,1,2,0:0:0:0:
100,224,19446,1,8,0:0:0:0:
452,188,19996,6,0,L|452:96,1,67.5,2|0,0:0|0:0,0:0:0:0:
376,132,20271,2,0,L|376:56,1,67.5
240,88,20546,2,0,L|240:172,1,67.5,8|0,0:0|0:0,0:0:0:0:
316,164,20822,2,0,L|316:240,1,67.5
180,224,21097,2,0,L|260:224,1,67.5,2|0,0:0|0:0,0:0:0:0:
316,292,21372,2,0,L|236:292,1,67.5
112,140,21647,2,0,L|192:140,1,67.5,8|0,0:0|0:0,0:0:0:0:
248,208,21923,2,0,L|248:284,1,67.5
56,276,22198,6,0,L|268:276,2,202.5,10|2|2,0:0|0:0|0:0,0:0:0:0:
272,276,23299,1,2,0:0:0:0:
68,272,23574,2,0,L|68:200,1,67.5
140,268,23849,2,0,L|208:268,1,67.5,8|0,0:0|0:0,0:0:0:0:
280,264,24124,2,0,L|280:192,1,67.5
88,144,24400,5,10,0:0:0:0:
88,192,24537,1,0,0:0:0:0:
140,192,24675,1,0,0:0:0:0:
348,140,24950,1,8,0:0:0:0:
132,136,25225,1,0,0:0:0:0:
340,140,25501,1,2,0:0:0:0:
340,200,25638,1,0,0:0:0:0:
260,196,25776,1,0,0:0:0:0:
260,248,25913,1,0,0:0:0:0:
340,252,26051,1,8,0:0:0:0:
140,252,26326,1,0,0:0:0:0:
468,168,26602,5,10,0:0:0:0:
140,164,26877,1,0,0:0:0:0:
276,164,27152,1,8,0:0:0:0:
276,164,27290,1,0,0:0:0:0:
60,164,27565,1,0,0:0:0:0:
60,164,27702,1,2,0:0:0:0:
244,160,28115,1,0,0:0:0:0:
244,160,28253,1,8,0:0:0:0:
120,160,28528,1,0,0:0:0:0:
448,156,28803,6,0,L|448:224,1,67.5,2|0,0:0|0:0,0:0:0:0:
372,228,29079,2,0,L|372:304,1,67.5
180,156,29354,2,0,L|180:224,1,67.5,8|0,0:0|0:0,0:0:0:0:
256,228,29630,2,0,L|256:304,1,67.5
64,156,29904,2,0,L|64:224,1,67.5,2|0,0:0|0:0,0:0:0:0:
140,228,30180,2,0,L|140:304,1,67.5
332,156,30455,2,0,L|332:224,1,67.5,8|0,0:0|0:0,0:0:0:0:
256,228,30731,2,0,L|256:304,1,67.5
448,296,31005,5,10,0:0:0:0:
328,296,31280,1,0,0:0:0:0:
112,300,31556,1,8,0:0:0:0:
116,192,31831,1,0,0:0:0:0:
304,188,31968,1,0,0:0:0:0:
304,188,32106,1,2,0:0:0:0:
96,192,32381,2,0,L|96:120,1,67.5
220,128,32657,2,0,L|220:56,1,67.5,8|0,0:0|0:0,0:0:0:0:
96,124,32932,2,0,L|96:52,1,67.5,0|0,0:0|0:0,0:0:0:0:
348,60,33207,6,0,L|416:60,2,67.5,10|0|0,0:0|0:0|0:0,0:0:0:0:
132,60,33757,1,8,0:0:0:0:
348,60,34033,1,0,0:0:0:0:
132,60,34308,2,0,L|132:128,1,67.5,2|0,0:0|0:0,0:0:0:0:
256,140,34583,2,0,L|256:208,1,67.5
132,212,34858,1,8,0:0:0:0:
364,212,35134,1,0,0:0:0:0:
32,212,35409,1,4,0:0:0:0:
