osu file format v14

[General]
AudioFilename: audio.mp3
AudioLeadIn: 0
PreviewTime: 17725
Countdown: 0
SampleSet: Soft
StackLeniency: 0.7
Mode: 2
LetterboxInBreaks: 0
WidescreenStoryboard: 1

[Editor]
DistanceSpacing: 2.4
BeatDivisor: 4
GridSize: 4
TimelineZoom: 1.4

[Metadata]
Title:introduction
TitleUnicode:introduction
Artist:in love with a ghost
ArtistUnicode:in love with a ghost
Creator:ZiRoX
Version:platter
Source:
Tags:healing ilwag electronic lofi lo-fi dream pop chillstep ambient chillout chillwave instrumental LGTB LGTBQ pride fa featured artist mappers' guild mpg bighzonda bigh
BeatmapID:3580550
BeatmapSetID:1750191

[Difficulty]
HPDrainRate:4
CircleSize:4.5
OverallDifficulty:7
ApproachRate:7
SliderMultiplier:2.5
SliderTickRate:1

[Events]
//Background and Video events
0,0,"introduction.jpg",0,0
//Break Periods
//Storyboard Layer 0 (Background)
//Storyboard Layer 1 (Fail)
//Storyboard Layer 2 (Pass)
//Storyboard Layer 3 (Foreground)
//Storyboard Layer 4 (Overlay)
//Storyboard Sound Samples

[TimingPoints]
180,550.45871559633,4,2,1,40,1,0
17794,-100,4,2,1,50,0,0
26602,-100,4,2,1,60,0,0

[Colours]
Combo1 : 255,238,182
Combo2 : 235,124,133
Combo3 : 234,167,140
Combo4 : 247,214,179

[HitObjects]
344,192,180,5,2,0:0:0:0:
168,192,730,1,2,0:0:0:0:
344,192,1280,1,2,0:0:0:0:
168,192,1831,1,2,0:0:0:0:
424,144,2381,6,0,L|424:76,1,62.5,2|0,0:0|0:0,0:0:0:0:
360,144,2657,2,0,L|360:72,1,62.5,0|0,0:0|0:0,0:0:0:0:
424,144,2932,2,0,L|424:76,1,62.5,2|0,0:0|0:0,0:0:0:0:
360,144,3207,1,0,0:0:0:0:
136,144,3482,6,0,L|136:76,1,62.5,2|0,0:0|0:0,0:0:0:0:
200,144,3758,2,0,L|200:72,1,62.5,0|0,0:0|0:0,0:0:0:0:
136,144,4033,2,0,L|136:76,1,62.5,2|0,0:0|0:0,0:0:0:0:
200,144,4308,1,0,0:0:0:0:
396,144,4583,5,2,0:0:0:0:
228,148,5134,1,2,0:0:0:0:
396,144,5684,1,2,0:0:0:0:
492,144,5959,1,0,0:0:0:0:
396,144,6235,1,2,0:0:0:0:
492,144,6510,1,0,0:0:0:0:
164,152,6785,5,10,0:0:0:0:
104,152,6923,1,0,0:0:0:0:
164,152,7060,1,0,0:0:0:0:
264,152,7335,1,2,0:0:0:0:
164,152,7611,1,0,0:0:0:0:
388,152,7886,1,2,0:0:0:0:
388,152,8024,1,0,0:0:0:0:
388,152,8161,1,0,0:0:0:0:
288,152,8436,1,2,0:0:0:0:
188,152,8712,1,2,0:0:0:0:
408,152,8987,5,2,0:0:0:0:
256,152,9537,1,2,0:0:0:0:
104,156,10087,1,2,0:0:0:0:
256,152,10638,1,2,0:0:0:0:
28,100,11189,6,0,L|28:168,1,62.5,2|0,0:0|0:0,0:0:0:0:
88,160,11464,2,0,L|168:160,1,62.5,0|0,0:0|0:0,0:0:0:0:
212,160,11739,2,0,L|212:232,1,62.5,2|0,0:0|0:0,0:0:0:0:
148,220,12014,1,0,0:0:0:0:
376,276,12290,6,0,L|376:208,1,62.5,2|0,0:0|0:0,0:0:0:0:
316,216,12565,2,0,L|236:216,1,62.5,0|0,0:0|0:0,0:0:0:0:
192,216,12840,2,0,L|192:144,1,62.5,2|0,0:0|0:0,0:0:0:0:
256,156,13115,1,0,0:0:0:0:
484,156,13390,5,2,0:0:0:0:
316,156,13941,1,2,0:0:0:0:
140,160,14491,1,2,0:0:0:0:
40,160,14766,1,0,0:0:0:0:
140,160,15042,1,2,0:0:0:0:
40,160,15317,1,0,0:0:0:0:
368,160,15592,5,10,0:0:0:0:
428,160,15730,1,0,0:0:0:0:
368,160,15867,1,0,0:0:0:0:
252,160,16142,1,2,0:0:0:0:
368,160,16418,1,0,0:0:0:0:
144,160,16693,5,2,0:0:0:0:
144,160,16831,1,0,0:0:0:0:
144,160,16968,1,0,0:0:0:0:
244,156,17243,1,2,0:0:0:0:
108,160,17519,1,2,0:0:0:0:
440,160,17794,5,10,0:0:0:0:
440,160,17932,1,0,0:0:0:0:
440,160,18069,1,0,0:0:0:0:
328,160,18345,1,8,0:0:0:0:
216,160,18620,1,0,0:0:0:0:
216,160,18757,1,0,0:0:0:0:
284,160,18895,1,2,0:0:0:0:
436,156,19446,1,8,0:0:0:0:
136,140,19996,6,0,L|136:212,1,62.5,2|0,0:0|0:0,0:0:0:0:
200,140,20271,2,0,L|200:202,1,62.5
136,140,20546,2,0,L|136:212,1,62.5,8|0,0:0|0:0,0:0:0:0:
200,202,20822,1,0,0:0:0:0:
416,140,21097,6,0,L|416:212,1,62.5,2|0,0:0|0:0,0:0:0:0:
352,141,21372,2,0,L|352:205,1,62.5
288,140,21647,2,0,L|288:212,1,62.5,8|0,0:0|0:0,0:0:0:0:
352,204,21923,1,0,0:0:0:0:
108,200,22198,6,0,L|288:136,2,187.5,10|2|2,0:0|0:0|0:0,0:0:0:0:
232,200,23299,1,2,0:0:0:0:
356,200,23574,1,0,0:0:0:0:
416,212,23711,1,0,0:0:0:0:
467,242,23849,1,8,0:0:0:0:
490,299,23986,1,0,0:0:0:0:
492,360,24124,1,0,0:0:0:0:
148,352,24400,5,10,0:0:0:0:
148,352,24537,1,0,0:0:0:0:
148,352,24675,1,0,0:0:0:0:
272,352,24950,1,8,0:0:0:0:
148,352,25225,1,0,0:0:0:0:
380,352,25501,1,2,0:0:0:0:
380,352,25638,1,0,0:0:0:0:
380,352,25776,1,0,0:0:0:0:
272,352,26051,1,8,0:0:0:0:
400,272,26326,1,0,0:0:0:0:
64,280,26602,5,10,0:0:0:0:
192,276,26877,1,0,0:0:0:0:
64,200,27152,1,8,0:0:0:0:
64,200,27290,1,0,0:0:0:0:
192,204,27565,1,0,0:0:0:0:
192,204,27702,1,2,0:0:0:0:
368,204,28253,1,8,0:0:0:0:
256,204,28528,1,0,0:0:0:0:
468,152,28803,6,0,L|392:152,1,62.5,2|0,0:0|0:0,0:0:0:0:
340,152,29079,2,0,L|277:152,1,62.5,0|0,0:0|0:0,0:0:0:0:
212,152,29354,2,0,L|136:152,1,62.5,8|0,0:0|0:0,0:0:0:0:
84,156,29629,1,0,0:0:0:0:
296,152,29904,6,0,L|220:152,1,62.5,2|0,0:0|0:0,0:0:0:0:
168,152,30180,2,0,L|168:224,1,62.5,0|0,0:0|0:0,0:0:0:0:
232,212,30455,2,0,L|308:212,1,62.5,8|0,0:0|0:0,0:0:0:0:
360,216,30730,1,0,0:0:0:0:
128,220,31005,5,10,0:0:0:0:
252,216,31280,1,0,0:0:0:0:
128,220,31556,1,8,0:0:0:0:
252,216,31831,1,0,0:0:0:0:
252,216,31968,1,0,0:0:0:0:
204,216,32106,1,2,0:0:0:0:
128,220,32381,1,0,0:0:0:0:
32,224,32657,1,8,0:0:0:0:
124,216,32932,1,0,0:0:0:0:
460,220,33207,5,10,0:0:0:0:
460,220,33345,1,0,0:0:0:0:
460,220,33482,1,0,0:0:0:0:
336,220,33757,1,8,0:0:0:0:
216,224,34033,1,0,0:0:0:0:
424,152,34308,1,2,0:0:0:0:
424,152,34446,1,0,0:0:0:0:
424,152,34583,1,0,0:0:0:0:
300,152,34858,1,8,0:0:0:0:
424,152,35134,1,0,0:0:0:0:
88,152,35409,5,4,0:0:0:0:
