osu file format v14

[General]
AudioFilename: audio.mp3
AudioLeadIn: 0
PreviewTime: 26480
Countdown: 0
SampleSet: Normal
StackLeniency: 0.7
Mode: 1
LetterboxInBreaks: 0
WidescreenStoryboard: 1

[Editor]
DistanceSpacing: 2.4
BeatDivisor: 4
GridSize: 32
TimelineZoom: 1

[Metadata]
Title:introduction
TitleUnicode:introduction
Artist:in love with a ghost
ArtistUnicode:in love with a ghost
Creator:Yasuho
Version:hello
Source:
Tags:irone_OSU irone osu electronic instrumental mappers' guild mg mpg fa featured artist chill chillwave chillout ambient dream chiptune lofi lo-fi ilwag healing downtempo
BeatmapID:3664838
BeatmapSetID:1788705

[Difficulty]
HPDrainRate:8.8
CircleSize:7
OverallDifficulty:5
ApproachRate:10
SliderMultiplier:1.4
SliderTickRate:1

[Events]
//Background and Video events
0,0,"healing.jpg",0,-120
//Break Periods
//Storyboard Layer 0 (Background)
//Storyboard Layer 1 (Fail)
//Storyboard Layer 2 (Pass)
//Storyboard Layer 3 (Foreground)
//Storyboard Layer 4 (Overlay)
//Storyboard Sound Samples

[TimingPoints]
196,550.45871559633,4,1,0,30,1,0
17810,-100,4,1,0,40,0,0
26618,-100,4,1,0,50,0,0

[HitObjects]
211,211,196,5,0,0:0:0:0:
211,211,746,5,8,0:0:0:0:
155,181,1021,5,8,0:0:0:0:
215,212,1296,5,0,0:0:0:0:
177,173,1847,5,8,0:0:0:0:
213,212,2397,5,8,0:0:0:0:
168,138,2673,5,8,0:0:0:0:
191,127,2810,5,0,0:0:0:0:
163,195,2948,5,8,0:0:0:0:
122,146,3223,5,0,0:0:0:0:
206,137,3361,5,0,0:0:0:0:
213,212,3498,5,8,0:0:0:0:
157,174,3773,5,0,0:0:0:0:
168,138,4049,5,8,0:0:0:0:
201,113,4324,5,8,0:0:0:0:
212,212,4599,5,0,0:0:0:0:
163,195,5150,5,8,0:0:0:0:
241,147,5700,5,0,0:0:0:0:
163,195,5975,5,8,0:0:0:0:
163,195,6251,5,0,0:0:0:0:
201,113,6526,5,8,0:0:0:0:
216,197,6801,5,8,0:0:0:0:
201,113,6939,5,8,0:0:0:0:
210,96,7076,5,0,0:0:0:0:
160,194,7351,5,8,0:0:0:0:
210,96,7627,5,0,0:0:0:0:
218,197,7902,5,8,0:0:0:0:
178,90,8177,5,8,0:0:0:0:
218,197,8452,5,0,0:0:0:0:
160,194,8728,5,8,0:0:0:0:
218,197,9003,5,0,0:0:0:0:
160,194,9553,5,8,0:0:0:0:
177,129,10104,5,0,0:0:0:0:
111,146,10654,5,8,0:0:0:0:
177,117,11205,5,0,0:0:0:0:
182,50,11480,5,8,0:0:0:0:
175,90,11618,5,0,0:0:0:0:
158,195,11755,5,8,0:0:0:0:
182,50,12030,5,8,0:0:0:0:
179,108,12168,5,8,0:0:0:0:
191,69,12306,5,0,0:0:0:0:
111,117,12581,5,0,0:0:0:0:
182,50,12856,5,8,0:0:0:0:
158,195,13131,5,8,0:0:0:0:
191,69,13407,5,0,0:0:0:0:
171,188,13957,5,8,0:0:0:0:
167,32,14507,5,0,0:0:0:0:
171,188,14783,5,0,0:0:0:0:
96,157,15058,5,8,0:0:0:0:
175,90,15333,5,8,0:0:0:0:
191,93,15608,5,8,0:0:0:0:
231,117,15746,5,8,0:0:0:0:
175,162,15884,5,8,0:0:0:0:
116,128,16159,5,0,0:0:0:0:
231,117,16434,5,0,0:0:0:0:
191,93,16709,5,8,0:0:0:0:
175,90,16984,5,8,0:0:0:0:
141,82,17260,5,0,0:0:0:0:
175,90,17535,5,0,0:0:0:0:
191,93,17810,5,8,0:0:0:0:
158,103,17948,5,0,0:0:0:0:
175,90,18085,5,8,0:0:0:0:
231,117,18361,5,8,0:0:0:0:
231,117,18636,5,8,0:0:0:0:
215,141,18773,5,8,0:0:0:0:
227,187,18911,5,0,0:0:0:0:
231,117,19462,5,8,0:0:0:0:
227,187,20012,5,0,0:0:0:0:
169,77,20287,5,0,0:0:0:0:
161,134,20425,5,0,0:0:0:0:
159,103,20562,5,8,0:0:0:0:
169,77,20838,5,8,0:0:0:0:
249,115,20975,5,8,0:0:0:0:
227,187,21113,5,0,0:0:0:0:
193,63,21388,5,0,0:0:0:0:
159,103,21663,5,8,0:0:0:0:
197,60,21939,5,8,0:0:0:0:
227,187,22214,5,0,0:0:0:0:
276,134,22627,5,0,0:0:0:0:
231,117,22764,5,8,0:0:0:0:
163,95,23040,5,0,0:0:0:0:
224,182,23315,5,8,0:0:0:0:
163,95,23590,5,0,0:0:0:0:
163,95,23865,5,8,0:0:0:0:
131,148,24140,5,8,0:0:0:0:
224,182,24416,5,0,0:0:0:0:
161,112,24553,5,8,0:0:0:0:
154,134,24691,5,0,0:0:0:0:
224,182,24966,5,0,0:0:0:0:
133,116,25241,5,8,0:0:0:0:
133,116,25379,5,8,0:0:0:0:
224,182,25517,5,0,0:0:0:0:
116,133,25792,5,8,0:0:0:0:
116,133,26067,5,0,0:0:0:0:
166,128,26342,5,0,0:0:0:0:
224,182,26618,5,0,0:0:0:0:
153,153,26893,5,8,0:0:0:0:
135,115,27168,5,8,0:0:0:0:
111,139,27306,5,0,0:0:0:0:
135,115,27581,5,0,0:0:0:0:
224,182,27718,5,8,0:0:0:0:
224,182,28269,5,8,0:0:0:0:
224,182,28819,5,0,0:0:0:0:
117,133,29095,5,8,0:0:0:0:
174,146,29232,5,0,0:0:0:0:
174,146,29370,5,8,0:0:0:0:
117,133,29645,5,8,0:0:0:0:
193,59,29783,5,8,0:0:0:0:
224,182,29920,5,0,0:0:0:0:
180,89,30195,5,0,0:0:0:0:
117,133,30471,5,8,0:0:0:0:
117,133,30746,5,0,0:0:0:0:
224,182,31021,5,8,0:0:0:0:
219,120,31296,5,0,0:0:0:0:
179,89,31572,5,8,0:0:0:0:
179,89,31847,5,8,0:0:0:0:
179,89,31984,5,0,0:0:0:0:
220,181,32122,5,0,0:0:0:0:
113,145,32397,5,0,0:0:0:0:
179,89,32673,5,8,0:0:0:0:
174,146,32948,5,0,0:0:0:0:
220,181,33223,5,8,0:0:0:0:
174,146,33361,5,0,0:0:0:0:
117,133,33498,5,8,0:0:0:0:
168,119,33773,5,0,0:0:0:0:
179,89,34049,5,0,0:0:0:0:
145,142,34186,5,0,0:0:0:0:
220,181,34324,5,8,0:0:0:0:
176,137,34462,5,8,0:0:0:0:
117,133,34599,5,0,0:0:0:0:
117,133,34874,5,8,0:0:0:0:
215,206,35150,5,8,0:0:0:0:
220,181,35425,5,0,0:0:0:0:
