osu file format v14

[General]
AudioFilename: audio.mp3
AudioLeadIn: 0
PreviewTime: 111
Countdown: 0
SampleSet: Soft
StackLeniency: 0.7
Mode: 0
LetterboxInBreaks: 0
WidescreenStoryboard: 0

[Editor]
DistanceSpacing: 1.1
BeatDivisor: 4
GridSize: 16
TimelineZoom: 2

[Metadata]
Title:introduction
TitleUnicode:introduction
Artist:in love with a ghost
ArtistUnicode:in love with a ghost
Creator:Orkay
Version:healing
Source:
Tags:electronic instrumental featured artist fa mpg mappers' guild chill chillwave chillout ambient dream chiptune lo-fi lofi
BeatmapID:3569450
BeatmapSetID:1745107

[Difficulty]
HPDrainRate:5
CircleSize:6
OverallDifficulty:8
ApproachRate:8
SliderMultiplier:2
SliderTickRate:1

[Events]
//Background and Video events
0,0,"introduction.jpg",0,0
//Break Periods
//Storyboard Layer 0 (Background)
//Storyboard Layer 1 (Fail)
//Storyboard Layer 2 (Pass)
//Storyboard Layer 3 (Foreground)
//Storyboard Layer 4 (Overlay)
//Storyboard Sound Samples

[TimingPoints]
180,550.45871559633,4,2,1,50,1,0
180,-166.666666666667,4,2,1,50,0,0
4583,-166.666666666667,4,2,1,50,0,0
6785,-125,4,2,1,50,0,0
7886,-142.857142857143,4,2,1,50,0,0
8987,-166.666666666667,4,2,1,50,0,0
15592,-125,4,2,1,50,0,0
16693,-142.857142857143,4,2,1,50,0,0
17794,-100,4,2,1,60,0,0
18207,-100,4,2,1,5,0,0
18345,-111.111111111111,4,2,1,60,0,0
18482,-111.111111111111,4,2,1,5,0,0
18620,-111.111111111111,4,2,1,60,0,0
18895,-125,4,2,1,60,0,0
22198,-100,4,2,1,60,0,0
22335,-100,4,2,1,5,0,0
22611,-111.111111111111,4,2,1,60,0,0
23024,-125,4,2,1,60,0,0
23161,-125,4,2,1,5,0,0
23299,-125,4,2,1,60,0,0
25501,-111.111111111111,4,2,1,60,0,0
26602,-100,4,2,1,65,0,0
26739,-100,4,2,1,5,0,0
26877,-100,4,2,1,65,0,0
27014,-100,4,2,1,5,0,0
27152,-111.111111111111,4,2,1,65,0,0
27427,-111.111111111111,4,2,1,5,0,0
27565,-111.111111111111,4,2,1,65,0,0
27702,-125,4,2,1,65,0,0
28253,-142.857142857143,4,2,1,65,0,0
31005,-125,4,2,1,65,0,0
31556,-100,4,2,1,65,0,0
31693,-100,4,2,1,5,0,0
31831,-100,4,2,1,65,0,0
32106,-125,4,2,1,65,0,0
34308,-111.111111111111,4,2,1,65,0,0

[Colours]
Combo1 : 255,117,114
Combo2 : 125,195,244
Combo3 : 230,96,213
Combo4 : 235,224,99

[HitObjects]
70,354,180,6,0,P|102:303|140:256,1,119.999996337891,2|2,0:0|0:0,0:0:0:0:
165,328,1280,2,0,P|110:352|57:380,1,119.999996337891,2|2,0:0|0:0,0:0:0:0:
1,370,2381,5,2,0:0:0:0:
60,383,2657,1,2,0:0:0:0:
145,354,2932,1,2,0:0:0:0:
221,261,3207,1,2,0:0:0:0:
79,139,3482,5,2,0:0:0:0:
116,252,3757,1,2,0:0:0:0:
185,309,4032,1,2,0:0:0:0:
247,318,4308,1,2,0:0:0:0:
247,318,4583,6,0,P|304:320|335:369,1,119.999996337891,2|2,0:0|0:0,0:0:0:0:
433,384,5684,2,0,P|450:360|478:353,1,59.9999981689454,2|2,0:0|0:0,0:0:0:0:
445,326,6235,2,0,P|474:323|498:339,1,59.9999981689454,2|2,0:0|0:0,0:0:0:0:
341,375,6785,5,2,0:0:0:0:
341,375,6923,1,2,0:0:0:0:
341,375,7060,2,0,P|304:357|267:342,2,80,2|2|2,0:0|0:0|0:0,0:0:0:0:
461,271,7886,1,2,0:0:0:0:
449,329,8161,1,2,0:0:0:0:
365,272,8436,2,0,P|363:237|386:211,1,69.9999978637696,2|2,0:0|0:0,0:0:0:0:
473,213,8987,6,0,P|435:164|403:115,1,119.999996337891,2|2,0:0|0:0,0:0:0:0:
377,182,10088,2,0,P|430:210|485:234,1,119.999996337891,2|2,0:0|0:0,0:0:0:0:
511,181,11189,5,2,0:0:0:0:
488,237,11465,1,2,0:0:0:0:
416,293,11740,1,2,0:0:0:0:
299,306,12015,1,2,0:0:0:0:
393,381,12289,5,2,0:0:0:0:
479,300,12564,1,2,0:0:0:0:
502,211,12839,1,2,0:0:0:0:
489,153,13115,1,2,0:0:0:0:
489,153,13391,6,0,P|456:106|399:107,1,119.999996337891,2|2,0:0|0:0,0:0:0:0:
249,16,14491,2,0,P|278:20|296:42,1,59.9999981689454,2|2,0:0|0:0,0:0:0:0:
304,0,15042,2,0,P|319:24|315:53,1,59.9999981689454,2|2,0:0|0:0,0:0:0:0:
271,161,15592,5,2,0:0:0:0:
271,161,15730,1,2,0:0:0:0:
271,161,15867,2,0,P|257:123|242:86,2,80,2|2|2,0:0|0:0|0:0,0:0:0:0:
438,197,16693,1,2,0:0:0:0:
380,185,16968,1,2,0:0:0:0:
261,254,17244,2,0,P|285:278|319:279,1,69.9999978637696,2|2,0:0|0:0,0:0:0:0:
321,213,17794,5,2,0:0:0:0:
321,213,17932,1,2,0:0:0:0:
321,213,18069,2,0,P|307:234|296:256,1,50,2|0,0:0|0:0,0:0:0:0:
332,342,18345,2,0,P|354:337|370:321,1,44.999998626709,10|0,0:0|0:0,0:0:0:0:
392,253,18620,1,2,0:0:0:0:
392,253,18757,1,2,0:0:0:0:
392,253,18895,2,0,P|317:281|245:317,1,160,2|10,0:0|0:0,0:0:0:0:
238,380,19996,5,2,0:0:0:0:
249,320,20272,1,2,0:0:0:0:
219,234,20547,1,10,0:0:0:0:
128,159,20822,1,2,0:0:0:0:
21,280,21097,5,2,0:0:0:0:
133,244,21372,1,2,0:0:0:0:
193,174,21647,1,10,0:0:0:0:
206,116,21923,1,2,0:0:0:0:
206,116,22198,6,0,P|204:92|215:70,1,50,2|0,0:0|0:0,0:0:0:0:
171,0,22611,6,0,P|152:12|142:32,1,44.999998626709,2|8,0:0|0:0,0:0:0:0:
299,78,23024,6,0,P|300:58|292:39,1,40,2|0,0:0|0:0,0:0:0:0:
209,119,23299,5,2,0:0:0:0:
88,77,23574,1,2,0:0:0:0:
76,12,23849,1,10,0:0:0:0:
91,79,24124,1,2,0:0:0:0:
38,131,24400,5,2,0:0:0:0:
38,131,24537,1,2,0:0:0:0:
38,131,24675,2,0,P|22:167|7:205,2,80,2|10|2,0:0|0:0|0:0,0:0:0:0:
153,232,25501,6,0,P|136:246|113:249,1,44.999998626709,2|2,0:0|0:0,0:0:0:0:
111,190,25776,2,0,P|127:231|144:273,1,89.9999972534181,2|10,0:0|0:0,0:0:0:0:
211,307,26326,1,2,0:0:0:0:
122,384,26602,6,0,P|98:376|74:369,1,50,2|0,3:2|0:0,0:0:0:0:
32,319,26877,2,0,P|55:311|79:304,1,50,2|0,0:0|0:0,0:0:0:0:
164,343,27152,1,10,0:0:0:0:
164,343,27290,2,0,P|178:358|200:365,1,44.999998626709,2|0,0:0|0:0,0:0:0:0:
270,313,27565,1,2,0:0:0:0:
270,313,27702,2,0,P|290:257|313:202,1,120,2|0,3:2|3:0,0:0:0:0:
291,147,28253,2,0,P|272:129|281:153,1,69.9999978637696,10|0,0:0|3:0,0:0:0:0:
316,205,28803,5,2,3:2:0:0:
375,193,29079,1,2,0:0:0:0:
446,136,29354,1,10,0:0:0:0:
485,25,29629,1,2,0:0:0:0:
276,38,29904,5,2,3:2:0:0:
388,71,30179,1,2,0:0:0:0:
449,139,30454,1,10,0:0:0:0:
458,202,30730,1,2,3:2:0:0:
458,202,31005,6,0,P|419:196|394:165,1,80,2|2,3:2|0:0,0:0:0:0:
489,29,31556,2,0,P|489:53|477:75,1,50,10|0,0:0|0:0,0:0:0:0:
402,100,31831,1,2,3:2:0:0:
402,100,31968,1,2,0:0:0:0:
402,100,32106,2,0,P|377:69|338:63,1,80,2|2,3:2|0:0,0:0:0:0:
308,76,32519,1,0,3:0:0:0:
308,76,32657,1,10,0:0:0:0:
422,16,32932,1,2,3:2:0:0:
342,145,33207,5,2,3:2:0:0:
342,145,33345,1,2,0:0:0:0:
342,145,33482,2,0,P|357:181|372:219,2,80,2|10|2,0:0|0:0|0:0,0:0:0:0:
203,40,34308,6,0,P|218:55|240:59,1,44.999998626709,2|2,3:2|0:0,0:0:0:0:
244,1,34583,2,0,P|226:42|210:84,1,89.9999972534181,2|10,0:0|0:0,0:0:0:0:
345,148,35134,1,2,0:0:0:0:
256,192,35409,5,2,3:2:0:0:
