osu file format v14

[General]
AudioFilename: audio.mp3
AudioLeadIn: 0
PreviewTime: 111
Countdown: 0
SampleSet: Soft
StackLeniency: 0.7
Mode: 0
LetterboxInBreaks: 0
WidescreenStoryboard: 1

[Editor]
DistanceSpacing: 1.4
BeatDivisor: 4
GridSize: 4
TimelineZoom: 1

[Metadata]
Title:introduction
TitleUnicode:introduction
Artist:in love with a ghost
ArtistUnicode:in love with a ghost
Creator:Orkay
Version:hard
Source:
Tags:electronic instrumental featured artist fa mpg mappers' guild chill chillwave chillout ambient dream chiptune lo-fi lofi
BeatmapID:3570092
BeatmapSetID:1745107

[Difficulty]
HPDrainRate:4
CircleSize:5
OverallDifficulty:6
ApproachRate:6
SliderMultiplier:1.4
SliderTickRate:1

[Events]
//Background and Video events
0,0,"introduction.jpg",0,0
//Break Periods
//Storyboard Layer 0 (Background)
//Storyboard Layer 1 (Fail)
//Storyboard Layer 2 (Pass)
//Storyboard Layer 3 (Foreground)
//Storyboard Layer 4 (Overlay)
//Storyboard Sound Samples

[TimingPoints]
180,550.45871559633,4,2,1,50,1,0
180,-125,4,2,1,50,0,0
17794,-111.111111111111,4,2,1,60,0,0
26602,-100,4,2,1,65,0,0

[Colours]
Combo1 : 255,117,114
Combo2 : 125,195,244
Combo3 : 230,96,213
Combo4 : 235,224,99

[HitObjects]
73,352,180,6,0,P|104:305|138:260,1,112,2|2,0:0|0:0,0:0:0:0:
277,191,1280,2,0,P|310:235|341:282,1,112,2|2,0:0|0:0,0:0:0:0:
218,382,2381,6,0,P|191:381|165:370,1,56,2|2,0:0|0:0,0:0:0:0:
85,374,2932,2,0,P|66:355|56:329,1,56,2|2,0:0|0:0,0:0:0:0:
65,254,3482,1,2,0:0:0:0:
65,254,3757,2,0,P|37:247|10:240,2,56,2|2|2,0:0|0:0|0:0,0:0:0:0:
111,190,4583,6,0,P|111:135|153:101,1,112,2|2,0:0|0:0,0:0:0:0:
285,19,5684,2,0,P|313:12|340:5,1,56,2|2,0:0|0:0,0:0:0:0:
411,39,6235,2,0,P|403:65|395:92,1,56,2|2,0:0|0:0,0:0:0:0:
449,164,6785,5,2,0:0:0:0:
449,164,6923,1,2,0:0:0:0:
449,164,7060,2,0,P|476:158|498:141,2,56,2|2|2,0:0|0:0|0:0,0:0:0:0:
373,167,7886,1,2,0:0:0:0:
373,167,8161,1,2,0:0:0:0:
314,218,8436,2,0,P|321:244|328:271,1,56,2|2,0:0|0:0,0:0:0:0:
280,334,8987,6,0,P|314:375|368:375,1,112,2|2,0:0|0:0,0:0:0:0:
489,273,10088,2,0,P|447:238|448:183,1,112,2|2,0:0|0:0,0:0:0:0:
510,39,11189,6,0,P|482:32|455:24,1,56,2|2,0:0|0:0,0:0:0:0:
381,0,11739,2,0,P|354:5|327:11,1,56,2|2,0:0|0:0,0:0:0:0:
265,61,12290,1,2,0:0:0:0:
265,61,12565,2,0,P|237:53|210:46,2,56,2|2|2,0:0|0:0|0:0,0:0:0:0:
295,133,13391,6,0,P|279:186|263:240,1,112,2|2,0:0|0:0,0:0:0:0:
129,322,14491,2,0,P|120:294|99:276,1,56,2|2,0:0|0:0,0:0:0:0:
31,240,15042,2,0,P|19:214|19:186,1,56,2|2,0:0|0:0,0:0:0:0:
46,118,15592,5,2,0:0:0:0:
46,118,15730,1,2,0:0:0:0:
46,118,15868,2,0,P|39:90|32:63,2,56,2|2|2,0:0|0:0|0:0,0:0:0:0:
101,179,16693,1,2,0:0:0:0:
101,179,16968,1,2,0:0:0:0:
178,163,17244,2,0,P|184:135|190:108,1,56,2|2,0:0|0:0,0:0:0:0:
174,30,17794,5,2,0:0:0:0:
174,30,17932,1,2,0:0:0:0:
174,30,18069,2,0,P|194:6|224:1,1,62.9999980773926,2|10,0:0|0:0,0:0:0:0:
314,40,18620,1,2,0:0:0:0:
314,40,18758,1,2,0:0:0:0:
314,40,18895,2,0,P|365:73|371:133,1,125.999996154785,2|10,0:0|0:0,0:0:0:0:
408,306,19996,6,0,P|438:298|469:291,1,62.9999980773926,2|2,0:0|0:0,0:0:0:0:
512,214,20546,2,0,P|481:206|450:199,1,62.9999980773926,10|2,0:0|0:0,0:0:0:0:
380,145,21097,1,2,0:0:0:0:
380,145,21372,2,0,P|386:114|394:83,2,62.9999980773926,2|10|2,0:0|0:0|0:0,0:0:0:0:
359,231,22198,6,0,P|348:260|323:280,1,62.9999980773926,2|0,0:0|0:0,0:0:0:0:
290,307,22611,2,0,P|265:287|255:257,1,62.9999980773926,2|0,0:0|0:0,0:0:0:0:
263,215,23024,1,2,0:0:0:0:
176,230,23299,2,0,P|145:236|114:242,1,62.9999980773926,2|2,0:0|0:0,0:0:0:0:
41,192,23849,2,0,P|47:161|53:130,1,62.9999980773926,10|2,0:0|0:0,0:0:0:0:
104,60,24400,5,2,0:0:0:0:
104,60,24537,1,2,0:0:0:0:
104,60,24675,2,0,L|91:-2,2,62.9999980773926,2|10|2,0:0|0:0|0:0,0:0:0:0:
36,115,25501,1,2,0:0:0:0:
36,115,25638,1,2,0:0:0:0:
36,115,25776,1,2,0:0:0:0:
15,200,26051,2,0,P|38:220|68:226,1,62.9999980773926,10|2,0:0|0:0,0:0:0:0:
164,200,26602,6,0,P|198:199|227:218,1,70,2|2,3:2|0:0,0:0:0:0:
285,302,27152,1,10,0:0:0:0:
285,302,27290,2,0,P|250:309|216:316,1,70,2|2,0:0|0:0,0:0:0:0:
181,350,27702,2,0,P|112:334|44:320,1,140,2|10,3:2|0:0,0:0:0:0:
26,224,28528,1,0,3:0:0:0:
8,128,28803,6,0,P|42:129|71:110,1,70,2|2,3:2|0:0,0:0:0:0:
138,38,29354,2,0,P|172:37|201:56,1,70,10|2,0:0|0:0,0:0:0:0:
264,136,29904,1,2,3:2:0:0:
264,136,30179,2,0,P|256:170|249:204,2,70,2|10|2,0:0|0:0|3:2,0:0:0:0:
343,77,31005,6,0,P|377:76|406:95,1,70,2|2,3:2|0:0,0:0:0:0:
477,163,31556,2,0,P|442:169|408:176,1,70,10|2,0:0|3:2,0:0:0:0:
363,190,31968,1,2,0:0:0:0:
363,190,32106,1,2,3:2:0:0:
427,263,32381,2,0,P|461:270|495:277,2,70,2|10|2,0:0|0:0|3:2,0:0:0:0:
352,324,33207,5,2,3:2:0:0:
352,324,33345,1,2,0:0:0:0:
352,324,33482,2,0,P|375:349|380:384,2,70,2|10|2,0:0|0:0|0:0,0:0:0:0:
270,286,34308,1,2,3:2:0:0:
270,286,34446,1,2,0:0:0:0:
270,286,34583,1,2,0:0:0:0:
183,242,34858,2,0,P|159:267|155:302,1,70,10|2,0:0|0:0,0:0:0:0:
256,376,35409,5,2,3:2:0:0:
