osu file format v14

[General]
AudioFilename: audio.mp3
AudioLeadIn: 0
PreviewTime: 24308
Countdown: 0
SampleSet: Normal
StackLeniency: 0.7
Mode: 1
LetterboxInBreaks: 0
WidescreenStoryboard: 0

[Editor]
DistanceSpacing: 1
BeatDivisor: 4
GridSize: 32
TimelineZoom: 1

[Metadata]
Title:introduction
TitleUnicode:introduction
Artist:in love with a ghost
ArtistUnicode:in love with a ghost
Creator:Nifty
Version:muzukashii
Source:
Tags:game 8 bit ilwag cute chiptune Lolinator Crowie Squishi Noffy
BeatmapID:1214607
BeatmapSetID:573321

[Difficulty]
HPDrainRate:6
CircleSize:5
OverallDifficulty:4
ApproachRate:10
SliderMultiplier:1.4
SliderTickRate:1

[Events]
//Background and Video events
0,0,"her name is Nemu.png",0,0
//Break Periods
//Storyboard Layer 0 (Background)
//Storyboard Layer 1 (Fail)
//Storyboard Layer 2 (Pass)
//Storyboard Layer 3 (Foreground)
//Storyboard Sound Samples

[TimingPoints]
88,550.45871559633,4,1,0,50,1,0
26510,-100,4,1,0,50,0,1
35317,-100,4,1,0,50,0,0

[HitObjects]
256,192,88,5,0,0:0:0:0:
256,192,638,1,8,0:0:0:0:
256,192,1188,1,0,0:0:0:0:
256,192,1739,1,8,0:0:0:0:
256,192,2289,1,0,0:0:0:0:
256,192,2427,1,0,0:0:0:0:
241,192,2565,1,0,0:0:0:0:
256,192,2840,1,8,0:0:0:0:
256,192,3115,1,0,0:0:0:0:
256,192,3390,1,8,0:0:0:0:
256,192,3528,1,8,0:0:0:0:
256,192,3665,1,8,0:0:0:0:
256,192,3941,1,0,0:0:0:0:
256,192,4216,1,8,0:0:0:0:
256,192,4491,1,0,0:0:0:0:
256,192,5042,1,8,0:0:0:0:
256,192,5592,1,0,0:0:0:0:
256,192,5867,1,0,0:0:0:0:
256,192,6143,1,8,0:0:0:0:
256,192,6693,1,8,0:0:0:0:
256,192,6831,1,8,0:0:0:0:
256,192,6968,1,8,0:0:0:0:
256,192,7243,1,8,0:0:0:0:
256,192,7519,1,0,0:0:0:0:
256,192,7794,1,0,0:0:0:0:
256,192,7932,1,0,0:0:0:0:
256,192,8069,1,0,0:0:0:0:
256,192,8344,1,8,0:0:0:0:
256,192,8620,1,0,0:0:0:0:
256,192,8895,1,0,0:0:0:0:
256,192,9445,1,8,0:0:0:0:
256,192,9996,1,0,0:0:0:0:
256,192,10546,1,8,0:0:0:0:
256,192,11097,1,0,0:0:0:0:
256,192,11235,1,0,0:0:0:0:
256,192,11373,1,0,0:0:0:0:
256,192,11648,1,8,0:0:0:0:
256,192,11923,1,0,0:0:0:0:
256,192,12198,1,8,0:0:0:0:
256,192,12336,1,8,0:0:0:0:
256,192,12473,1,8,0:0:0:0:
256,192,12749,1,0,0:0:0:0:
256,192,13024,1,8,0:0:0:0:
256,192,13299,1,0,0:0:0:0:
256,192,13850,1,8,0:0:0:0:
256,192,14400,1,0,0:0:0:0:
256,192,14675,1,0,0:0:0:0:
256,192,14951,1,8,0:0:0:0:
256,192,15501,1,8,0:0:0:0:
256,192,15639,1,8,0:0:0:0:
256,192,15776,1,8,0:0:0:0:
256,192,16051,1,8,0:0:0:0:
256,192,16327,1,0,0:0:0:0:
256,192,16601,1,0,0:0:0:0:
256,192,16739,1,0,0:0:0:0:
256,192,16877,1,0,0:0:0:0:
256,192,17152,1,8,0:0:0:0:
256,192,17428,1,0,0:0:0:0:
256,192,17703,1,0,0:0:0:0:
256,192,17977,1,8,0:0:0:0:
256,192,18253,1,8,0:0:0:0:
256,192,18528,1,0,0:0:0:0:
256,192,18665,1,0,0:0:0:0:
256,192,18803,1,0,0:0:0:0:
256,192,19354,1,8,0:0:0:0:
256,192,19904,1,0,0:0:0:0:
256,192,20042,1,0,0:0:0:0:
256,192,20179,1,0,0:0:0:0:
256,192,20454,1,8,0:0:0:0:
256,192,20730,1,0,0:0:0:0:
256,192,21005,1,8,0:0:0:0:
256,192,21143,1,8,0:0:0:0:
256,192,21280,1,8,0:0:0:0:
256,192,21555,1,0,0:0:0:0:
256,192,21831,1,8,0:0:0:0:
256,192,22106,1,8,0:0:0:0:
256,192,22519,1,0,0:0:0:0:
256,192,22932,1,0,0:0:0:0:
256,192,23207,1,8,0:0:0:0:
255,170,23757,1,8,0:0:0:0:
256,192,24032,1,0,0:0:0:0:
256,192,24308,1,8,0:0:0:0:
256,192,24445,1,8,0:0:0:0:
256,192,24583,1,8,0:0:0:0:
256,192,24858,1,8,0:0:0:0:
256,192,25133,1,0,0:0:0:0:
256,192,25409,1,0,0:0:0:0:
256,192,25546,1,0,0:0:0:0:
256,192,25684,1,0,0:0:0:0:
256,192,25959,1,8,0:0:0:0:
256,192,26510,1,12,0:0:0:0:
256,192,26785,1,0,0:0:0:0:
256,192,27060,1,8,0:0:0:0:
256,192,27198,1,0,0:0:0:0:
256,192,27473,1,0,0:0:0:0:
256,192,27610,1,0,0:0:0:0:
256,192,28023,1,0,0:0:0:0:
256,192,28161,1,8,0:0:0:0:
256,192,28436,1,0,0:0:0:0:
256,192,28711,1,0,0:0:0:0:
256,192,28849,1,0,0:0:0:0:
256,192,28987,1,0,0:0:0:0:
256,192,29262,1,8,0:0:0:0:
256,192,29537,1,0,0:0:0:0:
256,192,29812,1,8,0:0:0:0:
256,192,29950,1,8,0:0:0:0:
256,192,30087,1,8,0:0:0:0:
256,192,30363,1,0,0:0:0:0:
256,192,30638,1,8,0:0:0:0:
256,192,30913,1,0,0:0:0:0:
256,192,31188,1,0,0:0:0:0:
256,192,31464,1,8,0:0:0:0:
256,192,31739,1,0,0:0:0:0:
256,192,31876,1,0,0:0:0:0:
256,192,32014,1,0,0:0:0:0:
256,192,32427,1,0,0:0:0:0:
256,192,32565,1,8,0:0:0:0:
256,192,32840,1,0,0:0:0:0:
256,192,33115,1,8,0:0:0:0:
256,192,33253,1,8,0:0:0:0:
256,192,33390,1,8,0:0:0:0:
256,192,33665,1,8,0:0:0:0:
256,192,33941,1,0,0:0:0:0:
256,192,34216,1,0,0:0:0:0:
256,192,34354,1,0,0:0:0:0:
256,192,34491,1,0,0:0:0:0:
256,192,34766,1,8,0:0:0:0:
256,192,35042,1,0,0:0:0:0:
256,192,35317,1,0,0:0:0:0:
