osu file format v14

[General]
AudioFilename: audio.mp3
AudioLeadIn: 0
PreviewTime: 180
Countdown: 0
SampleSet: Normal
StackLeniency: 0.7
Mode: 1
LetterboxInBreaks: 0
WidescreenStoryboard: 1

[Editor]
DistanceSpacing: 2.4
BeatDivisor: 4
GridSize: 32
TimelineZoom: 0.7

[Metadata]
Title:introduction
TitleUnicode:introduction
Artist:in love with a ghost
ArtistUnicode:in love with a ghost
Creator:BlackBN
Version:futsuu
Source:
Tags:BlackBq healing chill chillwave chillout ambient chiptune ilwag lofi lo-fi downtempo Electronic Instrumental FA Featured Artist mappers' guild mpg mg
BeatmapID:4455668
BeatmapSetID:2120704

[Difficulty]
HPDrainRate:9.5
CircleSize:2
OverallDifficulty:3
ApproachRate:10
SliderMultiplier:1.4
SliderTickRate:1

[Events]
//Background and Video events
0,0,"bg.png",0,-10
//Break Periods
//Storyboard Layer 0 (Background)
//Storyboard Layer 1 (Fail)
//Storyboard Layer 2 (Pass)
//Storyboard Layer 3 (Foreground)
//Storyboard Layer 4 (Overlay)
//Storyboard Sound Samples

[TimingPoints]
180,550.45871559633,4,1,0,45,1,0
17657,-100,4,1,0,50,0,0
26464,-100,4,1,0,58,0,0

[HitObjects]
209,42,180,5,0,0:0:0:0:
256,192,730,1,8,0:0:0:0:
256,192,1280,1,0,0:0:0:0:
256,192,1831,1,8,0:0:0:0:
256,192,2381,1,8,0:0:0:0:
256,192,2657,1,8,0:0:0:0:
256,192,3207,1,0,0:0:0:0:
256,192,3482,1,8,0:0:0:0:
256,192,3757,1,8,0:0:0:0:
256,192,4033,1,8,0:0:0:0:
256,192,4583,1,0,0:0:0:0:
256,192,5134,1,8,0:0:0:0:
256,192,5684,1,0,0:0:0:0:
256,192,5959,1,0,0:0:0:0:
256,192,6235,1,0,0:0:0:0:
256,192,6785,1,8,0:0:0:0:
256,192,7335,1,8,0:0:0:0:
256,192,7611,1,0,0:0:0:0:
256,192,7886,1,8,0:0:0:0:
256,192,8987,1,0,0:0:0:0:
256,192,9537,1,8,0:0:0:0:
256,192,10088,1,0,0:0:0:0:
256,192,10638,1,8,0:0:0:0:
256,192,11189,1,8,0:0:0:0:
256,192,11464,1,8,0:0:0:0:
256,192,12014,1,8,0:0:0:0:
256,192,12290,1,0,0:0:0:0:
256,192,12565,1,8,0:0:0:0:
256,192,12840,1,8,0:0:0:0:
256,192,13391,1,0,0:0:0:0:
256,192,13941,1,8,0:0:0:0:
256,192,14491,1,0,0:0:0:0:
256,192,14767,1,0,0:0:0:0:
256,192,15042,1,8,0:0:0:0:
256,192,15592,1,8,0:0:0:0:
256,192,16143,1,8,0:0:0:0:
256,192,16418,1,0,0:0:0:0:
256,192,16693,1,8,0:0:0:0:
256,192,17794,1,0,0:0:0:0:
256,192,18069,1,0,0:0:0:0:
256,192,18345,1,8,0:0:0:0:
256,192,18895,1,0,0:0:0:0:
256,192,19446,1,8,0:0:0:0:
256,192,19996,1,0,0:0:0:0:
256,192,20271,1,8,0:0:0:0:
256,192,20822,1,8,0:0:0:0:
256,192,21097,1,0,0:0:0:0:
256,192,21372,1,8,0:0:0:0:
256,192,21647,1,8,0:0:0:0:
256,192,21923,1,0,0:0:0:0:
256,192,22198,1,8,0:0:0:0:
256,192,22748,1,8,0:0:0:0:
256,192,23299,1,0,0:0:0:0:
256,192,23574,1,0,0:0:0:0:
256,192,23849,1,8,0:0:0:0:
256,192,24400,1,8,0:0:0:0:
256,192,24950,1,0,0:0:0:0:
256,192,25501,1,8,0:0:0:0:
256,192,25776,1,8,0:0:0:0:
256,192,26051,1,0,0:0:0:0:
256,192,26602,1,8,0:0:0:0:
256,192,26877,1,0,0:0:0:0:
256,192,27152,1,8,0:0:0:0:
256,192,27702,1,0,0:0:0:0:
256,192,28253,1,8,0:0:0:0:
256,192,28803,1,0,0:0:0:0:
256,192,29079,1,8,0:0:0:0:
256,192,29629,1,8,0:0:0:0:
256,192,29904,1,8,0:0:0:0:
256,192,30179,1,0,0:0:0:0:
256,192,30455,1,8,0:0:0:0:
256,192,30730,1,8,0:0:0:0:
256,192,31005,1,0,0:0:0:0:
256,192,31556,1,8,0:0:0:0:
256,192,32106,1,0,0:0:0:0:
256,192,32381,1,0,0:0:0:0:
256,192,32657,1,8,0:0:0:0:
256,192,33207,1,8,0:0:0:0:
256,192,33757,1,0,0:0:0:0:
256,192,34308,1,8,0:0:0:0:
256,192,34583,1,8,0:0:0:0:
256,192,34858,1,0,0:0:0:0:
256,192,35134,1,8,0:0:0:0:
256,192,35409,1,0,0:0:0:0:
