osu file format v14

[General]
AudioFilename: audio.mp3
AudioLeadIn: 0
PreviewTime: 36178
Countdown: 0
SampleSet: Soft
StackLeniency: 0.7
Mode: 2
LetterboxInBreaks: 0
WidescreenStoryboard: 1

[Editor]
Bookmarks: 4178,20178,36178,52178,68178
DistanceSpacing: 1
BeatDivisor: 2
GridSize: 4
TimelineZoom: 1

[Metadata]
Title:iced tea for breakfast
TitleUnicode:iced tea for breakfast
Artist:in love with a ghost
ArtistUnicode:in love with a ghost
Creator:JBHyperion
Version:salad
Source:
Tags:featured artist fa mappers' guild mg mpg instrumental electronic chill chillout story ambient dream chillwave lofi lo-fi ilwag lgbt lgbtq pride
BeatmapID:3620593
BeatmapSetID:1768697

[Difficulty]
HPDrainRate:3
CircleSize:3.5
OverallDifficulty:6
ApproachRate:6
SliderMultiplier:1.8
SliderTickRate:2

[Events]
//Background and Video events
0,0,"gay story 1920x1080.jpg",0,0
//Break Periods
//Storyboard Layer 0 (Background)
//Storyboard Layer 1 (Fail)
//Storyboard Layer 2 (Pass)
//Storyboard Layer 3 (Foreground)
//Storyboard Layer 4 (Overlay)
//Storyboard Sound Samples

[TimingPoints]
2178,500,4,2,1,20,1,0
2678,-100,4,2,1,25,0,0
3178,-100,4,2,1,30,0,0
3678,-100,4,2,1,35,0,0
3928,-100,4,2,1,20,0,0
4178,-100,4,2,1,50,0,0
20178,-100,4,2,1,60,0,0
36678,-100,4,2,1,60,0,0
37178,-100,4,2,1,60,0,0
68178,-100,4,2,1,50,0,0
69178,-100,4,2,1,45,0,0
70178,-100,4,2,1,40,0,0
71178,-100,4,2,1,35,0,0
72178,-100,4,2,1,25,0,0
72678,-100,4,2,1,20,0,0
73178,-100,4,2,1,15,0,0
73678,-100,4,2,1,10,0,0
74178,-100,4,2,1,5,0,0

[Colours]
Combo1 : 128,128,128
Combo2 : 255,255,100
Combo3 : 100,180,255
Combo4 : 255,130,150

[HitObjects]
256,192,2178,12,0,3928,0:0:0:0:
388,192,4178,6,0,P|444:128|388:68,1,180,2|8,0:0|0:0,0:0:0:0:
308,68,4928,2,0,L|228:22,2,90,0|0|2,0:0|0:0|0:0,0:0:0:0:
488,68,5928,1,0,0:0:0:0:
400,68,6178,6,0,L|400:160,1,90,2|0,0:0|0:0,0:0:0:0:
492,192,6678,1,8,0:0:0:0:
400,158,6928,1,0,0:0:0:0:
220,192,7428,2,0,L|40:192,1,180,2|0,0:0|0:0,0:0:0:0:
128,192,8178,6,0,P|184:136|128:72,1,180,2|8,0:0|0:0,0:0:0:0:
40,72,8928,1,0,0:0:0:0:
40,72,9428,2,0,L|224:72,1,180,2|0,0:0|0:0,0:0:0:0:
308,72,10178,6,0,L|391:24,2,90,2|0|8,0:0|0:0|0:0,0:0:0:0:
220,72,10928,1,0,0:0:0:0:
400,192,11428,2,0,P|400:132|308:72,1,180,2|0,0:0|0:0,0:0:0:0:
216,72,12178,6,0,L|124:72,2,90,2|0|8,0:0|0:0|0:0,0:0:0:0:
307,72,12928,2,0,L|311:180,1,90,0|0,0:0|0:0,0:0:0:0:
220,164,13428,2,0,B|136:192|136:192|136:284,1,180,2|0,0:0|0:0,0:0:0:0:
224,284,14178,6,0,L|320:284,2,90,2|0|8,0:0|0:0|0:0,0:0:0:0:
136,284,14928,1,0,0:0:0:0:
136,284,15428,2,0,B|316:284,1,180,2|0,0:0|0:0,0:0:0:0:
408,284,16178,6,0,L|412:192,1,90,2|0,0:0|0:0,0:0:0:0:
313,194,16678,1,8,0:0:0:0:
224,192,16928,2,0,L|220:84,1,90,0|0,0:0|0:0,0:0:0:0:
313,194,17428,2,0,P|368:144|312:76,1,180,2|0,0:0|0:0,0:0:0:0:
220,102,18178,5,2,0:0:0:0:
56,100,18678,1,8,0:0:0:0:
144,100,18928,1,0,0:0:0:0:
144,188,19178,1,0,0:0:0:0:
56,188,19428,2,0,P|4:252|60:316,1,180,2|0,0:0|0:0,0:0:0:0:
148,316,20178,5,2,0:0:0:0:
236,316,20428,1,0,0:0:0:0:
136,316,20678,2,0,L|132:220,1,90,2|0,0:0|0:0,0:0:0:0:
360,192,21178,1,4,0:0:0:0:
448,192,21428,2,0,B|448:104|448:104|360:72,1,180,2|0,0:0|0:0,0:0:0:0:
272,72,22178,6,0,L|88:72,1,180,2|8,0:0|0:0,0:0:0:0:
92,72,22928,1,0,0:0:0:0:
180,72,23178,1,0,0:0:0:0:
272,72,23428,2,0,P|328:132|272:192,1,180,2|0,0:0|0:0,0:0:0:0:
184,192,24178,5,2,0:0:0:0:
284,192,24428,1,0,0:0:0:0:
60,192,24678,2,0,L|56:304,1,90,4|0,0:0|0:0,0:0:0:0:
215,282,25428,2,0,L|59:192,1,180,2|0,0:0|0:0,0:0:0:0:
148,192,26178,6,0,L|240:192,1,90,2|0,0:0|0:0,0:0:0:0:
328,192,26678,2,0,L|340:100,1,90,8|0,0:0|0:0,0:0:0:0:
249,102,27178,1,0,0:0:0:0:
159,102,27428,2,0,P|96:144|152:208,1,180,2|0,0:0|0:0,0:0:0:0:
328,192,28428,5,0,0:0:0:0:
112,204,28678,2,0,L|108:112,1,90,8|0,0:0|0:0,0:0:0:0:
328,192,29178,1,4,0:0:0:0:
416,192,29428,2,0,B|416:100|416:100|328:100,1,180,2|0,0:0|0:0,0:0:0:0:
240,104,30178,6,0,L|236:196,1,90,2|0,0:0|0:0,0:0:0:0:
328,196,30678,1,8,0:0:0:0:
328,288,30928,1,0,0:0:0:0:
236,288,31178,1,0,0:0:0:0:
148,288,31428,2,0,L|328:288,1,180,2|0,0:0|0:0,0:0:0:0:
148,288,32428,5,0,0:0:0:0:
372,288,32678,2,0,L|376:192,1,90,4|0,0:0|0:0,0:0:0:0:
196,192,33428,2,0,L|16:192,1,180,2|0,0:0|0:0,0:0:0:0:
104,192,34178,6,0,L|108:96,1,90,2|0,0:0|0:0,0:0:0:0:
196,192,34678,2,0,L|200:96,1,90,8|0,0:0|0:0,0:0:0:0:
107,102,35178,1,0,0:0:0:0:
199,102,35428,2,0,L|383:102,1,180,2|0,0:0|0:0,0:0:0:0:
156,192,36178,6,0,B|152:292,1,90,4|0,0:0|0:0,0:0:0:0:
256,352,36678,2,0,L|252:260,1,90,8|0,0:0|0:0,0:0:0:0:
28,192,37178,1,4,0:0:0:0:
28,192,37428,2,0,L|208:192,1,180,2|0,0:0|0:0,0:0:0:0:
296,188,38178,6,0,P|344:124|292:52,1,180,2|8,0:0|0:0,0:0:0:0:
204,52,38928,1,2,0:0:0:0:
112,187,39178,2,0,P|64:123|116:51,1,180,2|8,0:0|0:0,0:0:0:0:
204,51,39928,1,2,0:0:0:0:
292,52,40178,6,0,L|296:144,1,90,2|0,0:0|0:0,0:0:0:0:
72,192,40678,1,4,0:0:0:0:
160,192,40928,2,0,B|252:192|252:192|252:288,1,180,0|2,0:0|0:0,0:0:0:0:
160,332,41678,2,0,L|156:240,1,90,2|0,0:0|0:0,0:0:0:0:
232,192,42178,6,0,L|412:192,1,180,2|8,0:0|0:0,0:0:0:0:
324,192,42928,1,0,0:0:0:0:
232,192,43178,2,0,L|412:192,1,180,2|8,0:0|0:0,0:0:0:0:
412,192,43928,1,0,0:0:0:0:
324,192,44178,6,0,L|232:192,1,90,2|0,0:0|0:0,0:0:0:0:
16,192,44678,2,0,L|12:92,1,90,8|0,0:0|0:0,0:0:0:0:
236,40,45178,2,0,P|276:116|232:193,1,180,4|8,0:0|0:0,0:0:0:0:
144,192,45928,1,2,0:0:0:0:
233,191,46178,6,0,L|325:191,2,90,2|0|8,0:0|0:0|0:0,0:0:0:0:
52,192,47178,2,0,L|48:296,1,90,2|0,0:0|0:0,0:0:0:0:
132,312,47678,1,8,0:0:0:0:
332,192,48178,6,0,L|328:100,1,90,2|0,0:0|0:0,0:0:0:0:
104,32,48678,2,0,L|100:124,1,90,4|0,0:0|0:0,0:0:0:0:
192,192,49178,2,0,L|372:192,1,180,0|8,0:0|0:0,0:0:0:0:
460,192,49928,1,2,0:0:0:0:
372,192,50178,6,0,B|282:192|282:192|280:284,1,180,2|8,0:0|0:0,0:0:0:0:
372,284,50928,1,0,0:0:0:0:
460,192,51178,2,0,L|488:288,2,90,2|0|8,0:0|0:0|0:0,0:0:0:0:
80,60,52178,6,0,P|28:124|80:192,1,180,4|8,0:0|0:0,0:0:0:0:
180,192,52928,1,0,0:0:0:0:
400,192,53178,2,0,L|404:288,1,90,4|0,0:0|0:0,0:0:0:0:
304,344,53678,2,0,L|308:244,1,90,2|0,0:0|0:0,0:0:0:0:
403,281,54178,6,0,P|456:236|400:156,1,180,2|8,0:0|0:0,0:0:0:0:
304,156,54928,1,0,0:0:0:0:
204,156,55178,2,0,L|200:56,1,90,2|0,0:0|0:0,0:0:0:0:
300,68,55678,1,8,0:0:0:0:
200,66,55928,1,0,0:0:0:0:
416,68,56178,6,0,L|508:68,1,90,2|0,0:0|0:0,0:0:0:0:
284,192,56678,1,4,0:0:0:0:
196,192,56928,2,0,P|144:144|196:64,1,180,0|0,0:0|0:0,0:0:0:0:
284,64,57678,2,0,L|380:64,1,90,2|0,0:0|0:0,0:0:0:0:
376,152,58178,6,0,L|284:152,1,90,2|0,0:0|0:0,0:0:0:0:
196,152,58678,1,8,0:0:0:0:
296,152,58928,1,0,0:0:0:0:
384,152,59178,2,0,P|436:224|384:288,1,180,2|8,0:0|0:0,0:0:0:0:
296,288,59928,1,0,0:0:0:0:
206,288,60178,6,0,L|298:288,1,90,2|0,0:0|0:0,0:0:0:0:
80,288,60678,2,0,L|76:192,1,90,8|0,0:0|0:0,0:0:0:0:
300,192,61178,1,4,0:0:0:0:
388,192,61428,2,0,P|440:120|388:56,1,180,0|0,0:0|0:0,0:0:0:0:
300,56,62178,6,0,L|120:56,1,180,2|8,0:0|0:0,0:0:0:0:
208,56,62928,1,0,0:0:0:0:
120,56,63178,2,0,B|300:56,1,180,2|8,0:0|0:0,0:0:0:0:
392,56,63928,1,0,0:0:0:0:
176,144,64178,6,0,L|84:144,1,90,2|0,0:0|0:0,0:0:0:0:
304,272,64678,1,4,0:0:0:0:
392,272,64928,2,0,P|444:224|392:144,1,180,0|0,0:0|0:0,0:0:0:0:
304,144,65678,2,0,L|208:144,1,90,2|0,0:0|0:0,0:0:0:0:
124,144,66178,6,0,L|120:48,1,90,2|0,0:0|0:0,0:0:0:0:
212,56,66678,2,0,L|312:56,1,90,8|0,0:0|0:0,0:0:0:0:
212,56,67178,2,0,L|314:56,1,90,2|0,0:0|0:0,0:0:0:0:
392,56,67678,2,0,L|396:160,1,90,8|0,0:0|0:0,0:0:0:0:
172,192,68178,6,0,L|168:284,1,90,2|0,0:0|0:0,0:0:0:0:
268,264,68678,2,0,L|272:356,1,90,8|0,0:0|0:0,0:0:0:0:
452,192,69428,2,0,B|452:104|452:104|360:72,1,180,2|0,0:0|0:0,0:0:0:0:
276,72,70178,6,0,L|272:172,1,90,2|0,0:0|0:0,0:0:0:0:
172,192,70678,1,8,0:0:0:0:
84,192,70928,1,0,0:0:0:0:
84,280,71178,1,0,0:0:0:0:
172,280,71428,2,0,L|360:280,1,180,2|0,0:0|0:0,0:0:0:0:
256,192,72178,12,0,74178,0:0:0:0:
