osu file format v14

[General]
AudioFilename: audio.mp3
AudioLeadIn: 0
PreviewTime: 36178
Countdown: 0
SampleSet: Soft
StackLeniency: 0.7
Mode: 2
LetterboxInBreaks: 0
WidescreenStoryboard: 1

[Editor]
Bookmarks: 4178,20178,36178,52178,68178
DistanceSpacing: 1
BeatDivisor: 2
GridSize: 4
TimelineZoom: 1

[Metadata]
Title:iced tea for breakfast
TitleUnicode:iced tea for breakfast
Artist:in love with a ghost
ArtistUnicode:in love with a ghost
Creator:JBHyperion
Version:rain
Source:
Tags:featured artist fa mappers' guild mg mpg instrumental electronic chill chillout story ambient dream chillwave lofi lo-fi ilwag lgbt lgbtq pride
BeatmapID:3620592
BeatmapSetID:1768697

[Difficulty]
HPDrainRate:5
CircleSize:4.5
OverallDifficulty:8
ApproachRate:8
SliderMultiplier:2.2
SliderTickRate:2

[Events]
//Background and Video events
0,0,"gay story 1920x1080.jpg",0,0
//Break Periods
//Storyboard Layer 0 (Background)
//Storyboard Layer 1 (Fail)
//Storyboard Layer 2 (Pass)
//Storyboard Layer 3 (Foreground)
//Storyboard Layer 4 (Overlay)
//Storyboard Sound Samples

[TimingPoints]
2178,500,4,2,1,20,1,0
2678,-100,4,2,1,25,0,0
3178,-100,4,2,1,30,0,0
3678,-100,4,2,1,35,0,0
3928,-100,4,2,1,20,0,0
4178,-100,4,2,1,50,0,0
20178,-100,4,2,1,60,0,0
36678,-83.3333333333333,4,2,1,60,0,0
37178,-100,4,2,1,60,0,0
68178,-100,4,2,1,50,0,0
69178,-100,4,2,1,45,0,0
70178,-100,4,2,1,40,0,0
71178,-100,4,2,1,35,0,0
72178,-100,4,2,1,25,0,0
72678,-100,4,2,1,20,0,0
73178,-100,4,2,1,15,0,0
73678,-100,4,2,1,10,0,0
74178,-100,4,2,1,5,0,0

[Colours]
Combo1 : 128,128,128
Combo2 : 255,255,100
Combo3 : 100,180,255
Combo4 : 255,130,150

[HitObjects]
256,192,2178,12,0,3928,0:0:0:0:
368,192,4178,6,0,L|480:192,2,110,2|0|8,0:0|0:0|0:0,0:0:0:0:
148,192,4928,2,0,L|144:332,1,110
368,192,5428,2,0,P|368:100|256:48,1,220,2|0,0:0|0:0,0:0:0:0:
44,192,6178,6,0,L|164:192,2,110,2|0|8,0:0|0:0|0:0,0:0:0:0:
264,192,6928,2,0,L|266:304,1,110
488,192,7428,2,0,B|488:304|488:304|384:344,1,220,2|0,0:0|0:0,0:0:0:0:
168,304,8178,6,0,L|172:188,1,110,2|0,0:0|0:0,0:0:0:0:
280,192,8678,1,8,0:0:0:0:
60,192,8928,2,0,L|56:68,1,110
275,48,9428,2,0,P|275:140|163:192,1,220,2|0,0:0|0:0,0:0:0:0:
392,192,10178,6,0,L|504:192,1,110,2|0,0:0|0:0,0:0:0:0:
280,24,10678,2,0,L|276:136,1,110,8|0,0:0|0:0,0:0:0:0:
392,192,11178,1,0,0:0:0:0:
500,192,11428,2,0,B|500:84|500:84|392:56,1,220,2|0,0:0|0:0,0:0:0:0:
172,192,12178,6,0,L|168:68,1,110,2|0,0:0|0:0,0:0:0:0:
391,55,12678,1,8,0:0:0:0:
276,56,12928,2,0,L|272:184,1,110
492,192,13428,2,0,B|492:300|492:300|388:340,1,220,2|0,0:0|0:0,0:0:0:0:
168,340,14178,6,0,L|52:340,1,110,2|0,0:0|0:0,0:0:0:0:
280,340,14678,2,0,L|392:340,1,110,8|0,0:0|0:0,0:0:0:0:
390,340,15178,1,0,0:0:0:0:
168,192,15428,2,0,B|56:192|56:192|56:80,1,220,2|0,0:0|0:0,0:0:0:0:
273,192,16178,6,0,L|277:76,1,110,2|0,0:0|0:0,0:0:0:0:
492,192,16678,2,0,L|496:80,1,110,8|0,0:0|0:0,0:0:0:0:
384,48,17178,1,0,0:0:0:0:
164,48,17428,2,0,P|96:112|164:192,1,220,2|0,0:0|0:0,0:0:0:0:
276,192,18053,1,0,0:0:0:0:
388,192,18178,6,0,L|444:192,2,55,2|2|2,0:0|0:0|0:0,0:0:0:0:
168,28,18678,1,8,0:0:0:0:
136,136,18928,1,0,0:0:0:0:
232,192,19178,1,0,0:0:0:0:
452,192,19428,2,0,B|452:300|452:300|344:344,1,220,2|0,0:0|0:0,0:0:0:0:
148,344,20178,5,2,0:0:0:0:
368,344,20428,1,0,0:0:0:0:
36,344,20678,2,0,L|32:232,1,110,2|0,0:0|0:0,0:0:0:0:
384,192,21178,1,4,0:0:0:0:
496,192,21428,2,0,B|496:84|496:84|388:56,1,220,2|0,0:0|0:0,0:0:0:0:
276,56,22178,6,0,L|392:56,1,110,2|0,0:0|0:0,0:0:0:0:
164,52,22678,1,8,0:0:0:0:
68,104,22928,1,0,0:0:0:0:
164,160,23178,1,0,0:0:0:0:
384,192,23428,2,0,P|456:260|384:336,1,220,2|0,0:0|0:0,0:0:0:0:
280,336,24178,5,2,0:0:0:0:
480,336,24428,1,0,0:0:0:0:
148,336,24678,2,0,L|144:304,1,27.5,4|0,0:0|0:0,0:0:0:0:
312,192,24928,2,0,L|424:192,1,110
300,192,25428,2,0,P|216:128|272:52,1,220,2|0,0:0|0:0,0:0:0:0:
492,32,26178,6,0,L|494:152,1,110,2|0,0:0|0:0,0:0:0:0:
264,192,26678,1,8,0:0:0:0:
374,192,26928,1,0,0:0:0:0:
484,192,27178,1,0,0:0:0:0:
260,192,27428,2,0,L|256:80,1,110,2|0,0:0|0:0,0:0:0:0:
364,56,27928,1,0,0:0:0:0:
256,82,28178,5,2,0:0:0:0:
464,56,28428,1,0,0:0:0:0:
176,192,28615,1,0,0:0:0:0:
148,192,28678,2,0,L|36:192,1,110,8|0,0:0|0:0,0:0:0:0:
368,192,29178,1,4,0:0:0:0:
260,192,29428,2,0,B|148:192|148:192|148:80,1,220,2|0,0:0|0:0,0:0:0:0:
272,20,30178,6,0,L|276:132,1,110,2|0,0:0|0:0,0:0:0:0:
56,192,30678,1,8,0:0:0:0:
8,292,30928,1,0,0:0:0:0:
108,340,31178,1,0,0:0:0:0:
328,192,31428,2,0,L|104:192,1,220,2|0,0:0|0:0,0:0:0:0:
228,192,32178,5,2,0:0:0:0:
28,192,32428,1,0,0:0:0:0:
412,336,32678,2,0,L|416:304,1,27.5,4|0,0:0|0:0,0:0:0:0:
248,192,32928,2,0,L|136:192,1,110
260,192,33428,2,0,B|368:192|368:192|368:80,1,220,2|0,0:0|0:0,0:0:0:0:
248,80,34178,6,0,L|360:80,1,110,2|0,0:0|0:0,0:0:0:0:
136,80,34678,2,0,L|132:192,1,110,8|0,0:0|0:0,0:0:0:0:
240,192,35178,1,0,0:0:0:0:
460,192,35428,2,0,L|359:134,2,110,2|0|0,0:0|0:0|0:0,0:0:0:0:
96,192,36178,6,0,B|92:308,1,110,4|0,0:0|0:0,0:0:0:0:
300,192,36678,2,0,L|164:192,1,131.99999597168,8|0,0:0|0:0,0:0:0:0:
496,192,37178,1,4,0:0:0:0:
388,192,37428,2,0,L|168:192,1,220,2|0,0:0|0:0,0:0:0:0:
388,192,38178,5,2,0:0:0:0:
288,148,38428,1,0,0:0:0:0:
288,40,38678,1,8,0:0:0:0:
388,0,38928,1,2,0:0:0:0:
188,192,39178,1,2,0:0:0:0:
288,148,39428,1,0,0:0:0:0:
288,40,39678,1,8,0:0:0:0:
188,0,39928,1,2,0:0:0:0:
496,8,40178,6,0,L|500:124,1,110,2|0,0:0|0:0,0:0:0:0:
280,192,40678,2,0,L|252:192,1,27.5,4|0,0:0|0:0,0:0:0:0:
500,308,40928,2,0,P|508:208|412:152,1,220,0|2,0:0|0:0,0:0:0:0:
304,152,41678,2,0,L|420:152,1,110,2|0,0:0|0:0,0:0:0:0:
194,108,42178,6,0,L|82:108,3,110,2|0|8|0,0:0|0:0|0:0|0:0,0:0:0:0:
302,192,43178,2,0,L|306:72,1,110,2|0,0:0|0:0,0:0:0:0:
196,84,43678,1,8,0:0:0:0:
372,192,43928,1,0,0:0:0:0:
20,192,44178,6,0,L|132:192,1,110,2|0,0:0|0:0,0:0:0:0:
384,192,44615,1,0,0:0:0:0:
412,192,44678,2,0,B|468:192|468:192|408:192,1,110,8|0,0:0|0:0,0:0:0:0:
84,192,45178,2,0,L|80:80,1,110,4|0,0:0|0:0,0:0:0:0:
256,36,45678,1,8,0:0:0:0:
64,84,45928,1,2,0:0:0:0:
284,36,46178,6,0,L|400:36,1,110,2|0,0:0|0:0,0:0:0:0:
264,36,46678,2,0,L|261:153,1,110,8|0,0:0|0:0,0:0:0:0:
44,192,47178,2,0,L|40:324,1,110,2|0,0:0|0:0,0:0:0:0:
164,192,47678,1,8,0:0:0:0:
28,304,47928,1,2,0:0:0:0:
360,324,48178,6,0,L|472:324,1,110,2|0,0:0|0:0,0:0:0:0:
140,192,48678,2,0,L|136:160,1,27.5,4|0,0:0|0:0,0:0:0:0:
240,192,48928,1,0,0:0:0:0:
20,192,49178,1,0,0:0:0:0:
28,84,49428,1,2,0:0:0:0:
108,12,49678,1,8,0:0:0:0:
216,12,49928,1,2,0:0:0:0:
436,60,50178,5,2,0:0:0:0:
328,60,50428,1,0,0:0:0:0:
216,60,50678,1,8,0:0:0:0:
328,60,50928,1,0,0:0:0:0:
108,60,51178,2,0,L|104:180,1,110,2|0,0:0|0:0,0:0:0:0:
324,192,51678,2,0,L|436:192,1,110,8|2,0:0|0:0,0:0:0:0:
92,60,52178,6,0,P|36:128|124:192,1,220,4|8,0:0|0:0,0:0:0:0:
344,192,52928,1,0,0:0:0:0:
20,192,53178,2,0,L|16:304,1,110,4|0,0:0|0:0,0:0:0:0:
236,316,53678,2,0,L|116:316,1,110,2|0,0:0|0:0,0:0:0:0:
352,316,54178,5,2,0:0:0:0:
344,208,54428,1,0,0:0:0:0:
264,136,54678,1,8,0:0:0:0:
156,136,54928,1,0,0:0:0:0:
376,44,55178,2,0,L|488:44,1,110,2|0,0:0|0:0,0:0:0:0:
264,136,55678,2,0,L|144:136,1,110,8|0,0:0|0:0,0:0:0:0:
486,44,56178,6,0,L|490:156,1,110,2|0,0:0|0:0,0:0:0:0:
264,192,56678,2,0,L|232:192,1,27.5,4|0,0:0|0:0,0:0:0:0:
484,312,56928,2,0,B|484:200|484:200|376:192,1,220
156,192,57678,2,0,L|152:320,1,110,2|0,0:0|0:0,0:0:0:0:
372,82,58178,6,0,L|376:202,1,110,2|0,0:0|0:0,0:0:0:0:
168,192,58678,1,8,0:0:0:0:
388,192,58928,1,0,0:0:0:0:
168,192,59178,2,0,L|56:192,1,110,2|0,0:0|0:0,0:0:0:0:
278,192,59678,2,0,L|166:192,1,110,8|0,0:0|0:0,0:0:0:0:
492,32,60178,6,0,L|496:148,1,110,2|0,0:0|0:0,0:0:0:0:
248,192,60615,2,0,L|216:192,1,27.5,0|8,0:0|0:0,0:0:0:0:
416,192,60928,1,0,0:0:0:0:
76,192,61178,2,0,L|192:192,3,110,4|0|2|0,0:0|0:0|0:0|0:0,0:0:0:0:
404,192,62178,6,0,L|408:304,1,110,2|0,0:0|0:0,0:0:0:0:
215,333,62678,1,8,0:0:0:0:
407,301,62928,1,0,0:0:0:0:
188,192,63178,2,0,B|284:136,1,110,2|0,0:0|0:0,0:0:0:0:
496,192,63678,2,0,B|380:192,1,110,8|0,0:0|0:0,0:0:0:0:
44,192,64178,6,0,L|40:316,1,110,2|0,0:0|0:0,0:0:0:0:
368,360,64678,2,0,L|372:320,1,27.5,4|0,0:0|0:0,0:0:0:0:
204,340,64928,2,0,P|140:288|208:192,1,220
328,192,65678,2,0,L|332:76,1,110,2|0,0:0|0:0,0:0:0:0:
108,28,66178,6,0,L|220:28,1,110,2|0,0:0|0:0,0:0:0:0:
96,28,66678,2,0,L|92:156,1,110,8|0,0:0|0:0,0:0:0:0:
316,192,67178,2,0,L|204:192,1,110,2|0,0:0|0:0,0:0:0:0:
424,192,67678,2,0,L|428:320,1,110,8|0,0:0|0:0,0:0:0:0:
96,324,68178,5,2,0:0:0:0:
82,299,68240,1,0,0:0:0:0:
75,273,68303,1,0,0:0:0:0:
75,245,68365,1,0,0:0:0:0:
82,219,68428,1,0,0:0:0:0:
292,192,68678,1,8,0:0:0:0:
305,167,68740,1,0,0:0:0:0:
312,141,68803,1,0,0:0:0:0:
312,113,68865,1,0,0:0:0:0:
305,87,68928,1,0,0:0:0:0:
196,84,69178,1,0,0:0:0:0:
416,80,69428,2,0,B|416:192|416:192|304:192,1,220,2|0,0:0|0:0,0:0:0:0:
100,192,70178,6,0,L|96:308,1,110,2|0,0:0|0:0,0:0:0:0:
304,360,70678,1,8,0:0:0:0:
400,304,70928,1,0,0:0:0:0:
304,252,71178,1,0,0:0:0:0:
184,252,71428,2,0,P|112:196|188:128,1,220,2|0,0:0|0:0,0:0:0:0:
256,192,72178,12,0,74178,0:0:0:0:
