osu file format v14

[General]
AudioFilename: audio.mp3
AudioLeadIn: 0
PreviewTime: 36178
Countdown: 0
SampleSet: Soft
StackLeniency: 0.7
Mode: 2
LetterboxInBreaks: 0
WidescreenStoryboard: 0

[Editor]
Bookmarks: 4178,20178,36178,52178,68178
DistanceSpacing: 1
BeatDivisor: 2
GridSize: 4
TimelineZoom: 1

[Metadata]
Title:iced tea for breakfast
TitleUnicode:iced tea for breakfast
Artist:in love with a ghost
ArtistUnicode:in love with a ghost
Creator:JBHyperion
Version:cup
Source:
Tags:featured artist fa mappers' guild mg mpg instrumental electronic chill chillout story ambient dream chillwave lofi lo-fi ilwag lgbt lgbtq pride
BeatmapID:3620590
BeatmapSetID:1768697

[Difficulty]
HPDrainRate:2
CircleSize:3
OverallDifficulty:5
ApproachRate:5
SliderMultiplier:1.6
SliderTickRate:2

[Events]
//Background and Video events
0,0,"gay story 1920x1080.jpg",0,0
//Break Periods
//Storyboard Layer 0 (Background)
//Storyboard Layer 1 (Fail)
//Storyboard Layer 2 (Pass)
//Storyboard Layer 3 (Foreground)
//Storyboard Layer 4 (Overlay)
//Storyboard Sound Samples

[TimingPoints]
2178,500,4,2,1,20,1,0
2678,-100,4,2,1,25,0,0
3178,-100,4,2,1,30,0,0
3678,-100,4,2,1,35,0,0
3928,-100,4,2,1,20,0,0
4178,-100,4,2,1,50,0,0
20178,-100,4,2,1,60,0,0
36678,-100,4,2,1,60,0,0
37178,-100,4,2,1,60,0,0
68178,-100,4,2,1,50,0,0
69178,-100,4,2,1,45,0,0
70178,-100,4,2,1,40,0,0
71178,-100,4,2,1,35,0,0
72178,-100,4,2,1,25,0,0
72678,-100,4,2,1,20,0,0
73178,-100,4,2,1,15,0,0
73678,-100,4,2,1,10,0,0
74178,-100,4,2,1,5,0,0

[Colours]
Combo1 : 128,128,128
Combo2 : 255,255,100
Combo3 : 100,180,255
Combo4 : 255,130,150

[HitObjects]
256,192,2178,12,0,3928,0:0:0:0:
260,192,4178,6,0,P|216:132|260:68,1,160,2|8,0:0|0:0,0:0:0:0:
340,68,4928,2,0,L|500:68,1,160,0|2,0:0|0:0,0:0:0:0:
500,68,5928,1,0,0:0:0:0:
420,68,6178,6,0,L|256:68,1,160,2|8,0:0|0:0,0:0:0:0:
180,68,6928,1,0,0:0:0:0:
340,68,7428,2,0,P|384:128|340:192,1,160,2|0,0:0|0:0,0:0:0:0:
260,192,8178,5,2,0:0:0:0:
260,192,8678,1,8,0:0:0:0:
180,192,8928,2,0,P|100:220|80:304,2,160,0|2|0,0:0|0:0|0:0,0:0:0:0:
260,192,10178,6,0,L|284:112,2,80,2|0|8,0:0|0:0|0:0,0:0:0:0:
180,192,10928,1,0,0:0:0:0:
20,192,11428,2,0,P|12:144|84:64,1,160,2|0,0:0|0:0,0:0:0:0:
160,68,12178,6,0,L|320:68,1,160,2|8,0:0|0:0,0:0:0:0:
400,68,12928,1,0,0:0:0:0:
400,68,13178,1,0,0:0:0:0:
320,68,13428,2,0,P|276:124|320:192,1,160,2|0,0:0|0:0,0:0:0:0:
396,192,14178,5,2,0:0:0:0:
236,192,14678,2,0,L|163:234,2,80,8|0|0,0:0|0:0|0:0,0:0:0:0:
316,192,15428,2,0,B|396:192|396:192|396:272,1,160,2|0,0:0|0:0,0:0:0:0:
316,272,16178,6,0,L|156:272,1,160,2|8,0:0|0:0,0:0:0:0:
76,272,16928,1,0,0:0:0:0:
76,272,17178,1,0,0:0:0:0:
156,272,17428,2,0,P|200:216|156:148,1,160,2|0,0:0|0:0,0:0:0:0:
80,148,18178,5,2,0:0:0:0:
80,148,18678,1,8,0:0:0:0:
160,148,18928,1,0,0:0:0:0:
240,148,19178,1,0,0:0:0:0:
320,148,19428,2,0,P|364:96|320:28,1,160,2|0,0:0|0:0,0:0:0:0:
240,28,20178,5,2,0:0:0:0:
160,28,20428,1,0,0:0:0:0:
248,28,20678,2,0,L|252:116,1,80,2|0,0:0|0:0,0:0:0:0:
156,136,21178,1,4,0:0:0:0:
28,192,22178,6,0,L|204:192,1,160,2|8,0:0|0:0,0:0:0:0:
348,192,23178,1,0,0:0:0:0:
348,192,23428,2,0,L|188:192,1,160,2|0,0:0|0:0,0:0:0:0:
188,192,24178,5,2,0:0:0:0:
276,192,24428,1,0,0:0:0:0:
364,192,24678,2,0,L|368:104,1,80,4|0,0:0|0:0,0:0:0:0:
367,112,25428,2,0,L|208:112,1,160,2|0,0:0|0:0,0:0:0:0:
128,112,26178,5,2,0:0:0:0:
288,112,26678,2,0,P|332:172|288:232,1,160,8|0,0:0|0:0,0:0:0:0:
208,232,27428,2,0,L|48:232,1,160,2|0,0:0|0:0,0:0:0:0:
48,232,28428,5,0,0:0:0:0:
136,232,28678,2,0,L|140:152,1,80,8|0,0:0|0:0,0:0:0:0:
236,152,29178,1,4,0:0:0:0:
400,40,30178,6,0,L|404:224,1,160,2|8,0:0|0:0,0:0:0:0:
324,212,30928,1,0,0:0:0:0:
164,212,31428,2,0,L|324:212,1,160,2|0,0:0|0:0,0:0:0:0:
324,212,32428,5,0,0:0:0:0:
228,212,32678,2,0,L|224:128,1,80,4|0,0:0|0:0,0:0:0:0:
224,132,33428,2,0,L|384:132,1,160,2|0,0:0|0:0,0:0:0:0:
464,132,34178,5,2,0:0:0:0:
464,132,34678,2,0,L|300:132,1,160,8|0,0:0|0:0,0:0:0:0:
224,132,35428,2,0,P|176:200|224:244,1,160,2|0,0:0|0:0,0:0:0:0:
316,244,36178,6,0,B|320:160|320:160|248:132,1,160,4|8,0:0|0:0,0:0:0:0:
160,132,36928,1,0,0:0:0:0:
72,132,37178,2,0,L|68:292,1,160,4|0,0:0|0:0,0:0:0:0:
228,372,38178,6,0,L|232:196,1,160,2|8,0:0|0:0,0:0:0:0:
144,192,38928,1,2,0:0:0:0:
231,212,39178,2,0,L|235:36,1,160,2|8,0:0|0:0,0:0:0:0:
396,52,40178,6,0,L|400:136,1,80,2|0,0:0|0:0,0:0:0:0:
316,156,40678,1,4,0:0:0:0:
232,180,40928,1,0,0:0:0:0:
148,208,41178,2,0,P|108:156|148:80,1,160,0|2,0:0|0:0,0:0:0:0:
308,16,42178,6,0,L|312:196,1,160,2|8,0:0|0:0,0:0:0:0:
392,196,42928,1,0,0:0:0:0:
472,220,43178,2,0,L|476:40,1,160,2|8,0:0|0:0,0:0:0:0:
316,64,44178,6,0,L|312:156,1,80,2|0,0:0|0:0,0:0:0:0:
224,192,44678,2,0,L|220:112,1,80,8|0,0:0|0:0,0:0:0:0:
316,64,45178,2,0,L|320:224,1,160,4|8,0:0|0:0,0:0:0:0:
160,288,46178,6,0,L|21:208,1,160,2|8,0:0|0:0,0:0:0:0:
92,248,46928,1,0,0:0:0:0:
160,288,47178,2,0,L|21:208,1,160,2|8,0:0|0:0,0:0:0:0:
180,192,48178,6,0,L|184:112,1,80,2|0,0:0|0:0,0:0:0:0:
272,48,48678,2,0,L|276:128,1,80,4|0,0:0|0:0,0:0:0:0:
356,192,49178,2,0,L|364:32,1,160,0|8,0:0|0:0,0:0:0:0:
203,32,50178,6,0,L|367:32,1,160,2|8,0:0|0:0,0:0:0:0:
444,32,50928,1,0,0:0:0:0:
363,32,51178,2,0,L|200:32,1,160,2|8,0:0|0:0,0:0:0:0:
44,32,52178,6,0,P|4:96|44:164,1,160,4|8,0:0|0:0,0:0:0:0:
128,168,52928,1,0,0:0:0:0:
216,176,53178,2,0,L|220:340,1,160,4|2,0:0|0:0,0:0:0:0:
380,192,54178,5,2,0:0:0:0:
380,192,54678,1,8,0:0:0:0:
292,192,54928,1,0,0:0:0:0:
204,192,55178,1,2,0:0:0:0:
204,192,55678,1,8,0:0:0:0:
292,192,55928,1,0,0:0:0:0:
380,192,56178,6,0,P|428:148|380:84,1,160,2|4,0:0|0:0,0:0:0:0:
292,84,56928,1,0,0:0:0:0:
96,192,57678,2,0,L|92:92,1,80,2|0,0:0|0:0,0:0:0:0:
184,112,58178,6,0,L|322:192,1,160,2|8,0:0|0:0,0:0:0:0:
252,152,58928,1,0,0:0:0:0:
184,112,59178,2,0,L|322:192,1,160,2|8,0:0|0:0,0:0:0:0:
484,192,60178,5,2,0:0:0:0:
324,192,60678,2,0,L|320:284,1,80,8|0,0:0|0:0,0:0:0:0:
416,192,61178,2,0,B|416:112|416:112|336:112,1,160,4|2,0:0|0:0,0:0:0:0:
176,192,62178,6,0,L|172:32,1,160,2|8,0:0|0:0,0:0:0:0:
92,32,62928,1,0,0:0:0:0:
172,32,63178,2,0,B|252:32|252:32|252:112,1,160,2|8,0:0|0:0,0:0:0:0:
92,136,64178,6,0,L|88:228,1,80,2|0,0:0|0:0,0:0:0:0:
184,300,64678,2,0,L|188:212,1,80,4|0,0:0|0:0,0:0:0:0:
108,216,65178,2,0,P|64:276|112:336,1,160,0|2,0:0|0:0,0:0:0:0:
268,336,66178,6,0,B|349:335|349:335|348:256,1,160,2|8,0:0|0:0,0:0:0:0:
268,256,66928,1,0,0:0:0:0:
188,256,67178,2,0,B|112:256|112:256|112:172,1,160,2|8,0:0|0:0,0:0:0:0:
288,140,68178,6,0,L|448:140,1,160,2|8,0:0|0:0,0:0:0:0:
448,140,68928,1,0,0:0:0:0:
288,140,69428,2,0,P|240:92|288:24,1,160,2|0,0:0|0:0,0:0:0:0:
364,24,70178,6,0,L|368:188,1,160,2|8,0:0|0:0,0:0:0:0:
367,183,70928,1,0,0:0:0:0:
208,280,71428,2,0,L|40:280,1,160,2|0,0:0|0:0,0:0:0:0:
256,192,72178,12,0,74178,0:0:0:0:
