osu file format v14

[General]
AudioFilename: audio.mp3
AudioLeadIn: 0
PreviewTime: 79637
Countdown: 0
SampleSet: Soft
StackLeniency: 0.7
Mode: 2
LetterboxInBreaks: 0
WidescreenStoryboard: 1

[Editor]
Bookmarks: 5155,13430,26672,39913,53155,66396,79637,92879,106120
DistanceSpacing: 1.1
BeatDivisor: 4
GridSize: 4
TimelineZoom: 1

[Metadata]
Title:goodbye earth i'm taking my spaceship to explore the universe
TitleUnicode:goodbye earth i'm taking my spaceship to explore the universe
Artist:in love with a ghost
ArtistUnicode:in love with a ghost
Creator:JBHyperion
Version:salad
Source:
Tags:ilwag electronic instrumental lo-fi lofi chillwave ambient chillout electronica lgbt lgbtq pride fa featured artist mappers guild mpg fruit factory
BeatmapID:3575236
BeatmapSetID:1747889

[Difficulty]
HPDrainRate:4
CircleSize:4
OverallDifficulty:7
ApproachRate:7
SliderMultiplier:1.6
SliderTickRate:1

[Events]
//Background and Video events
0,0,"88394509_p0-2560.jpg",0,0
//Break Periods
//Storyboard Layer 0 (Background)
//Storyboard Layer 1 (Fail)
//Storyboard Layer 2 (Pass)
//Storyboard Layer 3 (Foreground)
//Storyboard Layer 4 (Overlay)
//Storyboard Sound Samples

[TimingPoints]
5155,413.793103448276,4,2,1,50,1,0
26258,-100,4,2,1,60,0,0
26672,-100,4,2,2,70,0,0
27292,-100,4,2,1,80,0,0
27499,-100,4,2,2,70,0,0
28327,-100,4,2,1,80,0,0
28534,-100,4,2,2,70,0,0
30396,-100,4,2,1,80,0,0
30603,-100,4,2,2,70,0,0
31637,-100,4,2,1,80,0,0
32051,-100,4,2,2,70,0,0
33706,-100,4,2,1,80,0,0
33913,-100,4,2,2,70,0,0
36189,-100,4,2,1,80,0,0
36396,-100,4,2,2,70,0,0
37017,-100,4,2,1,80,0,0
37224,-100,4,2,2,70,0,0
38258,-100,4,2,1,80,0,0
38465,-100,4,2,2,70,0,0
39913,-80,4,2,1,70,0,0
40120,-100,4,2,2,70,0,0
43017,-100,4,2,1,70,0,0
43223,-100,4,2,2,70,0,0
43586,-100,4,2,2,20,0,0
43637,-100,4,2,2,70,0,0
43844,-100,4,2,2,70,0,0
44879,-100,4,2,1,70,0,0
45292,-100,4,2,2,70,0,0
46534,-80,4,2,1,70,0,0
46896,-100,4,2,2,20,0,0
46948,-100,4,2,2,70,0,0
47155,-100,4,2,2,70,0,0
48189,-100,4,2,1,70,0,0
48396,-100,4,2,2,70,0,0
49637,-100,4,2,1,70,0,0
49844,-100,4,2,2,70,0,0
50258,-100,4,2,2,70,0,0
51499,-100,4,2,1,70,0,0
51706,-100,4,2,2,70,0,0
53155,-100,4,2,1,50,0,0
66396,-100,4,2,2,60,0,0
68051,-100,4,2,1,60,0,0
69603,-100,4,2,2,60,0,0
71361,-100,4,2,1,60,0,0
73017,-100,4,2,2,60,0,0
74672,-100,4,2,1,60,0,0
76224,-100,4,2,2,60,0,0
77982,-100,4,2,1,60,0,0
78810,-100,4,2,1,70,0,0
79637,-100,4,2,2,70,0,0
80051,-100,4,2,1,70,0,0
80258,-100,4,2,2,70,0,0
81292,-100,4,2,1,70,0,0
81706,-100,4,2,2,70,0,0
82327,-100,4,2,10,60,0,0
82430,-100,4,2,1,70,0,0
82948,-100,4,2,2,70,0,0
83361,-100,4,2,1,70,0,0
83568,-100,4,2,2,70,0,0
84603,-100,4,2,1,70,0,0
84810,-100,4,2,2,70,0,0
86051,-100,4,2,1,70,0,0
86258,-100,4,2,2,70,0,0
86672,-100,4,2,1,70,0,0
86879,-100,4,2,2,70,0,0
87913,-100,4,2,1,70,0,0
88327,-100,4,2,2,70,0,0
88948,-100,4,2,10,60,0,0
89051,-100,4,2,1,70,0,0
89568,-100,4,2,2,70,0,0
89982,-100,4,2,1,70,0,0
90189,-100,4,2,2,70,0,0
91223,-100,4,2,1,70,0,0
91430,-100,4,2,2,70,0,0
92879,-80,4,2,2,80,0,0
94534,-100,4,2,1,80,0,0
94741,-100,4,2,2,80,0,0
95982,-100,4,2,1,80,0,0
96189,-100,4,2,2,80,0,0
96603,-100,4,2,1,80,0,0
96810,-100,4,2,2,80,0,0
97844,-100,4,2,1,80,0,0
98051,-100,4,2,2,80,0,0
98672,-100,4,2,2,80,0,0
98879,-100,4,2,10,70,0,0
98982,-100,4,2,1,80,0,0
99086,-100,4,2,10,70,0,0
99292,-100,4,2,1,70,0,0
99499,-100,4,2,2,80,0,0
99913,-100,4,2,1,80,0,0
100120,-100,4,2,2,80,0,0
101155,-100,4,2,1,80,0,0
101362,-100,4,2,2,80,0,0
102603,-100,4,2,1,80,0,0
102810,-100,4,2,2,80,0,0
104465,-100,4,2,1,80,0,0
104672,-100,4,2,2,80,0,0
105913,-100,4,2,1,70,0,0

[Colours]
Combo1 : 175,175,255
Combo2 : 250,175,125
Combo3 : 175,255,255

[HitObjects]
132,192,13430,6,0,L|128:112,2,80,8|0|0,0:0|0:0|0:0,0:0:0:0:
284,192,14258,2,0,L|288:112,2,80,2|0|0,0:0|0:0|0:0,0:0:0:0:
124,192,15086,5,2,0:0:0:0:
204,192,15292,1,0,0:0:0:0:
284,192,15499,1,0,0:0:0:0:
284,192,15913,1,2,0:0:0:0:
204,192,16119,1,0,0:0:0:0:
124,192,16326,1,2,0:0:0:0:
284,192,16741,6,0,P|328:256|284:312,1,160,8|0,0:0|0:0,0:0:0:0:
204,312,17361,1,0,0:0:0:0:
124,308,17568,2,0,L|284:312,1,160,2|0,0:0|0:0,0:0:0:0:
124,192,18396,6,0,P|80:128|124:72,1,160,2|0,0:0|0:0,0:0:0:0:
204,72,19016,1,0,0:0:0:0:
284,76,19223,2,0,L|288:160,1,80,2|0,0:0|0:0,0:0:0:0:
204,192,19637,2,0,L|124:192,1,80,0|0,0:0|0:0,0:0:0:0:
44,192,20051,6,0,L|40:272,2,80,8|0|0,0:0|0:0|0:0,0:0:0:0:
180,284,20879,2,0,L|184:364,2,80,2|0|0,0:0|0:0|0:0,0:0:0:0:
316,192,21706,6,0,L|320:100,1,80,2|0,0:0|0:0,0:0:0:0:
240,92,22120,1,0,0:0:0:0:
392,112,22534,2,0,L|396:20,1,80,2|0,0:0|0:0,0:0:0:0:
316,12,22948,1,0,0:0:0:0:
156,12,23361,6,0,B|76:12|76:12|76:96,1,160,8|0,0:0|0:0,0:0:0:0:
164,92,23982,1,0,0:0:0:0:
252,92,24189,2,0,B|332:92|332:92|332:176,1,160,2|0,0:0|0:0,0:0:0:0:
236,172,24810,1,0,0:0:0:0:
148,172,25017,6,0,L|144:336,1,160,2|0,0:0|0:0,0:0:0:0:
280,292,25844,1,0,0:0:0:0:
104,332,26258,1,2,0:0:0:0:
448,300,26672,6,0,P|456:236|400:160,1,160,2|0,0:0|0:0,0:0:0:0:
316,160,27292,1,2,0:0:0:0:
124,192,27499,2,0,L|120:32,1,160,8|2,0:0|0:0,0:0:0:0:
280,104,28327,6,0,B|200:104|200:104|288:104,1,160,2|2,0:0|0:0,0:0:0:0:
368,104,28948,1,0,0:0:0:0:
188,104,29155,2,0,L|184:208,1,80,8|2,0:0|0:0,0:0:0:0:
264,228,29568,2,0,L|344:228,1,80,0|0,0:0|0:0,0:0:0:0:
256,228,29982,5,2,0:0:0:0:
432,228,30396,2,0,L|348:228,1,80,2|0,0:0|0:0,0:0:0:0:
160,308,30810,2,0,L|80:308,2,80,8|0|2,0:0|0:0|0:0,0:0:0:0:
320,308,31637,5,2,0:0:0:0:
240,308,31844,1,2,0:0:0:0:
160,308,32051,1,2,0:0:0:0:
488,192,32465,2,0,L|496:100,2,80,8|2|2,0:0|0:0|0:0,0:0:0:0:
312,192,33292,6,0,B|264:120|312:44|312:44|396:44,1,240,2|0,0:0|0:0,0:0:0:0:
208,192,34120,2,0,L|204:88,2,80,8|0|2,0:0|0:0|0:0,0:0:0:0:
368,120,34948,6,0,B|448:120|448:120|364:120,1,160,2|2,0:0|0:0,0:0:0:0:
40,40,35775,1,8,0:0:0:0:
3,109,35981,1,2,0:0:0:0:
13,188,36188,1,2,0:0:0:0:
66,246,36395,1,0,0:0:0:0:
143,264,36602,5,2,0:0:0:0:
304,264,37017,2,0,L|216:264,1,80,2|0,0:0|0:0,0:0:0:0:
412,352,37430,2,0,L|416:184,1,160,8|2,0:0|0:0,0:0:0:0:
256,192,38258,6,0,B|336:192|336:192|252:192,1,160,2|2,0:0|0:0,0:0:0:0:
176,192,38879,1,0,0:0:0:0:
360,192,39086,2,0,L|440:192,2,80,8|2|2,0:0|0:0|0:0,0:0:0:0:
32,192,39913,6,0,P|24:136|116:40,1,200,8|0,0:0|0:0,0:0:0:0:
204,40,40534,1,0,0:0:0:0:
392,40,40741,1,8,0:0:0:0:
264,40,41155,2,0,L|260:136,1,80,2|0,0:0|0:0,0:0:0:0:
356,192,41568,6,0,B|436:192|436:192|352:192,1,160,2|2,0:0|0:0,0:0:0:0:
28,192,42396,1,8,0:0:0:0:
108,176,42603,1,2,0:0:0:0:
108,96,42810,1,0,0:0:0:0:
28,80,43017,1,2,0:0:0:0:
116,96,43223,6,0,L|200:96,2,80,2|0|0,0:0|0:0|0:0,0:0:0:0:
444,32,44051,2,0,L|448:212,1,160,8|2,0:0|0:0,0:0:0:0:
308,271,44879,5,2,0:0:0:0:
377,231,45085,1,2,0:0:0:0:
447,191,45292,1,2,0:0:0:0:
120,284,45706,2,0,P|112:224|152:180,1,120,8|0,0:0|0:0,0:0:0:0:
280,180,46327,1,0,0:0:0:0:
88,184,46534,6,0,P|24:124|92:60,1,200,8|0,0:0|0:0,0:0:0:0:
176,60,47155,1,0,0:0:0:0:
360,60,47361,2,0,L|440:60,2,80,8|0|2,0:0|0:0|0:0,0:0:0:0:
228,139,48189,5,2,0:0:0:0:
159,99,48395,1,0,0:0:0:0:
89,59,48602,1,2,0:0:0:0:
420,192,49017,2,0,L|424:108,1,80,8|2,0:0|0:0,0:0:0:0:
336,100,49430,1,0,0:0:0:0:
420,192,49637,1,2,0:0:0:0:
232,308,49844,6,0,P|156:280|180:144,1,240,2|0,0:0|0:0,0:0:0:0:
364,300,50672,2,0,L|368:216,1,80,8|0,0:0|0:0,0:0:0:0:
284,192,51086,1,2,0:0:0:0:
448,220,51499,6,0,B|368:220|368:220|452:220,1,160,2|0,0:0|0:0,0:0:0:0:
120,292,52327,1,8,0:0:0:0:
200,308,52534,1,2,0:0:0:0:
120,292,52741,1,2,0:0:0:0:
440,288,53155,6,0,L|444:196,2,80,8|0|0,0:0|0:0|0:0,0:0:0:0:
280,192,53982,2,0,L|276:100,2,80,2|0|0,0:0|0:0|0:0,0:0:0:0:
440,120,54810,5,2,0:0:0:0:
371,80,55016,1,0,0:0:0:0:
301,40,55223,1,0,0:0:0:0:
137,192,55637,1,2,0:0:0:0:
206,152,55843,1,0,0:0:0:0:
137,192,56050,1,0,0:0:0:0:
400,192,56465,5,8,0:0:0:0:
240,192,57292,1,2,0:0:0:0:
48,192,58120,5,2,0:0:0:0:
208,192,58948,2,0,L|48:192,1,160,2|0,0:0|0:0,0:0:0:0:
368,192,59775,5,8,0:0:0:0:
368,232,59981,1,0,0:0:0:0:
368,272,60188,1,0,0:0:0:0:
208,192,60603,2,0,L|138:152,2,80,2|0|0,0:0|0:0|0:0,0:0:0:0:
368,272,61430,5,2,0:0:0:0:
288,232,61636,1,0,0:0:0:0:
208,192,61843,1,0,0:0:0:0:
368,192,62258,2,0,L|448:192,2,80,2|0|0,0:0|0:0|0:0,0:0:0:0:
112,192,63086,6,0,L|108:100,1,80,8|0,0:0|0:0,0:0:0:0:
244,160,63913,2,0,L|248:72,1,80,2|0,0:0|0:0,0:0:0:0:
400,272,64741,6,0,L|396:176,1,80,2|0,0:0|0:0,0:0:0:0:
216,192,65568,1,2,0:0:0:0:
144,232,65775,2,0,P|132:288|208:344,1,160
284,320,66396,5,2,0:0:0:0:
108,320,66810,1,2,0:0:0:0:
436,300,67223,2,0,L|440:212,2,80,8|0|0,0:0|0:0|0:0,0:0:0:0:
268,252,68051,6,0,L|264:92,1,160,2|0,0:0|0:0,0:0:0:0:
96,172,68879,1,2,0:0:0:0:
165,132,69085,1,0,0:0:0:0:
235,92,69292,1,0,0:0:0:0:
428,188,69706,6,0,L|432:88,1,80,2|0,0:0|0:0,0:0:0:0:
48,156,70534,2,0,L|44:268,1,80,8|0,0:0|0:0,0:0:0:0:
260,192,71361,5,2,0:0:0:0:
348,192,71568,2,0,P|384:252|332:312,1,160,0|0,0:0|0:0,0:0:0:0:
244,272,72189,2,0,L|241:193,1,80,2|0,0:0|0:0,0:0:0:0:
329,193,72603,2,0,L|413:193,1,80,0|0,0:0|0:0,0:0:0:0:
320,196,73017,5,2,0:0:0:0:
496,196,73431,1,2,0:0:0:0:
168,192,73844,2,0,L|164:104,2,80,8|0|0,0:0|0:0|0:0,0:0:0:0:
328,288,74672,6,0,L|332:128,1,160,2|0,0:0|0:0,0:0:0:0:
168,192,75500,1,2,0:0:0:0:
99,152,75706,1,0,0:0:0:0:
168,192,75913,1,0,0:0:0:0:
328,192,76327,6,0,B|328:112|328:112|248:112,1,160,2|0,0:0|0:0,0:0:0:0:
168,112,76948,1,0,0:0:0:0:
356,192,77155,1,8,0:0:0:0:
436,192,77361,1,0,0:0:0:0:
436,272,77568,1,0,0:0:0:0:
356,272,77775,1,0,0:0:0:0:
196,272,78189,5,0,0:0:0:0:
108,272,78396,2,0,L|104:176,1,80,0|0,0:0|0:0,0:0:0:0:
264,192,79017,2,0,L|344:192,2,80,0|0|0,0:0|0:0|0:0,0:0:0:0:
456,192,79637,6,0,P|468:148|400:64,1,160,2|2,0:0|0:0,0:0:0:0:
316,64,80258,1,0,0:0:0:0:
124,64,80465,2,0,L|40:64,2,80,8|0|2,0:0|0:0|0:0,0:0:0:0:
284,64,81292,5,2,0:0:0:0:
204,64,81499,1,0,0:0:0:0:
124,64,81706,1,2,0:0:0:0:
452,192,82120,2,0,P|480:148|448:92,1,120,8|2,0:0|0:0,0:0:0:0:
332,92,82741,1,0,0:0:0:0:
148,92,82948,6,0,L|68:92,1,80,2|0,0:0|0:0,0:0:0:0:
52,92,83361,1,2,0:0:0:0:
380,192,83775,2,0,L|384:296,2,80,8|0|2,0:0|0:0|0:0,0:0:0:0:
204,192,84603,5,2,0:0:0:0:
292,192,84810,1,0,0:0:0:0:
380,192,85017,1,2,0:0:0:0:
52,192,85430,2,0,L|48:280,2,80,8|2|2,0:0|0:0|0:0,0:0:0:0:
140,192,86051,1,2,0:0:0:0:
332,192,86258,6,0,P|344:148|276:64,1,160,2|2,0:0|0:0,0:0:0:0:
192,64,86879,1,0,0:0:0:0:
384,64,87086,2,0,L|468:64,2,80,8|0|2,0:0|0:0|0:0,0:0:0:0:
224,64,87913,5,2,0:0:0:0:
304,64,88120,1,0,0:0:0:0:
384,64,88327,1,2,0:0:0:0:
56,192,88741,2,0,L|176:192,2,120,8|2|0,0:0|0:0|0:0,0:0:0:0:
248,192,89568,6,0,L|252:276,1,80,2|0,0:0|0:0,0:0:0:0:
164,304,89981,1,2,0:0:0:0:
492,196,90395,2,0,L|496:300,2,80,8|0|2,0:0|0:0|0:0,0:0:0:0:
324,192,91223,5,2,0:0:0:0:
240,192,91430,1,0,0:0:0:0:
156,192,91637,1,2,0:0:0:0:
480,192,92051,1,8,0:0:0:0:
400,192,92258,1,2,0:0:0:0:
400,192,92465,1,2,0:0:0:0:
488,192,92672,1,0,0:0:0:0:
296,192,92879,6,0,P|346:47|400:192,1,400,2|8,0:0|0:0,0:0:0:0:
320,192,93913,1,0,0:0:0:0:
240,192,94120,1,2,0:0:0:0:
400,192,94534,5,2,0:0:0:0:
320,192,94741,1,0,0:0:0:0:
400,192,94948,1,2,0:0:0:0:
72,320,95361,2,0,L|68:236,1,80,8|0,0:0|0:0,0:0:0:0:
152,216,95775,1,0,0:0:0:0:
72,320,95982,1,2,0:0:0:0:
264,348,96189,6,0,P|356:304|276:148,1,320,2|8,0:0|0:0,0:0:0:0:
196,148,97223,1,0,0:0:0:0:
116,148,97430,1,2,0:0:0:0:
276,148,97844,5,2,0:0:0:0:
196,148,98051,1,0,0:0:0:0:
116,148,98258,1,2,0:0:0:0:
444,192,98672,2,0,L|324:192,2,120,8|0|0,0:0|0:0|0:0,0:0:0:0:
252,192,99499,6,0,P|176:184|152:92,1,160,2|2,0:0|0:0,0:0:0:0:
181,49,100120,1,0,0:0:0:0:
368,48,100327,2,0,L|452:48,2,80,8|0|0,0:0|0:0|0:0,0:0:0:0:
208,192,101155,5,2,0:0:0:0:
128,192,101361,1,0,0:0:0:0:
48,192,101568,1,2,0:0:0:0:
376,192,101982,2,0,L|380:104,1,80,8|2,0:0|0:0,0:0:0:0:
292,192,102396,1,0,0:0:0:0:
388,112,102603,1,2,0:0:0:0:
196,192,102810,6,0,P|184:240|260:308,1,160,2|0,0:0|0:0,0:0:0:0:
336,308,103430,1,0,0:0:0:0:
144,356,103637,2,0,L|140:192,1,160,8|2,0:0|0:0,0:0:0:0:
300,196,104465,5,2,0:0:0:0:
220,196,104672,1,0,0:0:0:0:
140,196,104879,1,2,0:0:0:0:
468,192,105292,2,0,L|472:88,1,80,8|2,0:0|0:0,0:0:0:0:
384,112,105706,1,0,0:0:0:0:
192,192,105913,1,2,0:0:0:0:
