osu file format v14

[General]
AudioFilename: audio.mp3
AudioLeadIn: 0
PreviewTime: 79637
Countdown: 0
SampleSet: Soft
StackLeniency: 0.7
Mode: 2
LetterboxInBreaks: 0
WidescreenStoryboard: 1

[Editor]
Bookmarks: 5155,13430,26672,39913,53155,66396,79637,92879,106120
DistanceSpacing: 1.1
BeatDivisor: 4
GridSize: 4
TimelineZoom: 1

[Metadata]
Title:goodbye earth i'm taking my spaceship to explore the universe
TitleUnicode:goodbye earth i'm taking my spaceship to explore the universe
Artist:in love with a ghost
ArtistUnicode:in love with a ghost
Creator:JBHyperion
Version:platter
Source:
Tags:ilwag electronic instrumental lo-fi lofi chillwave ambient chillout electronica lgbt lgbtq pride fa featured artist mappers guild mpg fruit factory
BeatmapID:3575866
BeatmapSetID:1747889

[Difficulty]
HPDrainRate:5
CircleSize:5
OverallDifficulty:8
ApproachRate:8
SliderMultiplier:1.8
SliderTickRate:2

[Events]
//Background and Video events
0,0,"88394509_p0-2560.jpg",0,0
//Break Periods
//Storyboard Layer 0 (Background)
//Storyboard Layer 1 (Fail)
//Storyboard Layer 2 (Pass)
//Storyboard Layer 3 (Foreground)
//Storyboard Layer 4 (Overlay)
//Storyboard Sound Samples

[TimingPoints]
5155,413.793103448276,4,2,1,50,1,0
26258,-100,4,2,1,60,0,0
26672,-100,4,2,2,70,0,0
27292,-100,4,2,1,80,0,0
27499,-100,4,2,2,70,0,0
28327,-100,4,2,1,80,0,0
28534,-100,4,2,2,70,0,0
30396,-100,4,2,1,80,0,0
30603,-100,4,2,2,70,0,0
31637,-100,4,2,1,80,0,0
32051,-100,4,2,2,70,0,0
33706,-100,4,2,1,80,0,0
33913,-100,4,2,2,70,0,0
36189,-100,4,2,1,80,0,0
36396,-100,4,2,2,70,0,0
37017,-100,4,2,1,80,0,0
37224,-100,4,2,2,70,0,0
38258,-100,4,2,1,80,0,0
38465,-100,4,2,2,70,0,0
39913,-80,4,2,1,70,0,0
40120,-100,4,2,2,70,0,0
43017,-100,4,2,1,70,0,0
43223,-83.3333333333333,4,2,2,70,0,0
43586,-100,4,2,2,20,0,0
43637,-100,4,2,2,70,0,0
43844,-100,4,2,2,70,0,0
44879,-100,4,2,1,70,0,0
45292,-100,4,2,2,70,0,0
46534,-80,4,2,1,70,0,0
46896,-100,4,2,2,20,0,0
46948,-100,4,2,2,70,0,0
47155,-100,4,2,2,70,0,0
48189,-100,4,2,1,70,0,0
48396,-100,4,2,2,70,0,0
49637,-100,4,2,1,70,0,0
49844,-100,4,2,2,70,0,0
50258,-100,4,2,2,70,0,0
51499,-100,4,2,1,70,0,0
51706,-100,4,2,2,70,0,0
53155,-100,4,2,1,50,0,0
66396,-100,4,2,2,60,0,0
68051,-100,4,2,1,60,0,0
69603,-100,4,2,2,60,0,0
71361,-100,4,2,1,60,0,0
73017,-100,4,2,2,60,0,0
74672,-100,4,2,1,60,0,0
76224,-100,4,2,2,60,0,0
77982,-100,4,2,1,60,0,0
78810,-100,4,2,1,70,0,0
79637,-100,4,2,2,70,0,0
80051,-100,4,2,1,70,0,0
80258,-100,4,2,2,70,0,0
81292,-100,4,2,1,70,0,0
81706,-100,4,2,2,70,0,0
82327,-100,4,2,10,60,0,0
82430,-100,4,2,1,70,0,0
82948,-100,4,2,2,70,0,0
83361,-100,4,2,1,70,0,0
83568,-100,4,2,2,70,0,0
84603,-100,4,2,1,70,0,0
84810,-100,4,2,2,70,0,0
86051,-100,4,2,1,70,0,0
86258,-100,4,2,2,70,0,0
86672,-100,4,2,1,70,0,0
86879,-100,4,2,2,70,0,0
87913,-100,4,2,1,70,0,0
88327,-100,4,2,2,70,0,0
88948,-100,4,2,10,60,0,0
89051,-100,4,2,1,70,0,0
89568,-100,4,2,2,70,0,0
89982,-100,4,2,1,70,0,0
90189,-100,4,2,2,70,0,0
91223,-100,4,2,1,70,0,0
91430,-100,4,2,2,70,0,0
92879,-80,4,2,2,80,0,0
93292,-100,4,2,2,80,0,0
94534,-100,4,2,1,80,0,0
94741,-100,4,2,2,80,0,0
95982,-100,4,2,1,80,0,0
96189,-100,4,2,2,80,0,0
96603,-100,4,2,1,80,0,0
96810,-100,4,2,2,80,0,0
97844,-100,4,2,1,80,0,0
98051,-100,4,2,2,80,0,0
98672,-100,4,2,2,80,0,0
98879,-100,4,2,10,70,0,0
98982,-100,4,2,1,80,0,0
99086,-100,4,2,10,70,0,0
99292,-100,4,2,1,70,0,0
99499,-100,4,2,2,80,0,0
99913,-100,4,2,1,80,0,0
100120,-100,4,2,2,80,0,0
101155,-100,4,2,1,80,0,0
101362,-100,4,2,2,80,0,0
102603,-100,4,2,1,80,0,0
102810,-80,4,2,2,80,0,0
103223,-100,4,2,2,80,0,0
104465,-100,4,2,1,80,0,0
104672,-100,4,2,2,80,0,0
105913,-100,4,2,1,70,0,0

[Colours]
Combo1 : 175,175,255
Combo2 : 250,175,125
Combo3 : 175,255,255

[HitObjects]
288,192,13430,6,0,L|292:96,1,90,8|0,0:0|0:0,0:0:0:0:
204,80,13844,1,0,0:0:0:0:
375,214,14258,2,0,L|379:118,1,90,2|0,0:0|0:0,0:0:0:0:
291,102,14672,1,0,0:0:0:0:
120,192,15086,6,0,L|116:96,1,90,2|0,0:0|0:0,0:0:0:0:
204,80,15500,1,0,0:0:0:0:
375,214,15913,1,2,0:0:0:0:
456,256,16120,1,0,0:0:0:0:
456,348,16327,1,2,0:0:0:0:
376,308,16534,1,0,0:0:0:0:
176,308,16741,5,8,0:0:0:0:
128,235,16947,1,0,0:0:0:0:
159,154,17154,1,0,0:0:0:0:
243,131,17361,1,0,0:0:0:0:
144,132,17568,2,0,L|48:132,2,90,2|0|0,0:0|0:0|0:0,0:0:0:0:
472,16,18396,5,2,0:0:0:0:
385,29,18602,1,0,0:0:0:0:
338,103,18809,1,0,0:0:0:0:
360,187,19016,1,0,0:0:0:0:
438,227,19223,2,0,L|442:339,1,90,2|0,0:0|0:0,0:0:0:0:
350,371,19637,2,0,L|258:371,1,90,0|0,0:0|0:0,0:0:0:0:
56,304,20051,6,0,L|52:256,2,45,8|0|0,0:0|0:0|0:0,0:0:0:0:
148,304,20465,1,0,0:0:0:0:
328,304,20879,1,2,0:0:0:0:
236,304,21086,1,0,0:0:0:0:
148,304,21292,1,0,0:0:0:0:
344,192,21706,6,0,L|348:96,1,90,2|0,0:0|0:0,0:0:0:0:
260,80,22120,1,0,0:0:0:0:
68,60,22534,1,2,0:0:0:0:
149,102,22741,1,0,0:0:0:0:
149,194,22948,1,0,0:0:0:0:
69,154,23155,1,0,0:0:0:0:
268,368,23361,5,8,0:0:0:0:
351,342,23567,1,0,0:0:0:0:
380,260,23774,1,0,0:0:0:0:
330,189,23981,1,0,0:0:0:0:
240,192,24189,1,2,0:0:0:0:
148,192,24396,1,0,0:0:0:0:
148,100,24603,1,0,0:0:0:0:
328,24,25017,6,0,L|332:124,1,90,2|0,0:0|0:0,0:0:0:0:
244,140,25430,1,0,0:0:0:0:
444,192,25637,1,2,0:0:0:0:
444,192,26051,1,0,0:0:0:0:
399,192,26154,1,0,0:0:0:0:
354,192,26257,1,2,0:0:0:0:
452,192,26465,1,0,0:0:0:0:
164,192,26672,5,2,0:0:0:0:
64,192,26879,1,0,0:0:0:0:
64,92,27086,1,0,0:0:0:0:
164,92,27292,1,2,0:0:0:0:
364,192,27499,2,0,L|368:304,1,90,8|0,0:0|0:0,0:0:0:0:
256,348,27913,2,0,L|252:248,1,90,2|0,0:0|0:0,0:0:0:0:
456,280,28327,6,0,P|476:220|396:152,1,180,2|2,0:0|0:0,0:0:0:0:
296,152,28948,1,0,0:0:0:0:
492,120,29155,2,0,L|496:24,1,90,8|2,0:0|0:0,0:0:0:0:
396,28,29568,2,0,L|492:28,1,90,0|0,0:0|0:0,0:0:0:0:
200,28,29982,5,2,0:0:0:0:
108,68,30189,1,0,0:0:0:0:
124,164,30396,1,2,0:0:0:0:
220,192,30603,1,0,0:0:0:0:
420,240,30810,2,0,L|328:240,3,90,8|0|2|0,0:0|0:0|0:0|0:0,0:0:0:0:
132,348,31637,5,2,0:0:0:0:
132,259,31843,1,2,0:0:0:0:
182,185,32050,1,2,0:0:0:0:
264,151,32257,1,0,0:0:0:0:
64,192,32465,2,0,L|60:96,2,90,8|2|2,0:0|0:0|0:0,0:0:0:0:
164,192,33086,1,0,0:0:0:0:
448,192,33292,6,0,L|452:84,1,90,2|0,0:0|0:0,0:0:0:0:
352,152,33706,2,0,L|348:56,1,90,2|0,0:0|0:0,0:0:0:0:
148,40,34120,2,0,L|56:40,3,90,8|0|2|0,0:0|0:0|0:0|0:0,0:0:0:0:
256,192,34948,6,0,B|348:192|348:192|252:192,1,180,2|2,0:0|0:0,0:0:0:0:
160,192,35568,1,0,0:0:0:0:
360,192,35775,2,0,L|364:304,1,90,8|2,0:0|0:0,0:0:0:0:
268,340,36189,2,0,L|168:340,1,90,2|0,0:0|0:0,0:0:0:0:
376,188,36603,6,0,L|380:284,1,90,2|0,0:0|0:0,0:0:0:0:
288,316,37017,1,2,0:0:0:0:
376,188,37223,1,0,0:0:0:0:
176,192,37430,1,8,0:0:0:0:
76,192,37637,1,0,0:0:0:0:
4,120,37844,1,2,0:0:0:0:
12,20,38051,1,0,0:0:0:0:
212,32,38258,6,0,L|216:128,1,90,2|0,0:0|0:0,0:0:0:0:
112,128,38672,2,0,L|108:236,1,90,2|0,0:0|0:0,0:0:0:0:
308,296,39086,1,8,0:0:0:0:
392,264,39292,1,2,0:0:0:0:
476,232,39499,1,2,0:0:0:0:
392,264,39706,1,0,0:0:0:0:
40,324,39913,6,0,P|12:264|112:164,1,225,8|0,0:0|0:0,0:0:0:0:
208,164,40534,1,0,0:0:0:0:
408,160,40741,2,0,L|500:160,2,90,8|0|2,0:0|0:0|0:0,0:0:0:0:
300,160,41361,1,0,0:0:0:0:
208,164,41568,6,0,L|204:72,1,90,2|0,0:0|0:0,0:0:0:0:
320,36,41982,2,0,L|316:132,1,90,2|0,0:0|0:0,0:0:0:0:
116,192,42396,1,8,0:0:0:0:
216,192,42603,1,2,0:0:0:0:
108,192,42810,2,0,L|16:192,1,90,0|2,0:0|0:0,0:0:0:0:
308,192,43223,6,0,P|360:224|292:328,1,215.999993408203,2|0,0:0|0:0,0:0:0:0:
196,328,43844,1,0,0:0:0:0:
392,284,44051,2,0,L|484:284,2,90,8|0|2,0:0|0:0|0:0,0:0:0:0:
228,192,44879,6,0,L|320:192,2,90,2|2|2,0:0|0:0|0:0,0:0:0:0:
128,192,45499,1,0,0:0:0:0:
328,192,45706,2,0,L|464:192,2,135,8|0|0,0:0|0:0|0:0,0:0:0:0:
52,72,46534,6,0,P|12:124|100:232,1,225,8|0,0:0|0:0,0:0:0:0:
200,232,47155,1,0,0:0:0:0:
400,300,47361,1,8,0:0:0:0:
316,266,47567,1,0,0:0:0:0:
233,232,47774,1,2,0:0:0:0:
316,266,47982,1,0,0:0:0:0:
272,248,48086,1,0,0:0:0:0:
233,232,48189,5,2,0:0:0:0:
316,198,48395,1,0,0:0:0:0:
399,164,48602,1,2,0:0:0:0:
56,192,49017,2,0,L|52:96,1,90,8|2,0:0|0:0,0:0:0:0:
256,48,49430,2,0,L|348:48,1,90,0|2,0:0|0:0,0:0:0:0:
58,46,49844,6,0,P|-3:100|65:157,1,180,2|0,0:0|0:0,0:0:0:0:
152,156,50465,1,0,0:0:0:0:
352,192,50672,2,0,L|248:192,3,90,8|0|2|0,0:0|0:0|0:0|0:0,0:0:0:0:
164,192,51499,5,2,0:0:0:0:
260,192,51706,1,0,0:0:0:0:
360,192,51913,1,0,0:0:0:0:
252,192,52120,1,0,0:0:0:0:
452,192,52327,2,0,L|456:100,2,90,8|2|2,0:0|0:0|0:0,0:0:0:0:
120,192,53155,6,0,L|116:96,1,90,8|0,0:0|0:0,0:0:0:0:
204,80,53569,1,0,0:0:0:0:
33,214,53983,2,0,L|29:118,1,90,2|0,0:0|0:0,0:0:0:0:
117,102,54397,1,0,0:0:0:0:
288,192,54811,6,0,L|292:96,1,90,2|0,0:0|0:0,0:0:0:0:
204,80,55223,1,0,0:0:0:0:
375,214,55637,2,0,L|379:118,1,90,2|0,0:0|0:0,0:0:0:0:
291,102,56051,2,0,L|288:56,2,45,0|0|0,0:0|0:0|0:0,0:0:0:0:
92,248,56465,6,0,L|88:152,1,90,8|0,0:0|0:0,0:0:0:0:
264,232,57293,2,0,L|260:336,1,90,2|0,0:0|0:0,0:0:0:0:
436,192,58120,6,0,P|440:140|356:56,1,180,2|0,0:0|0:0,0:0:0:0:
204,56,58948,2,0,L|200:168,1,90,2|0,0:0|0:0,0:0:0:0:
308,224,59362,2,0,L|310:173,2,45,0|0|0,0:0|0:0|0:0,0:0:0:0:
108,296,59775,6,0,L|28:250,2,90,8|0|0,0:0|0:0|0:0,0:0:0:0:
280,192,60603,1,2,0:0:0:0:
194,244,60810,1,0,0:0:0:0:
108,296,61017,1,0,0:0:0:0:
280,192,61430,6,0,L|284:88,1,90,2|0,0:0|0:0,0:0:0:0:
180,72,61844,2,0,L|176:176,1,90,0|0,0:0|0:0,0:0:0:0:
283,102,62258,2,0,L|191:102,1,90,2|0,0:0|0:0,0:0:0:0:
193,102,62672,1,0,0:0:0:0:
238,102,62775,1,0,0:0:0:0:
283,102,62879,1,0,0:0:0:0:
484,192,63086,6,0,L|488:96,1,90,8|0,0:0|0:0,0:0:0:0:
312,300,63913,2,0,L|308:204,1,90,2|0,0:0|0:0,0:0:0:0:
76,192,64741,6,0,L|72:88,1,90,2|0,0:0|0:0,0:0:0:0:
248,336,65568,2,0,L|252:236,1,90,2|0,0:0|0:0,0:0:0:0:
144,248,65982,2,0,L|140:192,2,45,0|0|0,0:0|0:0|0:0,0:0:0:0:
348,192,66396,6,0,L|440:192,2,90,2|0|2,0:0|0:0|0:0,0:0:0:0:
24,192,67223,1,8,0:0:0:0:
116,192,67430,1,0,0:0:0:0:
208,192,67637,1,0,0:0:0:0:
388,192,68051,6,0,L|392:88,1,90,2|0,0:0|0:0,0:0:0:0:
296,192,68465,2,0,L|204:192,1,90,0|0,0:0|0:0,0:0:0:0:
304,192,68879,2,0,L|308:288,1,90,2|0,0:0|0:0,0:0:0:0:
208,296,69292,1,0,0:0:0:0:
164,296,69395,1,0,0:0:0:0:
120,296,69498,1,0,0:0:0:0:
320,192,69706,6,0,L|416:192,1,90,2|0,0:0|0:0,0:0:0:0:
20,192,70534,2,0,L|16:96,1,90,8|0,0:0|0:0,0:0:0:0:
104,84,70948,1,0,0:0:0:0:
284,192,71361,6,0,L|192:192,1,90,2|0,0:0|0:0,0:0:0:0:
96,192,71775,2,0,L|92:140,2,45,0|0|0,0:0|0:0|0:0,0:0:0:0:
196,192,72189,2,0,L|296:192,1,90,2|0,0:0|0:0,0:0:0:0:
384,192,72603,2,0,B|424:168|424:168|380:192,1,90,0|0,0:0|0:0,0:0:0:0:
184,192,73017,5,2,0:0:0:0:
104,192,73223,1,0,0:0:0:0:
24,192,73430,1,2,0:0:0:0:
348,288,73844,2,0,L|352:192,1,90,8|0,0:0|0:0,0:0:0:0:
256,192,74258,1,0,0:0:0:0:
444,104,74672,6,0,L|352:104,2,90,2|0|0,0:0|0:0|0:0,0:0:0:0:
262,200,75499,2,0,L|258:104,1,90,2|0,0:0|0:0,0:0:0:0:
354,104,75913,1,0,0:0:0:0:
32,296,76327,5,2,0:0:0:0:
16,200,76534,1,0,0:0:0:0:
88,132,76741,1,0,0:0:0:0:
188,128,76948,1,0,0:0:0:0:
388,128,77155,2,0,L|392:224,1,90,8|0,0:0|0:0,0:0:0:0:
284,132,77568,2,0,L|288:32,1,90,0|0,0:0|0:0,0:0:0:0:
384,28,77982,5,2,0:0:0:0:
287,42,78189,1,0,0:0:0:0:
284,132,78396,1,0,0:0:0:0:
376,168,78603,1,0,0:0:0:0:
284,132,79017,1,0,0:0:0:0:
376,168,79223,2,0,L|384:268,1,90,0|0,0:0|0:0,0:0:0:0:
104,340,79637,6,0,P|64:308|56:264,1,90,2|0,0:0|0:0,0:0:0:0:
76,224,79948,1,0,0:0:0:0:
120,204,80051,2,0,L|214:203,1,90,2|0,0:0|0:0,0:0:0:0:
412,112,80465,1,8,0:0:0:0:
320,112,80672,1,0,0:0:0:0:
420,112,80879,1,2,0:0:0:0:
328,112,81086,1,0,0:0:0:0:
132,112,81292,6,0,L|128:16,1,90,2|0,0:0|0:0,0:0:0:0:
228,20,81706,2,0,L|320:20,1,90,2|0,0:0|0:0,0:0:0:0:
36,80,82120,2,0,P|32:148|80:192,1,135,8|0,0:0|0:0,0:0:0:0:
218,192,82740,1,0,0:0:0:0:
492,308,82948,6,0,L|496:200,1,90,2|0,0:0|0:0,0:0:0:0:
400,192,83361,2,0,L|304:192,1,90,2|0,0:0|0:0,0:0:0:0:
112,192,83775,2,0,L|104:92,1,90,8|0,0:0|0:0,0:0:0:0:
204,80,84189,1,2,0:0:0:0:
112,192,84396,1,0,0:0:0:0:
312,192,84603,5,2,0:0:0:0:
404,156,84810,1,0,0:0:0:0:
392,60,85017,1,2,0:0:0:0:
296,32,85223,1,0,0:0:0:0:
96,28,85430,2,0,L|4:28,2,90,8|2|0,0:0|0:0|0:0,0:0:0:0:
196,28,86051,1,0,0:0:0:0:
456,28,86258,5,2,0:0:0:0:
456,28,86465,1,0,0:0:0:0:
404,28,86568,1,0,0:0:0:0:
348,28,86672,2,0,L|344:132,1,90,2|0,0:0|0:0,0:0:0:0:
144,144,87086,2,0,L|140:248,1,90,8|0,0:0|0:0,0:0:0:0:
232,292,87499,2,0,L|324:292,1,90,2|0,0:0|0:0,0:0:0:0:
120,292,87913,5,2,0:0:0:0:
108,184,88120,1,0,0:0:0:0:
204,136,88327,1,2,0:0:0:0:
96,184,88534,1,0,0:0:0:0:
368,192,88741,2,0,B|460:192|460:192|460:148,1,135,8|0,0:0|0:0,0:0:0:0:
460,149,89361,1,0,0:0:0:0:
176,192,89568,5,2,0:0:0:0:
84,192,89775,1,0,0:0:0:0:
130,192,89879,1,0,0:0:0:0:
176,192,89982,2,0,L|180:88,1,90,2|0,0:0|0:0,0:0:0:0:
380,272,90396,2,0,L|384:176,1,90,8|0,0:0|0:0,0:0:0:0:
340,164,90706,1,0,0:0:0:0:
296,148,90810,1,2,0:0:0:0:
196,148,91017,1,0,0:0:0:0:
296,148,91223,5,2,0:0:0:0:
396,148,91430,2,0,L|400:44,1,90,0|2,0:0|0:0,0:0:0:0:
72,48,92051,1,8,0:0:0:0:
162,48,92257,1,2,0:0:0:0:
252,48,92464,1,2,0:0:0:0:
152,48,92672,1,0,0:0:0:0:
440,48,92879,6,0,P|492:100|404:192,1,225,2|0,0:0|0:0,0:0:0:0:
360,192,93396,1,0,0:0:0:0:
312,192,93499,1,0,0:0:0:0:
112,304,93706,2,0,L|108:208,1,90,8|0,0:0|0:0,0:0:0:0:
204,192,94120,1,2,0:0:0:0:
44,128,94534,6,0,L|136:128,2,90,2|0|2,0:0|0:0|0:0,0:0:0:0:
376,52,95361,2,0,L|380:152,1,90,8|0,0:0|0:0,0:0:0:0:
280,192,95775,1,0,0:0:0:0:
388,52,95982,1,2,0:0:0:0:
104,192,96189,6,0,P|52:160|52:108,1,90,2|0,0:0|0:0,0:0:0:0:
64,72,96499,1,0,0:0:0:0:
128,60,96603,1,2,0:0:0:0:
228,60,96810,1,0,0:0:0:0:
28,136,97017,2,0,L|24:244,1,90,8|0,0:0|0:0,0:0:0:0:
128,332,97430,2,0,L|132:228,1,90,2|0,0:0|0:0,0:0:0:0:
328,256,97844,5,2,0:0:0:0:
424,236,98051,1,0,0:0:0:0:
428,136,98258,1,2,0:0:0:0:
336,104,98465,1,0,0:0:0:0:
140,104,98672,2,0,L|256:36,2,135,8|0|0,0:0|0:0|0:0,0:0:0:0:
420,152,99499,6,0,P|472:184|472:236,1,90,2|0,0:0|0:0,0:0:0:0:
460,272,99809,1,0,0:0:0:0:
396,284,99913,1,2,0:0:0:0:
296,284,100120,1,0,0:0:0:0:
96,192,100327,2,0,L|196:192,1,90,8|0,0:0|0:0,0:0:0:0:
292,92,100740,2,0,L|200:92,1,90,0|0,0:0|0:0,0:0:0:0:
400,92,101155,6,0,L|404:192,1,90,2|0,0:0|0:0,0:0:0:0:
296,192,101568,2,0,L|204:192,1,90,2|0,0:0|0:0,0:0:0:0:
400,271,101982,2,0,L|404:167,1,90,8|2,0:0|0:0,0:0:0:0:
312,180,102396,1,0,0:0:0:0:
416,192,102603,1,2,0:0:0:0:
128,192,102810,6,0,P|52:120|124:52,1,225,2|0,0:0|0:0,0:0:0:0:
220,48,103430,1,0,0:0:0:0:
24,52,103637,1,8,0:0:0:0:
24,52,103844,1,0,0:0:0:0:
72,52,103948,1,0,0:0:0:0:
120,52,104051,1,2,0:0:0:0:
220,48,104258,1,0,0:0:0:0:
416,132,104465,5,2,0:0:0:0:
416,132,104672,1,0,0:0:0:0:
368,132,104776,1,0,0:0:0:0:
320,132,104879,1,2,0:0:0:0:
220,132,105086,1,0,0:0:0:0:
420,228,105292,2,0,L|304:228,2,90,8|2|0,0:0|0:0|0:0,0:0:0:0:
136,292,105913,1,2,0:0:0:0:
