osu file format v14

[General]
AudioFilename: audio.mp3
AudioLeadIn: 0
PreviewTime: 79637
Countdown: 0
SampleSet: Soft
StackLeniency: 0.7
Mode: 2
LetterboxInBreaks: 0
WidescreenStoryboard: 0

[Editor]
Bookmarks: 5155,13430,26672,39913,53155,66396,79637,92879,106120
DistanceSpacing: 1.1
BeatDivisor: 12
GridSize: 4
TimelineZoom: 1.8

[Metadata]
Title:goodbye earth i'm taking my spaceship to explore the universe
TitleUnicode:goodbye earth i'm taking my spaceship to explore the universe
Artist:in love with a ghost
ArtistUnicode:in love with a ghost
Creator:JBHyperion
Version:intergalactic
Source:
Tags:ilwag electronic instrumental lo-fi lofi chillwave ambient chillout electronica lgbt lgbtq pride fa featured artist mappers guild mpg fruit factory
BeatmapID:3575235
BeatmapSetID:1747889

[Difficulty]
HPDrainRate:6
CircleSize:6
OverallDifficulty:9
ApproachRate:9
SliderMultiplier:2
SliderTickRate:2

[Events]
//Background and Video events
0,0,"88394509_p0-2560.jpg",0,0
//Break Periods
//Storyboard Layer 0 (Background)
//Storyboard Layer 1 (Fail)
//Storyboard Layer 2 (Pass)
//Storyboard Layer 3 (Foreground)
//Storyboard Layer 4 (Overlay)
//Storyboard Sound Samples

[TimingPoints]
5155,413.793103448276,4,2,1,50,1,0
26258,-100,4,2,1,60,0,0
26672,-100,4,2,2,70,0,0
27292,-100,4,2,1,80,0,0
27499,-100,4,2,2,70,0,0
28327,-100,4,2,1,80,0,0
28534,-100,4,2,2,70,0,0
30396,-100,4,2,1,80,0,0
30603,-100,4,2,2,70,0,0
31637,-100,4,2,1,80,0,0
32051,-100,4,2,2,70,0,0
33706,-100,4,2,1,80,0,0
33913,-100,4,2,2,70,0,0
36189,-100,4,2,1,80,0,0
36396,-100,4,2,2,70,0,0
37017,-100,4,2,1,80,0,0
37224,-100,4,2,2,70,0,0
38258,-100,4,2,1,80,0,0
38465,-100,4,2,2,70,0,0
39913,-100,4,2,1,70,0,0
40120,-100,4,2,2,70,0,0
43017,-100,4,2,1,70,0,0
43223,-80,4,2,2,70,0,0
43586,-80,4,2,2,20,0,0
43637,-80,4,2,2,70,0,0
43844,-100,4,2,2,70,0,0
44879,-100,4,2,1,70,0,0
45292,-100,4,2,2,70,0,0
46534,-100,4,2,1,70,0,0
46896,-100,4,2,2,20,0,0
46948,-66.6666666666667,4,2,2,70,0,0
47155,-100,4,2,2,70,0,0
48189,-100,4,2,1,70,0,0
48396,-100,4,2,2,70,0,0
49637,-100,4,2,1,70,0,0
49844,-80,4,2,2,70,0,0
50258,-100,4,2,2,70,0,0
51499,-100,4,2,1,70,0,0
51706,-100,4,2,2,70,0,0
53155,-100,4,2,1,50,0,0
66396,-100,4,2,2,60,0,0
68051,-100,4,2,1,60,0,0
69603,-100,4,2,2,60,0,0
71361,-100,4,2,1,60,0,0
73017,-100,4,2,2,60,0,0
74672,-100,4,2,1,60,0,0
76224,-100,4,2,2,60,0,0
77982,-100,4,2,1,60,0,0
78810,-100,4,2,1,70,0,0
79637,-100,4,2,2,70,0,0
80051,-100,4,2,1,70,0,0
80258,-100,4,2,2,70,0,0
81292,-66.6666666666667,4,2,1,70,0,0
81706,-100,4,2,2,70,0,0
82327,-100,4,2,10,60,0,0
82430,-100,4,2,1,70,0,0
82948,-100,4,2,2,70,0,0
83361,-100,4,2,1,70,0,0
83568,-100,4,2,2,70,0,0
84603,-100,4,2,1,70,0,0
84810,-100,4,2,2,70,0,0
86051,-100,4,2,1,70,0,0
86258,-100,4,2,2,70,0,0
86672,-100,4,2,1,70,0,0
86879,-100,4,2,2,70,0,0
87913,-66.6666666666667,4,2,1,70,0,0
88327,-100,4,2,2,70,0,0
88948,-100,4,2,10,60,0,0
89051,-100,4,2,1,70,0,0
89568,-100,4,2,2,70,0,0
89982,-100,4,2,1,70,0,0
90189,-100,4,2,2,70,0,0
91223,-100,4,2,1,70,0,0
91430,-100,4,2,2,70,0,0
92879,-100,4,2,2,80,0,0
94534,-100,4,2,1,80,0,0
94741,-100,4,2,2,80,0,0
95982,-100,4,2,1,80,0,0
96189,-100,4,2,2,80,0,0
96603,-66.6666666666667,4,2,1,80,0,0
96810,-100,4,2,2,80,0,0
97844,-100,4,2,1,80,0,0
98051,-100,4,2,2,80,0,0
98672,-83.3333333333333,4,2,2,80,0,0
98879,-83.3333333333333,4,2,10,70,0,0
98982,-83.3333333333333,4,2,1,80,0,0
99086,-83.3333333333333,4,2,10,70,0,0
99292,-83.3333333333333,4,2,1,70,0,0
99499,-66.6666666666667,4,2,2,80,0,0
99913,-66.6666666666667,4,2,1,80,0,0
100120,-100,4,2,2,80,0,0
101155,-100,4,2,1,80,0,0
101362,-100,4,2,2,80,0,0
102603,-100,4,2,1,80,0,0
102810,-100,4,2,2,80,0,0
104465,-100,4,2,1,80,0,0
104672,-100,4,2,2,80,0,0
105913,-100,4,2,1,70,0,0

[Colours]
Combo1 : 175,175,255
Combo2 : 250,175,125
Combo3 : 175,255,255

[HitObjects]
364,192,13430,6,0,L|368:88,2,100,8|0|0,0:0|0:0|0:0,0:0:0:0:
224,256,14258,2,0,L|220:152,2,100,2|0|0,0:0|0:0|0:0,0:0:0:0:
408,192,15086,1,2,0:0:0:0:
334,176,15292,1,0,0:0:0:0:
261,160,15499,1,0,0:0:0:0:
112,192,15913,2,0,L|108:300,1,100,2|0,0:0|0:0,0:0:0:0:
200,332,16327,1,2,0:0:0:0:
300,332,16534,1,0,0:0:0:0:
112,328,16741,5,8,0:0:0:0:
41,294,16947,1,0,0:0:0:0:
45,215,17154,1,0,0:0:0:0:
120,190,17361,1,0,0:0:0:0:
308,192,17568,1,2,0:0:0:0:
379,158,17774,1,0,0:0:0:0:
375,79,17981,1,0,0:0:0:0:
300,54,18188,1,0,0:0:0:0:
112,52,18396,6,0,L|108:152,1,100,2|0,0:0|0:0,0:0:0:0:
208,140,18810,1,0,0:0:0:0:
112,52,19017,1,0,0:0:0:0:
296,192,19223,2,0,L|300:292,1,100,2|0,0:0|0:0,0:0:0:0:
200,280,19637,1,0,0:0:0:0:
296,192,19844,1,0,0:0:0:0:
108,288,20051,5,8,0:0:0:0:
64,264,20155,1,0,0:0:0:0:
60,216,20258,1,0,0:0:0:0:
156,192,20465,2,0,L|160:88,1,100
260,92,20879,2,0,L|160:92,1,100,2|0,0:0|0:0,0:0:0:0:
60,92,21292,2,0,L|160:92,1,100
348,48,21706,5,2,0:0:0:0:
425,73,21912,1,0,0:0:0:0:
472,140,22119,1,0,0:0:0:0:
468,222,22326,1,0,0:0:0:0:
360,268,22534,2,0,P|316:220|312:168,1,100,2|0,0:0|0:0,0:0:0:0:
360,140,22896,1,0,0:0:0:0:
396,140,22948,2,0,L|496:140,1,100
309,187,23361,5,8,0:0:0:0:
384,212,23568,1,0,0:0:0:0:
388,291,23775,1,0,0:0:0:0:
317,325,23981,1,0,0:0:0:0:
128,256,24189,1,2,0:0:0:0:
199,222,24395,1,0,0:0:0:0:
195,143,24602,1,0,0:0:0:0:
120,118,24809,1,0,0:0:0:0:
308,40,25017,6,0,P|360:68|372:108,2,100,2|0|0,0:0|0:0|0:0,0:0:0:0:
124,24,25637,2,0,L|120:132,1,100,2|0,0:0|0:0,0:0:0:0:
224,192,26051,1,0,0:0:0:0:
276,192,26155,1,0,0:0:0:0:
328,192,26258,2,0,L|332:304,1,100,2|0,0:0|0:0,0:0:0:0:
32,276,26672,5,2,0:0:0:0:
128,304,26879,1,0,0:0:0:0:
16,332,27086,1,0,0:0:0:0:
112,360,27293,1,2,0:0:0:0:
312,192,27499,2,0,L|208:192,1,100,8|0,0:0|0:0,0:0:0:0:
412,192,27913,2,0,L|416:84,1,100,2|0,0:0|0:0,0:0:0:0:
215,92,28327,2,0,L|415:92,1,200,2|2,0:0|0:0,0:0:0:0:
316,92,28948,1,0,0:0:0:0:
116,40,29155,2,0,L|112:164,1,100,8|2,0:0|0:0,0:0:0:0:
224,192,29568,1,0,0:0:0:0:
40,140,29775,1,0,0:0:0:0:
340,192,29982,6,0,L|344:308,1,100,2|0,0:0|0:0,0:0:0:0:
144,292,30396,2,0,B|92:288|92:288|148:292,1,100,2|0,0:0|0:0,0:0:0:0:
344,292,30810,1,8,0:0:0:0:
420,228,31017,1,0,0:0:0:0:
380,136,31223,1,2,0:0:0:0:
280,136,31430,1,0,0:0:0:0:
480,52,31637,5,2,0:0:0:0:
384,80,31844,1,2,0:0:0:0:
496,108,32051,1,2,0:0:0:0:
400,136,32258,1,0,0:0:0:0:
212,40,32465,2,0,L|208:164,1,100,8|2,0:0|0:0,0:0:0:0:
320,192,32878,1,2,0:0:0:0:
136,140,33085,1,0,0:0:0:0:
440,312,33292,6,0,P|468:260|456:196,1,100,2|0,0:0|0:0,0:0:0:0:
412,136,33706,1,2,0:0:0:0:
315,119,33913,1,0,0:0:0:0:
116,192,34120,1,8,0:0:0:0:
236,192,34327,1,0,0:0:0:0:
256,144,34430,1,0,0:0:0:0:
236,124,34482,1,0,0:0:0:0:
204,124,34534,1,2,0:0:0:0:
84,124,34741,1,0,0:0:0:0:
284,40,34948,6,0,B|352:40|352:40|284:44|284:44|352:44,1,200,2|2,0:0|0:0,0:0:0:0:
448,44,35568,1,0,0:0:0:0:
248,96,35775,2,0,L|244:216,1,100,8|2,0:0|0:0,0:0:0:0:
356,136,36189,2,0,L|360:240,1,100,2|0,0:0|0:0,0:0:0:0:
56,332,36603,5,2,0:0:0:0:
42,234,36809,1,0,0:0:0:0:
208,192,36965,1,0,0:0:0:0:
244,192,37017,2,0,L|248:92,1,100,2|0,0:0|0:0,0:0:0:0:
48,32,37430,1,8,0:0:0:0:
144,60,37637,1,0,0:0:0:0:
32,88,37844,1,2,0:0:0:0:
128,116,38051,1,0,0:0:0:0:
328,44,38258,6,0,L|128:44,1,200,2|2,0:0|0:0,0:0:0:0:
228,44,38878,1,0,0:0:0:0:
28,152,39086,1,8,0:0:0:0:
116,152,39292,1,2,0:0:0:0:
208,152,39499,2,0,L|208:276,1,100,2|0,0:0|0:0,0:0:0:0:
488,336,39913,6,0,P|492:272|392:192,1,200,8|0,0:0|0:0,0:0:0:0:
296,192,40534,1,0,0:0:0:0:
96,192,40741,2,0,P|56:152|72:104,1,100,8|0,0:0|0:0,0:0:0:0:
100,80,41051,1,0,0:0:0:0:
132,80,41103,1,0,0:0:0:0:
164,80,41155,2,0,L|264:80,1,100,2|0,0:0|0:0,0:0:0:0:
212,80,41465,1,0,0:0:0:0:
84,24,41568,6,0,B|16:24|16:24|84:28|84:28|16:28,1,200,2|2,0:0|0:0,0:0:0:0:
120,24,42188,1,0,0:0:0:0:
320,60,42396,1,8,0:0:0:0:
140,124,42603,1,2,0:0:0:0:
112,220,42810,1,0,0:0:0:0:
196,272,43017,1,2,0:0:0:0:
480,328,43223,6,0,P|488:272|368:192,1,218.75,2|0,0:0|0:0,0:0:0:0:
336,192,43637,2,0,B|208:192,1,125
492,320,44051,1,8,0:0:0:0:
492,320,44258,1,0,0:0:0:0:
492,320,44361,1,0,0:0:0:0:
492,320,44465,1,2,0:0:0:0:
492,320,44672,1,0,0:0:0:0:
292,292,44879,5,2,0:0:0:0:
200,248,45086,1,2,0:0:0:0:
208,148,45292,1,2,0:0:0:0:
308,132,45499,1,0,0:0:0:0:
40,40,45706,2,0,L|140:40,1,100,8|2,0:0|0:0,0:0:0:0:
192,40,46017,1,0,0:0:0:0:
240,40,46120,1,2,0:0:0:0:
56,40,46327,1,0,0:0:0:0:
340,40,46534,6,0,P|324:132|264:180,1,175,8|0,0:0|0:0,0:0:0:0:
220,192,46948,2,0,B|144:192|144:192|224:192,1,150.000005722046
488,192,47361,1,8,0:0:0:0:
388,192,47568,1,0,0:0:0:0:
336,192,47672,1,0,0:0:0:0:
312,192,47723,1,0,0:0:0:0:
288,192,47775,2,0,L|284:296,1,100,2|0,0:0|0:0,0:0:0:0:
88,192,48189,6,0,L|292:192,1,200,2|2,0:0|0:0,0:0:0:0:
388,192,48810,1,0,0:0:0:0:
188,32,49017,1,8,0:0:0:0:
288,32,49223,1,2,0:0:0:0:
100,32,49430,2,0,L|96:136,1,100,0|2,0:0|0:0,0:0:0:0:
372,32,49844,6,0,P|472:60|492:192,1,250,2|0,0:0|0:0,0:0:0:0:
392,192,50465,1,0,0:0:0:0:
352,192,50534,1,0,0:0:0:0:
192,192,50672,1,8,0:0:0:0:
72,192,50879,1,0,0:0:0:0:
184,192,51086,1,2,0:0:0:0:
64,192,51292,1,0,0:0:0:0:
264,280,51499,6,0,B|332:280|332:280|260:280|260:280|336:280,1,200,2|0,0:0|0:0,0:0:0:0:
420,280,52120,1,0,0:0:0:0:
426,231,52188,1,0,0:0:0:0:
395,193,52257,1,0,0:0:0:0:
236,192,52327,2,0,L|120:192,1,100,8|2,0:0|0:0,0:0:0:0:
336,112,52741,2,0,L|340:44,1,50,2|0,0:0|0:0,0:0:0:0:
276,16,52948,2,0,L|280:72,1,50
404,112,53155,6,0,L|490:162,2,100,8|0|0,0:0|0:0|0:0,0:0:0:0:
224,192,53982,1,2,0:0:0:0:
324,192,54188,1,0,0:0:0:0:
424,192,54395,1,0,0:0:0:0:
224,300,54810,6,0,L|133:248,2,100,2|0|0,0:0|0:0|0:0,0:0:0:0:
424,192,55637,1,2,0:0:0:0:
324,192,55843,1,0,0:0:0:0:
272,192,55948,1,0,0:0:0:0:
220,192,56050,1,0,0:0:0:0:
220,192,56258,1,0,0:0:0:0:
272,192,56361,1,0,0:0:0:0:
396,192,56465,6,0,L|400:88,1,100,8|0,0:0|0:0,0:0:0:0:
224,152,57292,2,0,L|220:44,1,100,2|0,0:0|0:0,0:0:0:0:
40,192,58120,6,0,L|36:304,1,100,2|0,0:0|0:0,0:0:0:0:
148,364,58534,1,0,0:0:0:0:
170,339,58602,1,0,0:0:0:0:
185,310,58671,1,0,0:0:0:0:
191,277,58740,1,0,0:0:0:0:
186,244,58809,1,0,0:0:0:0:
172,214,58878,1,0,0:0:0:0:
140,192,58948,2,0,L|40:192,1,100,2|0,0:0|0:0,0:0:0:0:
40,192,59361,1,0,0:0:0:0:
73,192,59429,1,0,0:0:0:0:
106,192,59498,1,0,0:0:0:0:
140,192,59567,1,0,0:0:0:0:
172,192,59637,1,0,0:0:0:0:
328,192,59775,6,0,L|436:192,2,100,8|0|0,0:0|0:0|0:0,0:0:0:0:
140,192,60603,1,2,0:0:0:0:
234,192,60810,1,0,0:0:0:0:
328,192,61017,1,0,0:0:0:0:
128,60,61430,5,2,0:0:0:0:
248,60,61637,1,0,0:0:0:0:
128,60,61844,1,0,0:0:0:0:
116,91,61912,1,0,0:0:0:0:
115,124,61981,1,0,0:0:0:0:
122,156,62050,1,0,0:0:0:0:
152,184,62120,1,0,0:0:0:0:
304,192,62258,2,0,L|308:308,1,100,2|0,0:0|0:0,0:0:0:0:
407,291,62672,2,0,L|299:291,1,100
104,352,63086,6,0,L|100:244,1,100,8|0,0:0|0:0,0:0:0:0:
288,152,63913,2,0,L|284:40,1,100,2|0,0:0|0:0,0:0:0:0:
476,192,64741,6,0,L|472:304,1,100,2|0,0:0|0:0,0:0:0:0:
368,364,65155,1,0,0:0:0:0:
346,339,65223,1,0,0:0:0:0:
331,310,65292,1,0,0:0:0:0:
325,277,65361,1,0,0:0:0:0:
330,244,65430,1,0,0:0:0:0:
344,214,65499,1,0,0:0:0:0:
376,192,65568,2,0,L|476:192,1,100,2|0,0:0|0:0,0:0:0:0:
476,192,65982,1,0,0:0:0:0:
443,192,66050,1,0,0:0:0:0:
410,192,66119,1,0,0:0:0:0:
376,192,66188,1,0,0:0:0:0:
344,192,66258,1,0,0:0:0:0:
128,192,66396,6,0,L|124:88,1,100,2|0,0:0|0:0,0:0:0:0:
292,292,66810,2,0,L|296:188,1,100,2|0,0:0|0:0,0:0:0:0:
20,192,67223,1,8,0:0:0:0:
32,100,67429,1,0,0:0:0:0:
124,92,67636,1,0,0:0:0:0:
324,148,68051,6,0,L|232:192,2,100,2|0|0,0:0|0:0|0:0,0:0:0:0:
124,92,68879,2,0,L|214:48,2,100,2|0|0,0:0|0:0|0:0,0:0:0:0:
90,106,69369,1,0,0:0:0:0:
76,140,69447,1,0,0:0:0:0:
88,174,69525,1,0,0:0:0:0:
120,191,69603,1,2,0:0:0:0:
240,48,69706,5,2,0:0:0:0:
352,48,69913,1,0,0:0:0:0:
372,48,70120,1,0,0:0:0:0:
28,64,70534,2,0,L|24:268,1,200,8|0,0:0|0:0,0:0:0:0:
232,192,71361,5,2,0:0:0:0:
128,228,71568,1,0,0:0:0:0:
24,263,71775,1,0,0:0:0:0:
52,246,71843,1,0,0:0:0:0:
71,219,71912,1,0,0:0:0:0:
77,187,71981,1,0,0:0:0:0:
69,155,72050,1,0,0:0:0:0:
47,130,72119,1,0,0:0:0:0:
17,116,72189,2,0,L|12:16,1,100,2|0,0:0|0:0,0:0:0:0:
212,52,72603,1,0,0:0:0:0:
184,69,72671,1,0,0:0:0:0:
165,96,72740,1,0,0:0:0:0:
159,128,72809,1,0,0:0:0:0:
167,160,72878,1,0,0:0:0:0:
189,185,72947,1,0,0:0:0:0:
348,192,73017,6,0,L|448:192,1,100,2|0,0:0|0:0,0:0:0:0:
328,264,73430,2,0,L|428:264,1,100,2|0,0:0|0:0,0:0:0:0:
228,348,73844,1,8,0:0:0:0:
132,320,74051,1,0,0:0:0:0:
128,220,74258,1,0,0:0:0:0:
128,188,74326,1,0,0:0:0:0:
144,156,74395,1,0,0:0:0:0:
176,144,74464,1,0,0:0:0:0:
376,96,74672,6,0,L|276:96,2,100,2|0|0,0:0|0:0|0:0,0:0:0:0:
408,108,75155,1,0,0:0:0:0:
408,140,75223,1,0,0:0:0:0:
380,160,75292,1,0,0:0:0:0:
180,132,75499,2,0,L|80:132,1,100,2|0,0:0|0:0,0:0:0:0:
276,32,75913,1,0,0:0:0:0:
304,48,75981,1,0,0:0:0:0:
320,76,76050,1,0,0:0:0:0:
318,109,76119,1,0,0:0:0:0:
252,128,76223,1,2,0:0:0:0:
132,64,76327,5,2,0:0:0:0:
42,97,76533,1,0,0:0:0:0:
21,191,76740,1,0,0:0:0:0:
87,259,76947,1,0,0:0:0:0:
384,324,77155,2,0,L|388:200,1,100,8|0,0:0|0:0,0:0:0:0:
288,192,77568,1,0,0:0:0:0:
400,224,77775,1,0,0:0:0:0:
200,192,77982,6,0,L|96:192,1,100,2|0,0:0|0:0,0:0:0:0:
212,192,78396,2,0,L|216:80,1,100
415,92,78810,1,2,0:0:0:0:
312,192,79017,2,0,L|212:192,2,100
24,44,79637,5,2,0:0:0:0:
24,44,79844,1,0,0:0:0:0:
76,44,79948,1,0,0:0:0:0:
128,44,80051,2,0,L|232:44,1,100,2|0,0:0|0:0,0:0:0:0:
28,132,80465,1,8,0:0:0:0:
128,132,80672,1,0,0:0:0:0:
312,192,80879,1,2,0:0:0:0:
120,132,81086,1,0,0:0:0:0:
420,192,81292,6,0,P|390:85|360:192,1,300.000011444092,2|2,0:0|0:0,0:0:0:0:
460,192,81913,1,0,0:0:0:0:
400,192,82017,1,0,0:0:0:0:
196,272,82120,2,0,L|324:192,2,150,8|2|0,0:0|0:0|0:0,0:0:0:0:
484,192,82948,6,0,L|488:80,1,100,2|0,0:0|0:0,0:0:0:0:
288,20,83361,2,0,L|392:20,1,100,2|0,0:0|0:0,0:0:0:0:
188,20,83775,1,8,0:0:0:0:
88,20,83982,1,0,0:0:0:0:
145,20,84086,1,0,0:0:0:0:
172,20,84137,1,0,0:0:0:0:
200,20,84189,1,2,0:0:0:0:
100,20,84396,1,0,0:0:0:0:
384,20,84603,5,2,0:0:0:0:
484,20,84810,2,0,L|488:120,1,100,0|2,0:0|0:0,0:0:0:0:
388,120,85223,1,0,0:0:0:0:
108,192,85430,1,8,0:0:0:0:
228,192,85637,1,2,0:0:0:0:
348,192,85844,1,2,0:0:0:0:
160,192,86051,1,2,0:0:0:0:
480,192,86258,5,2,0:0:0:0:
480,192,86465,1,0,0:0:0:0:
428,192,86569,1,0,0:0:0:0:
376,192,86672,2,0,L|272:192,1,100,2|0,0:0|0:0,0:0:0:0:
476,280,87086,1,8,0:0:0:0:
368,280,87293,1,0,0:0:0:0:
468,280,87500,1,2,0:0:0:0:
360,280,87707,1,0,0:0:0:0:
60,192,87913,6,0,P|90:85|120:192,1,300.000011444092,2|2,0:0|0:0,0:0:0:0:
20,192,88534,1,0,0:0:0:0:
80,192,88638,1,0,0:0:0:0:
284,272,88741,2,0,L|156:192,2,150,8|2|0,0:0|0:0|0:0,0:0:0:0:
24,192,89568,6,0,L|20:80,1,100,2|0,0:0|0:0,0:0:0:0:
77,76,89879,1,0,0:0:0:0:
132,56,89982,1,2,0:0:0:0:
248,136,90189,1,0,0:0:0:0:
184,116,90292,1,0,0:0:0:0:
396,32,90395,1,8,0:0:0:0:
296,32,90602,1,0,0:0:0:0:
396,32,90809,1,2,0:0:0:0:
220,32,91016,1,0,0:0:0:0:
420,116,91223,6,0,B|320:116|320:116|424:116,1,200,2|2,0:0|0:0,0:0:0:0:
476,152,91810,1,0,0:0:0:0:
448,192,91844,1,0,0:0:0:0:
168,192,92051,1,8,0:0:0:0:
268,192,92258,1,2,0:0:0:0:
368,192,92465,1,2,0:0:0:0:
416,192,92568,1,0,0:0:0:0:
368,192,92672,1,0,0:0:0:0:
68,192,92879,6,0,P|16:228|80:336,1,200,2|0,0:0|0:0,0:0:0:0:
112,336,93396,1,0,0:0:0:0:
160,336,93499,1,0,0:0:0:0:
440,192,93706,1,8,0:0:0:0:
340,192,93913,1,0,0:0:0:0:
288,146,94016,1,0,0:0:0:0:
296,110,94068,1,0,0:0:0:0:
326,89,94119,1,2,0:0:0:0:
376,88,94223,1,0,0:0:0:0:
428,88,94327,2,0,L|432:28,1,50
316,12,94534,6,0,B|248:12|248:12|312:16|312:16|244:16,1,200,2|2,0:0|0:0,0:0:0:0:
192,16,95051,1,0,0:0:0:0:
160,56,95155,1,0,0:0:0:0:
160,104,95258,1,0,0:0:0:0:
360,192,95361,2,0,L|364:304,1,100,8|0,0:0|0:0,0:0:0:0:
172,192,95775,1,0,0:0:0:0:
452,192,95982,1,2,0:0:0:0:
112,192,96189,6,0,P|40:164|28:128,1,100,2|0,0:0|0:0,0:0:0:0:
56,100,96499,1,0,0:0:0:0:
112,100,96603,2,0,B|188:101|188:101|112:101,1,150.000005722046,2|0,0:0|0:0,0:0:0:0:
416,192,97017,1,8,0:0:0:0:
316,192,97223,1,0,0:0:0:0:
264,192,97327,1,0,0:0:0:0:
240,192,97379,1,0,0:0:0:0:
216,192,97430,1,2,0:0:0:0:
336,192,97637,1,0,0:0:0:0:
140,192,97844,5,2,0:0:0:0:
69,229,98050,1,0,0:0:0:0:
68,308,98257,1,2,0:0:0:0:
137,347,98464,1,0,0:0:0:0:
440,192,98672,2,0,L|258:223,2,179.999994506836,8|0|0,0:0|0:0|0:0,0:0:0:0:
140,192,99499,6,0,P|136:136|212:64,1,150,2|0,0:0|0:0,0:0:0:0:
252,56,99810,1,0,0:0:0:0:
312,56,99913,2,0,L|160:56,1,150.000005722046,2|0,0:0|0:0,0:0:0:0:
464,136,100327,1,8,0:0:0:0:
364,136,100534,1,0,0:0:0:0:
420,136,100637,1,0,0:0:0:0:
448,136,100689,1,0,0:0:0:0:
476,136,100741,1,0,0:0:0:0:
376,136,100948,1,0,0:0:0:0:
176,136,101155,5,2,0:0:0:0:
271,157,101361,1,0,0:0:0:0:
330,235,101568,1,2,0:0:0:0:
326,333,101775,1,0,0:0:0:0:
48,248,101982,2,0,L|152:248,1,100,8|2,0:0|0:0,0:0:0:0:
348,192,102396,1,0,0:0:0:0:
68,248,102603,1,2,0:0:0:0:
408,196,102810,6,0,P|464:168|404:80,1,200,2|0,0:0|0:0,0:0:0:0:
304,80,103430,1,0,0:0:0:0:
104,40,103637,1,8,0:0:0:0:
104,40,103844,1,0,0:0:0:0:
129,40,103895,1,0,0:0:0:0:
154,40,103947,1,0,0:0:0:0:
216,40,104051,1,2,0:0:0:0:
76,40,104258,1,0,0:0:0:0:
276,40,104465,6,0,B|344:40|344:40|276:44|276:44|344:44,1,200,2|2,0:0|0:0,0:0:0:0:
392,44,104982,1,0,0:0:0:0:
416,44,105034,1,0,0:0:0:0:
440,44,105086,1,0,0:0:0:0:
240,144,105292,1,8,0:0:0:0:
380,144,105499,1,2,0:0:0:0:
228,144,105706,1,0,0:0:0:0:
492,144,105913,1,2,0:0:0:0:
498,176,105981,1,0,0:0:0:0:
499,209,106050,1,0,0:0:0:0:
493,242,106119,1,8,0:0:0:0:
