osu file format v14

[General]
AudioFilename: audio.mp3
AudioLeadIn: 0
PreviewTime: 79637
Countdown: 0
SampleSet: Soft
StackLeniency: 0.7
Mode: 2
LetterboxInBreaks: 0
WidescreenStoryboard: 1

[Editor]
Bookmarks: 5155,13430,26672,39913,53155,66396,79637,92879,106120
DistanceSpacing: 1
BeatDivisor: 4
GridSize: 4
TimelineZoom: 1

[Metadata]
Title:goodbye earth i'm taking my spaceship to explore the universe
TitleUnicode:goodbye earth i'm taking my spaceship to explore the universe
Artist:in love with a ghost
ArtistUnicode:in love with a ghost
Creator:JBHyperion
Version:cup
Source:
Tags:ilwag electronic instrumental lo-fi lofi chillwave ambient chillout electronica lgbt lgbtq pride fa featured artist mappers guild mpg fruit factory
BeatmapID:3575234
BeatmapSetID:1747889

[Difficulty]
HPDrainRate:3
CircleSize:3
OverallDifficulty:6
ApproachRate:6
SliderMultiplier:1.4
SliderTickRate:1

[Events]
//Background and Video events
0,0,"88394509_p0-2560.jpg",0,0
//Break Periods
//Storyboard Layer 0 (Background)
//Storyboard Layer 1 (Fail)
//Storyboard Layer 2 (Pass)
//Storyboard Layer 3 (Foreground)
//Storyboard Layer 4 (Overlay)
//Storyboard Sound Samples

[TimingPoints]
5155,413.793103448276,4,2,1,50,1,0
26258,-100,4,2,1,60,0,0
26672,-100,4,2,2,70,0,0
27292,-100,4,2,1,80,0,0
27499,-100,4,2,2,70,0,0
28327,-100,4,2,1,80,0,0
28534,-100,4,2,2,70,0,0
30396,-100,4,2,1,80,0,0
30603,-100,4,2,2,70,0,0
31637,-100,4,2,1,80,0,0
32051,-100,4,2,2,70,0,0
33706,-100,4,2,1,80,0,0
33913,-100,4,2,2,70,0,0
36189,-100,4,2,1,80,0,0
36396,-100,4,2,2,70,0,0
37017,-100,4,2,1,80,0,0
37224,-100,4,2,2,70,0,0
38258,-100,4,2,1,80,0,0
38465,-100,4,2,2,70,0,0
39913,-100,4,2,1,70,0,0
40120,-100,4,2,2,70,0,0
43017,-100,4,2,1,70,0,0
43223,-100,4,2,2,70,0,0
43586,-100,4,2,2,20,0,0
43637,-100,4,2,2,70,0,0
43844,-100,4,2,2,70,0,0
44879,-100,4,2,1,70,0,0
45292,-100,4,2,2,70,0,0
46534,-100,4,2,1,70,0,0
46896,-100,4,2,2,20,0,0
46948,-100,4,2,2,70,0,0
47155,-100,4,2,2,70,0,0
48189,-100,4,2,1,70,0,0
48396,-100,4,2,2,70,0,0
49637,-100,4,2,1,70,0,0
49844,-100,4,2,2,70,0,0
50258,-100,4,2,2,70,0,0
51499,-100,4,2,1,70,0,0
51706,-100,4,2,2,70,0,0
53155,-100,4,2,1,50,0,0
66396,-100,4,2,2,60,0,0
68051,-100,4,2,1,60,0,0
69603,-100,4,2,2,60,0,0
71361,-100,4,2,1,60,0,0
73017,-100,4,2,2,60,0,0
74672,-100,4,2,1,60,0,0
76224,-100,4,2,2,60,0,0
77982,-100,4,2,1,60,0,0
78810,-100,4,2,1,70,0,0
79637,-100,4,2,2,70,0,0
80051,-100,4,2,1,70,0,0
80258,-100,4,2,2,70,0,0
81292,-100,4,2,1,70,0,0
81706,-100,4,2,2,70,0,0
82327,-100,4,2,10,60,0,0
82430,-100,4,2,1,70,0,0
82948,-100,4,2,2,70,0,0
83361,-100,4,2,1,70,0,0
83568,-100,4,2,2,70,0,0
84603,-100,4,2,1,70,0,0
84810,-100,4,2,2,70,0,0
86051,-100,4,2,1,70,0,0
86258,-100,4,2,2,70,0,0
86672,-100,4,2,1,70,0,0
86879,-100,4,2,2,70,0,0
87913,-100,4,2,1,70,0,0
88327,-100,4,2,2,70,0,0
88948,-100,4,2,10,60,0,0
89051,-100,4,2,1,70,0,0
89568,-100,4,2,2,70,0,0
89982,-100,4,2,1,70,0,0
90189,-100,4,2,2,70,0,0
91223,-100,4,2,1,70,0,0
91430,-100,4,2,2,70,0,0
92879,-100,4,2,2,80,0,0
94534,-100,4,2,1,80,0,0
94741,-100,4,2,2,80,0,0
95982,-100,4,2,1,80,0,0
96189,-100,4,2,2,80,0,0
96603,-100,4,2,1,80,0,0
96810,-100,4,2,2,80,0,0
97844,-100,4,2,1,80,0,0
98051,-100,4,2,2,80,0,0
98672,-100,4,2,2,80,0,0
98879,-100,4,2,10,70,0,0
98982,-100,4,2,1,80,0,0
99086,-100,4,2,10,70,0,0
99292,-100,4,2,1,70,0,0
99499,-100,4,2,2,80,0,0
99913,-100,4,2,1,80,0,0
100120,-100,4,2,2,80,0,0
101155,-100,4,2,1,80,0,0
101362,-100,4,2,2,80,0,0
102603,-100,4,2,1,80,0,0
102810,-100,4,2,2,80,0,0
104465,-100,4,2,1,80,0,0
104672,-100,4,2,2,80,0,0
105913,-100,4,2,1,70,0,0

[Colours]
Combo1 : 175,175,255
Combo2 : 250,175,125
Combo3 : 175,255,255

[HitObjects]
64,192,13430,5,8,0:0:0:0:
204,192,14258,1,2,0:0:0:0:
416,192,15086,5,2,0:0:0:0:
276,192,15913,1,2,0:0:0:0:
488,192,16741,6,0,L|492:40,1,140,8|0,0:0|0:0,0:0:0:0:
372,272,17568,2,0,L|368:120,1,140,2|0,0:0|0:0,0:0:0:0:
240,36,18396,6,0,P|204:92|240:148,1,140,2|0,0:0|0:0,0:0:0:0:
368,132,19223,2,0,P|404:188|368:244,1,140,2|0,0:0|0:0,0:0:0:0:
244,320,20051,6,0,L|240:244,2,70,8|0|0,0:0|0:0|0:0,0:0:0:0:
124,248,20879,2,0,L|128:172,2,70,2|0|0,0:0|0:0|0:0,0:0:0:0:
264,164,21706,6,0,L|268:88,1,70,2|0,0:0|0:0,0:0:0:0:
196,64,22120,1,0,0:0:0:0:
56,248,22534,2,0,L|52:172,1,70,2|0,0:0|0:0,0:0:0:0:
124,148,22948,1,0,0:0:0:0:
264,192,23361,6,0,L|268:48,1,140,8|0,0:0|0:0,0:0:0:0:
389,122,24189,2,0,L|264:50,1,140,2|0,0:0|0:0,0:0:0:0:
128,52,25017,5,2,0:0:0:0:
252,52,25430,1,0,0:0:0:0:
308,52,25637,1,2,0:0:0:0:
252,52,25844,1,0,0:0:0:0:
124,52,26258,2,0,L|120:128,1,70,2|0,0:0|0:0,0:0:0:0:
196,192,26672,6,0,L|268:192,2,70,2|0|0,0:0|0:0|0:0,0:0:0:0:
56,192,27499,2,0,P|40:248|64:344,1,140,8|2,0:0|0:0,0:0:0:0:
196,328,28327,6,0,B|268:328|268:328|192:328,1,140,2|2,0:0|0:0,0:0:0:0:
72,328,29155,1,8,0:0:0:0:
140,328,29361,2,0,L|352:328,1,210,2|2,0:0|0:0,0:0:0:0:
350,328,30396,5,2,0:0:0:0:
208,328,30810,2,0,P|192:264|204:176,1,140,8|2,0:0|0:0,0:0:0:0:
324,160,31637,6,0,L|328:88,2,70,2|2|2,0:0|0:0|0:0,0:0:0:0:
195,45,32465,1,8,0:0:0:0:
261,67,32671,1,2,0:0:0:0:
327,89,32878,1,2,0:0:0:0:
468,92,33292,6,0,L|472:172,1,70,2|0,0:0|0:0,0:0:0:0:
400,192,33706,1,2,0:0:0:0:
260,192,34120,2,0,L|256:332,1,140,8|2,0:0|0:0,0:0:0:0:
116,332,34948,6,0,B|44:332|44:332|120:332,1,140,2|2,0:0|0:0,0:0:0:0:
256,331,35776,1,8,0:0:0:0:
132,332,36189,2,0,L|128:248,1,70,2|0,0:0|0:0,0:0:0:0:
200,192,36603,6,0,L|331:144,1,140,2|2,0:0|0:0,0:0:0:0:
266,167,37223,1,0,0:0:0:0:
200,192,37430,1,8,0:0:0:0:
200,192,37844,1,2,0:0:0:0:
340,192,38258,6,0,B|412:192|412:192|336:192,1,140,2|2,0:0|0:0,0:0:0:0:
208,237,39086,1,8,0:0:0:0:
274,214,39292,1,2,0:0:0:0:
340,192,39499,1,2,0:0:0:0:
188,236,39913,6,0,P|104:168|188:48,1,280,8|8,0:0|0:0,0:0:0:0:
312,48,41155,1,2,0:0:0:0:
172,48,41568,6,0,B|100:48|100:48|176:48,1,140,2|2,0:0|0:0,0:0:0:0:
324,48,42396,1,8,0:0:0:0:
392,84,42603,1,2,0:0:0:0:
392,160,42810,1,0,0:0:0:0:
324,192,43017,1,2,0:0:0:0:
248,192,43223,6,0,B|192:260|248:316|248:316|320:316|320:316|252:316,1,280,2|8,0:0|0:0,0:0:0:0:
140,316,44465,1,2,0:0:0:0:
268,316,44879,6,0,L|272:168,1,140,2|2,0:0|0:0,0:0:0:0:
132,180,45706,2,0,L|240:180,2,105,8|2|2,0:0|0:0|0:0,0:0:0:0:
60,176,46534,6,0,P|28:96|168:8,1,280,8|8,0:0|0:0,0:0:0:0:
288,64,47775,1,2,0:0:0:0:
160,192,48189,6,0,B|88:192|88:192|164:192,1,140,2|2,0:0|0:0,0:0:0:0:
284,192,49017,2,0,L|288:268,1,70,8|2,0:0|0:0,0:0:0:0:
224,312,49430,1,0,0:0:0:0:
152,312,49637,1,2,0:0:0:0:
228,312,49844,6,0,P|288:300|324:100,1,280,2|8,0:0|0:0,0:0:0:0:
284,72,50879,1,0,0:0:0:0:
214,62,51086,1,2,0:0:0:0:
76,60,51499,6,0,B|4:60|4:60|80:60,1,140,2|0,0:0|0:0,0:0:0:0:
208,105,52327,1,8,0:0:0:0:
142,82,52533,1,2,0:0:0:0:
76,60,52740,1,2,0:0:0:0:
232,84,53155,5,8,0:0:0:0:
233,153,53361,1,0,0:0:0:0:
235,223,53568,1,0,0:0:0:0:
356,152,53982,1,2,0:0:0:0:
354,221,54188,1,0,0:0:0:0:
352,291,54395,1,0,0:0:0:0:
472,192,54810,6,0,L|476:112,1,70,2|0,0:0|0:0,0:0:0:0:
404,88,55223,1,0,0:0:0:0:
284,176,55637,2,0,L|208:176,1,70,2|0,0:0|0:0,0:0:0:0:
200,96,56051,1,0,0:0:0:0:
340,192,56465,5,8,0:0:0:0:
228,192,57292,1,2,0:0:0:0:
368,192,58120,5,2,0:0:0:0:
256,192,58948,1,2,0:0:0:0:
468,192,59775,6,0,L|472:288,2,70,8|0|0,0:0|0:0|0:0,0:0:0:0:
348,324,60603,1,2,0:0:0:0:
300,324,60809,1,0,0:0:0:0:
252,324,61016,1,0,0:0:0:0:
132,256,61430,6,0,L|128:160,2,70,2|0|0,0:0|0:0|0:0,0:0:0:0:
252,124,62258,1,2,0:0:0:0:
300,124,62464,1,0,0:0:0:0:
348,124,62671,1,0,0:0:0:0:
228,244,63086,6,0,P|204:176|224:112,1,140,8|0,0:0|0:0,0:0:0:0:
339,313,63913,2,0,P|362:245|343:181,1,140,2|0,0:0|0:0,0:0:0:0:
223,112,64741,6,0,L|344:182,1,140,2|0,0:0|0:0,0:0:0:0:
223,112,65568,2,0,L|344:182,1,140,2|0,0:0|0:0,0:0:0:0:
484,192,66396,5,2,0:0:0:0:
344,192,66810,1,2,0:0:0:0:
496,192,67223,1,8,0:0:0:0:
497,122,67429,1,0,0:0:0:0:
499,52,67636,1,0,0:0:0:0:
368,244,68051,6,0,L|364:100,1,140,2|0,0:0|0:0,0:0:0:0:
224,232,68879,1,2,0:0:0:0:
222,162,69085,1,0,0:0:0:0:
220,92,69292,1,0,0:0:0:0:
80,192,69706,6,0,P|40:152|40:68,1,140,2|0,0:0|0:0,0:0:0:0:
180,192,70534,2,0,P|220:232|220:316,1,140,8|0,0:0|0:0,0:0:0:0:
80,352,71361,6,0,L|88:212,1,140,2|0,0:0|0:0,0:0:0:0:
228,192,72189,2,0,L|368:192,1,140,2|0,0:0|0:0,0:0:0:0:
228,192,73017,5,2,0:0:0:0:
88,192,73431,1,2,0:0:0:0:
240,192,73844,2,0,L|244:96,2,70,8|0|0,0:0|0:0|0:0,0:0:0:0:
100,128,74672,6,0,L|35:57,2,70,2|0|0,0:0|0:0|0:0,0:0:0:0:
252,36,75499,1,2,0:0:0:0:
316,36,75706,1,0,0:0:0:0:
252,36,75913,1,0,0:0:0:0:
96,36,76327,6,0,P|80:96|112:176,1,140,2|0,0:0|0:0,0:0:0:0:
260,192,77155,1,8,0:0:0:0:
384,192,77568,2,0,L|388:264,1,70,0|0,0:0|0:0,0:0:0:0:
320,304,77982,5,2,0:0:0:0:
180,336,78396,2,0,L|176:252,1,70,0|0,0:0|0:0,0:0:0:0:
280,192,79017,1,0,0:0:0:0:
208,156,79223,1,0,0:0:0:0:
208,76,79430,1,0,0:0:0:0:
280,40,79637,6,0,L|420:40,1,140,2|2,0:0|0:0,0:0:0:0:
420,40,80258,1,0,0:0:0:0:
344,40,80465,2,0,L|340:116,2,70,8|0|2,0:0|0:0|0:0,0:0:0:0:
200,109,81292,6,0,B|132:108|132:108|204:108,1,140,2|2,0:0|0:0,0:0:0:0:
352,192,82120,2,0,P|404:220|420:284,2,105,8|2|0,0:0|0:0|0:0,0:0:0:0:
276,192,82948,5,2,0:0:0:0:
156,192,83361,2,0,L|152:116,1,70,2|0,0:0|0:0,0:0:0:0:
224,84,83775,1,8,0:0:0:0:
80,156,84189,1,2,0:0:0:0:
152,122,84396,1,0,0:0:0:0:
224,84,84603,6,0,L|228:232,1,140,2|2,0:0|0:0,0:0:0:0:
372,192,85430,2,0,L|376:264,2,70,8|0|2,0:0|0:0|0:0,0:0:0:0:
300,192,86051,1,0,0:0:0:0:
228,192,86258,6,0,P|164:140|176:76,1,140,2|2,0:0|0:0,0:0:0:0:
224,36,86879,1,0,0:0:0:0:
297,27,87086,2,0,L|300:176,1,140,8|2,0:0|0:0,0:0:0:0:
156,244,87913,6,0,B|84:244|84:244|160:244,1,140,2|2,0:0|0:0,0:0:0:0:
304,192,88741,2,0,L|213:243,2,105,8|2|0,0:0|0:0|0:0,0:0:0:0:
380,192,89568,6,0,P|432:168|456:92,2,140,2|2|8,0:0|0:0|0:0,0:0:0:0:
240,192,90810,1,2,0:0:0:0:
392,288,91223,6,0,B|464:288|464:288|388:288,1,140,2|2,0:0|0:0,0:0:0:0:
256,288,92051,1,8,0:0:0:0:
326,288,92257,1,2,0:0:0:0:
360,288,92464,1,2,0:0:0:0:
326,288,92672,1,0,0:0:0:0:
256,288,92879,6,0,P|180:204|288:120,1,280,2|8,0:0|0:0,0:0:0:0:
287,119,94120,1,2,0:0:0:0:
148,116,94534,6,0,B|76:116|76:116|152:116,1,140,2|2,0:0|0:0,0:0:0:0:
300,120,95361,2,0,L|304:208,1,70,8|0,0:0|0:0,0:0:0:0:
228,208,95775,1,0,0:0:0:0:
300,120,95982,1,2,0:0:0:0:
216,120,96189,6,0,P|144:180|244:296,1,280,2|8,0:0|0:0,0:0:0:0:
368,296,97430,1,2,0:0:0:0:
368,296,97844,5,2,0:0:0:0:
304,296,98051,1,0,0:0:0:0:
240,296,98258,1,2,0:0:0:0:
112,292,98672,2,0,P|60:264|44:200,2,105,8|0|0,0:0|0:0|0:0,0:0:0:0:
188,292,99499,6,0,P|256:272|280:192,1,140,2|2,0:0|0:0,0:0:0:0:
280,148,100120,1,0,0:0:0:0:
227,105,100327,1,8,0:0:0:0:
100,104,100741,1,0,0:0:0:0:
240,104,101155,6,0,B|312:104|312:104|236:104,1,140,2|2,0:0|0:0,0:0:0:0:
104,192,101982,2,0,L|100:268,1,70,8|2,0:0|0:0,0:0:0:0:
164,312,102395,1,0,0:0:0:0:
236,312,102602,1,2,0:0:0:0:
160,312,102809,6,0,P|100:300|64:100,1,280,2|8,0:0|0:0,0:0:0:0:
104,72,103844,1,0,0:0:0:0:
174,62,104051,1,2,0:0:0:0:
312,60,104464,6,0,B|384:60|384:60|308:60,1,140,2|2,0:0|0:0,0:0:0:0:
180,105,105292,2,0,L|176:200,1,70,8|2,0:0|0:0,0:0:0:0:
256,192,105706,1,0,0:0:0:0:
180,105,105913,1,2,0:0:0:0:
