osu file format v14

[General]
AudioFilename: audio.mp3
AudioLeadIn: 0
PreviewTime: 174526
Countdown: 0
SampleSet: Normal
StackLeniency: 0.7
Mode: 3
LetterboxInBreaks: 0
SpecialStyle: 0
WidescreenStoryboard: 1

[Editor]
DistanceSpacing: 1
BeatDivisor: 4
GridSize: 4
TimelineZoom: 0.6

[Metadata]
Title:flowers feat. nori
TitleUnicode:flowers feat. nori
Artist:in love with a ghost
ArtistUnicode:in love with a ghost
Creator:-MysticEyes
Version:9k hard
Source:
Tags:Vortex- Leniane qqqant -mint- piano ilwag
BeatmapID:2017871
BeatmapSetID:962550

[Difficulty]
HPDrainRate:7.5
CircleSize:9
OverallDifficulty:7.5
ApproachRate:5
SliderMultiplier:1.4
SliderTickRate:1

[Events]
//Background and Video events
0,0,"ghost.jpg",0,0
//Break Periods
//Storyboard Layer 0 (Background)
//Storyboard Layer 1 (Fail)
//Storyboard Layer 2 (Pass)
//Storyboard Layer 3 (Foreground)
//Storyboard Layer 4 (Overlay)
//Storyboard Sound Samples
Sample,19981,0,"F5R.wav",15
Sample,22405,0,"F5R.wav",15
Sample,24829,0,"A#5R_Bb5R.wav",40
Sample,27253,0,"A#5R_Bb5R.wav",40
Sample,29678,0,"F5R.wav",15
Sample,32102,0,"F5R.wav",15
Sample,34526,0,"A#5R_Bb5R.wav",40
Sample,36950,0,"A#5R_Bb5R.wav",40
Sample,39374,0,"F5R.wav",15
Sample,41799,0,"F5R.wav",15
Sample,44223,0,"A#5R_Bb5R.wav",40
Sample,46647,0,"A#5R_Bb5R.wav",40
Sample,49071,0,"F5R.wav",15
Sample,51496,0,"F5R.wav",15
Sample,53920,0,"A#5R_Bb5R.wav",40
Sample,56344,0,"A#5R_Bb5R.wav",40
Sample,58162,0,"C6R.wav",40
Sample,59678,0,"F5R.wav",40
Sample,59981,0,"D#6R_Eb6R.wav",40
Sample,62102,0,"F5R.wav",40
Sample,62405,0,"D#6R_Eb6R.wav",40
Sample,64526,0,"D#5R_Eb5R.wav",40
Sample,64829,0,"D#6R_Eb6R.wav",40
Sample,66647,0,"A#5R_Bb5R.wav",70
Sample,66950,0,"D#5R_Eb5R.wav",40
Sample,67253,0,"D#6R_Eb6R.wav",40
Sample,67556,0,"D#5R_Eb5R.wav",40
Sample,67859,0,"C6R.wav",40
Sample,69375,0,"F5R.wav",40
Sample,69678,0,"D#6R_Eb6R.wav",40
Sample,71799,0,"F5R.wav",40
Sample,72102,0,"D#6R_Eb6R.wav",40
Sample,74223,0,"D#5R_Eb5R.wav",40
Sample,74526,0,"D#6R_Eb6R.wav",40
Sample,76344,0,"A#5R_Bb5R.wav",70
Sample,76647,0,"D#5R_Eb5R.wav",40
Sample,77253,0,"D#5R_Eb5R.wav",40
Sample,77556,0,"C6R.wav",40
Sample,79071,0,"F5R.wav",40
Sample,79375,0,"D#6R_Eb6R.wav",40
Sample,81496,0,"F5R.wav",40
Sample,81799,0,"D#6R_Eb6R.wav",40
Sample,83920,0,"D#5R_Eb5R.wav",40
Sample,84223,0,"D#6R_Eb6R.wav",40
Sample,86041,0,"A#5R_Bb5R.wav",70
Sample,86344,0,"D#5R_Eb5R.wav",40
Sample,86647,0,"D#6R_Eb6R.wav",40
Sample,86950,0,"D#5R_Eb5R.wav",40
Sample,87253,0,"C6R.wav",40
Sample,88768,0,"F5R.wav",40
Sample,89071,0,"D#6R_Eb6R.wav",40
Sample,91193,0,"F5R.wav",40
Sample,91496,0,"D#6R_Eb6R.wav",40
Sample,93617,0,"D#5R_Eb5R.wav",40
Sample,93920,0,"D#6R_Eb6R.wav",40
Sample,95738,0,"A#5R_Bb5R.wav",70
Sample,96041,0,"D#5R_Eb5R.wav",40
Sample,97253,0,"C6R.wav",40
Sample,98465,0,"C6R.wav",40
Sample,99678,0,"C6R.wav",40
Sample,100890,0,"C6R.wav",40
Sample,102102,0,"A#5R_Bb5R.wav",40
Sample,103314,0,"A#5R_Bb5R.wav",40
Sample,104526,0,"A#5R_Bb5R.wav",40
Sample,105738,0,"A#5R_Bb5R.wav",40
Sample,108162,0,"C6R.wav",40
Sample,110587,0,"C6R.wav",40
Sample,113011,0,"A#5R_Bb5R.wav",40
Sample,115435,0,"A#5R_Bb5R.wav",40
Sample,116647,0,"F5R.wav",40
Sample,116647,0,"G#5R_Ab5R.wav",40
Sample,116647,0,"C6R.wav",40
Sample,116799,0,"G#6R_Ab6R.wav",40
Sample,116950,0,"D#6R_Eb6R.wav",40
Sample,117102,0,"G#5R_Ab5R.wav",40
Sample,117102,0,"C7R.wav",40
Sample,117253,0,"F5R.wav",40
Sample,117253,0,"A#6R_Bb6R.wav",40
Sample,117859,0,"C6R.wav",40
Sample,117859,0,"G#5R_Ab5R.wav",40
Sample,117859,0,"F5R.wav",40
Sample,118011,0,"G#6R_Ab6R.wav",40
Sample,118162,0,"D#6R_Eb6R.wav",40
Sample,118314,0,"C7R.wav",40
Sample,118314,0,"G#5R_Ab5R.wav",40
Sample,118465,0,"A#6R_Bb6R.wav",40
Sample,118465,0,"F5R.wav",40
Sample,119071,0,"F5R.wav",40
Sample,119071,0,"G#5R_Ab5R.wav",40
Sample,119071,0,"C6R.wav",40
Sample,119223,0,"G#6R_Ab6R.wav",40
Sample,119374,0,"D#6R_Eb6R.wav",40
Sample,119526,0,"G#5R_Ab5R.wav",40
Sample,119526,0,"C7R.wav",40
Sample,119678,0,"F5R.wav",40
Sample,119678,0,"A#6R_Bb6R.wav",40
Sample,120284,0,"C6R.wav",40
Sample,120284,0,"G#5R_Ab5R.wav",40
Sample,120284,0,"F5R.wav",40
Sample,120435,0,"G#6R_Ab6R.wav",40
Sample,120587,0,"D#6R_Eb6R.wav",40
Sample,120738,0,"C7R.wav",40
Sample,120738,0,"G#5R_Ab5R.wav",40
Sample,120890,0,"A#6R_Bb6R.wav",40
Sample,120890,0,"F5R.wav",40
Sample,121496,0,"G5R.wav",40
Sample,121496,0,"A#5R_Bb5R.wav",40
Sample,121950,0,"G#5R_Ab5R.wav",40
Sample,122102,0,"G5R.wav",40
Sample,122253,0,"D#5R_Eb5R.wav",40
Sample,122708,0,"A#5R_Bb5R.wav",40
Sample,122708,0,"G5R.wav",40
Sample,123162,0,"G#5R_Ab5R.wav",40
Sample,123314,0,"G5R.wav",40
Sample,123465,0,"D#5R_Eb5R.wav",40
Sample,123920,0,"G5R.wav",40
Sample,123920,0,"A#5R_Bb5R.wav",40
Sample,124374,0,"G#5R_Ab5R.wav",40
Sample,124526,0,"G5R.wav",40
Sample,124678,0,"D#5R_Eb5R.wav",40
Sample,125132,0,"A#5R_Bb5R.wav",40
Sample,125587,0,"G#5R_Ab5R.wav",40
Sample,126344,0,"C6R.wav",40
Sample,126344,0,"G#5R_Ab5R.wav",40
Sample,126344,0,"F5R.wav",40
Sample,126496,0,"G#6R_Ab6R.wav",40
Sample,126647,0,"D#6R_Eb6R.wav",40
Sample,126799,0,"C7R.wav",40
Sample,126799,0,"G#5R_Ab5R.wav",40
Sample,126950,0,"A#6R_Bb6R.wav",40
Sample,126950,0,"F5R.wav",40
Sample,127556,0,"F5R.wav",40
Sample,127556,0,"G#5R_Ab5R.wav",40
Sample,127556,0,"C6R.wav",40
Sample,127708,0,"G#6R_Ab6R.wav",40
Sample,127859,0,"D#6R_Eb6R.wav",40
Sample,128011,0,"G#5R_Ab5R.wav",40
Sample,128011,0,"C7R.wav",40
Sample,128162,0,"F5R.wav",40
Sample,128162,0,"A#6R_Bb6R.wav",40
Sample,128768,0,"C6R.wav",40
Sample,128768,0,"G#5R_Ab5R.wav",40
Sample,128768,0,"F5R.wav",40
Sample,128920,0,"G#6R_Ab6R.wav",40
Sample,129071,0,"D#6R_Eb6R.wav",40
Sample,129223,0,"C7R.wav",40
Sample,129223,0,"G#5R_Ab5R.wav",40
Sample,129374,0,"A#6R_Bb6R.wav",40
Sample,129374,0,"F5R.wav",40
Sample,129981,0,"F5R.wav",40
Sample,129981,0,"G#5R_Ab5R.wav",40
Sample,129981,0,"C6R.wav",40
Sample,130132,0,"G#6R_Ab6R.wav",40
Sample,130284,0,"D#6R_Eb6R.wav",40
Sample,130435,0,"G#5R_Ab5R.wav",40
Sample,130435,0,"C7R.wav",40
Sample,130587,0,"F5R.wav",40
Sample,130587,0,"A#6R_Bb6R.wav",40
Sample,131193,0,"A#5R_Bb5R.wav",40
Sample,131193,0,"G5R.wav",40
Sample,131647,0,"G#5R_Ab5R.wav",40
Sample,131799,0,"G5R.wav",40
Sample,131950,0,"F5R.wav",40
Sample,132405,0,"G5R.wav",40
Sample,132405,0,"A#5R_Bb5R.wav",40
Sample,132859,0,"G#5R_Ab5R.wav",40
Sample,133011,0,"G5R.wav",40
Sample,133162,0,"F5R.wav",40
Sample,133617,0,"A#5R_Bb5R.wav",40
Sample,134223,0,"G5R.wav",40
Sample,134829,0,"A#5R_Bb5R.wav",40
Sample,134829,0,"G5R.wav",40
Sample,135738,0,"C#5R_Db5R.wav",40
Sample,136041,0,"F5R.wav",40
Sample,136041,0,"G#5R_Ab5R.wav",40
Sample,136041,0,"C6R.wav",40
Sample,136193,0,"G#6R_Ab6R.wav",40
Sample,136344,0,"A#6R_Bb6R.wav",40
Sample,136344,0,"D#6R_Eb6R.wav",40
Sample,136496,0,"C7R.wav",40
Sample,136496,0,"G#5R_Ab5R.wav",40
Sample,136647,0,"A#6R_Bb6R.wav",40
Sample,136647,0,"F5R.wav",40
Sample,136950,0,"C#5R_Db5R.wav",40
Sample,137253,0,"C6R.wav",40
Sample,137253,0,"G#5R_Ab5R.wav",40
Sample,137253,0,"F5R.wav",40
Sample,137405,0,"G#6R_Ab6R.wav",40
Sample,137556,0,"D#6R_Eb6R.wav",40
Sample,137556,0,"A#6R_Bb6R.wav",40
Sample,137708,0,"G#5R_Ab5R.wav",40
Sample,137708,0,"C7R.wav",40
Sample,137859,0,"F5R.wav",40
Sample,137859,0,"A#6R_Bb6R.wav",40
Sample,138162,0,"C#5R_Db5R.wav",40
Sample,138465,0,"F5R.wav",40
Sample,138465,0,"G#5R_Ab5R.wav",40
Sample,138465,0,"C6R.wav",40
Sample,138617,0,"G#6R_Ab6R.wav",40
Sample,138768,0,"A#6R_Bb6R.wav",40
Sample,138768,0,"D#6R_Eb6R.wav",40
Sample,138920,0,"C7R.wav",40
Sample,138920,0,"G#5R_Ab5R.wav",40
Sample,139071,0,"A#6R_Bb6R.wav",40
Sample,139071,0,"F5R.wav",40
Sample,139678,0,"F5R.wav",40
Sample,139678,0,"G#5R_Ab5R.wav",40
Sample,139678,0,"C6R.wav",40
Sample,139829,0,"G#6R_Ab6R.wav",40
Sample,139981,0,"A#6R_Bb6R.wav",40
Sample,139981,0,"D#6R_Eb6R.wav",40
Sample,140132,0,"C7R.wav",40
Sample,140132,0,"G#5R_Ab5R.wav",40
Sample,140284,0,"A#6R_Bb6R.wav",40
Sample,140284,0,"F5R.wav",40
Sample,140587,0,"C5R.wav",40
Sample,140890,0,"A#5R_Bb5R.wav",40
Sample,140890,0,"G5R.wav",40
Sample,141193,0,"D#6R_Eb6R.wav",40
Sample,141344,0,"G#5R_Ab5R.wav",40
Sample,141496,0,"G5R.wav",40
Sample,141647,0,"D#5R_Eb5R.wav",40
Sample,141799,0,"C5R.wav",40
Sample,142102,0,"G5R.wav",40
Sample,142102,0,"A#5R_Bb5R.wav",40
Sample,142405,0,"D#6R_Eb6R.wav",40
Sample,142556,0,"G#5R_Ab5R.wav",40
Sample,142708,0,"G5R.wav",40
Sample,142859,0,"D#5R_Eb5R.wav",40
Sample,143011,0,"C5R.wav",40
Sample,143314,0,"A#5R_Bb5R.wav",40
Sample,143314,0,"G5R.wav",40
Sample,143617,0,"D#6R_Eb6R.wav",40
Sample,143768,0,"G#5R_Ab5R.wav",40
Sample,143920,0,"G5R.wav",40
Sample,144071,0,"D#5R_Eb5R.wav",40
Sample,144526,0,"A#5R_Bb5R.wav",40
Sample,144526,0,"G5R.wav",40
Sample,144829,0,"D#6R_Eb6R.wav",40
Sample,144981,0,"G#5R_Ab5R.wav",40
Sample,145435,0,"C#5R_Db5R.wav",40
Sample,145738,0,"F5R.wav",40
Sample,145738,0,"G#5R_Ab5R.wav",40
Sample,145738,0,"C6R.wav",40
Sample,145890,0,"G#6R_Ab6R.wav",40
Sample,146041,0,"A#6R_Bb6R.wav",40
Sample,146041,0,"D#6R_Eb6R.wav",40
Sample,146193,0,"C7R.wav",40
Sample,146193,0,"G#5R_Ab5R.wav",40
Sample,146344,0,"A#6R_Bb6R.wav",40
Sample,146344,0,"F5R.wav",40
Sample,146647,0,"C#5R_Db5R.wav",40
Sample,146950,0,"C6R.wav",40
Sample,146950,0,"G#5R_Ab5R.wav",40
Sample,146950,0,"F5R.wav",40
Sample,147102,0,"G#6R_Ab6R.wav",40
Sample,147253,0,"D#6R_Eb6R.wav",40
Sample,147253,0,"A#6R_Bb6R.wav",40
Sample,147405,0,"G#5R_Ab5R.wav",40
Sample,147405,0,"C7R.wav",40
Sample,147556,0,"F5R.wav",40
Sample,147556,0,"A#6R_Bb6R.wav",40
Sample,147859,0,"C#5R_Db5R.wav",40
Sample,148162,0,"F5R.wav",40
Sample,148162,0,"G#5R_Ab5R.wav",40
Sample,148162,0,"C6R.wav",40
Sample,148314,0,"G#6R_Ab6R.wav",40
Sample,148465,0,"D#6R_Eb6R.wav",40
Sample,148465,0,"A#6R_Bb6R.wav",40
Sample,148617,0,"C7R.wav",40
Sample,148617,0,"G#5R_Ab5R.wav",40
Sample,148768,0,"A#6R_Bb6R.wav",40
Sample,148768,0,"F5R.wav",40
Sample,149375,0,"G#5R_Ab5R.wav",40
Sample,149375,0,"F5R.wav",40
Sample,149375,0,"C6R.wav",40
Sample,149526,0,"G#6R_Ab6R.wav",40
Sample,149678,0,"A#6R_Bb6R.wav",40
Sample,149678,0,"D#6R_Eb6R.wav",40
Sample,149829,0,"G#5R_Ab5R.wav",40
Sample,149829,0,"C7R.wav",40
Sample,149981,0,"A#6R_Bb6R.wav",40
Sample,149981,0,"F5R.wav",40
Sample,150284,0,"D#5R_Eb5R.wav",40
Sample,150587,0,"A#5R_Bb5R.wav",40
Sample,150587,0,"G5R.wav",40
Sample,150890,0,"D#6R_Eb6R.wav",40
Sample,151041,0,"G#5R_Ab5R.wav",40
Sample,151193,0,"G5R.wav",40
Sample,151344,0,"F5R.wav",40
Sample,151496,0,"D#5R_Eb5R.wav",40
Sample,151799,0,"A#5R_Bb5R.wav",40
Sample,151799,0,"G5R.wav",40
Sample,152102,0,"D#6R_Eb6R.wav",40
Sample,152253,0,"G#5R_Ab5R.wav",40
Sample,152405,0,"G5R.wav",40
Sample,152556,0,"F5R.wav",40
Sample,152708,0,"D#5R_Eb5R.wav",40
Sample,153011,0,"A#5R_Bb5R.wav",40
Sample,153617,0,"G5R.wav",40
Sample,154223,0,"G5R.wav",40
Sample,154223,0,"A#5R_Bb5R.wav",40
Sample,155132,0,"C#5R_Db5R.wav",40
Sample,155435,0,"C6R.wav",40
Sample,155435,0,"G#5R_Ab5R.wav",40
Sample,155435,0,"F5R.wav",40
Sample,155587,0,"G#6R_Ab6R.wav",40
Sample,155738,0,"D#6R_Eb6R.wav",40
Sample,155738,0,"A#6R_Bb6R.wav",40
Sample,155890,0,"C7R.wav",40
Sample,155890,0,"G#5R_Ab5R.wav",40
Sample,156041,0,"F5R.wav",40
Sample,156041,0,"A#6R_Bb6R.wav",40
Sample,156344,0,"C#5R_Db5R.wav",40
Sample,156647,0,"C6R.wav",40
Sample,156647,0,"G#5R_Ab5R.wav",40
Sample,156647,0,"F5R.wav",40
Sample,156799,0,"G#6R_Ab6R.wav",40
Sample,156950,0,"A#6R_Bb6R.wav",40
Sample,156950,0,"D#6R_Eb6R.wav",40
Sample,157102,0,"G#5R_Ab5R.wav",40
Sample,157102,0,"C7R.wav",40
Sample,157253,0,"A#6R_Bb6R.wav",40
Sample,157253,0,"F5R.wav",40
Sample,157556,0,"C#5R_Db5R.wav",40
Sample,157859,0,"C6R.wav",40
Sample,157859,0,"G#5R_Ab5R.wav",40
Sample,157859,0,"F5R.wav",40
Sample,158011,0,"G#6R_Ab6R.wav",40
Sample,158162,0,"A#6R_Bb6R.wav",40
Sample,158162,0,"D#6R_Eb6R.wav",40
Sample,158314,0,"C7R.wav",40
Sample,158314,0,"G#5R_Ab5R.wav",40
Sample,158465,0,"F5R.wav",40
Sample,158465,0,"A#6R_Bb6R.wav",40
Sample,159071,0,"F5R.wav",40
Sample,159071,0,"G#5R_Ab5R.wav",40
Sample,159071,0,"C6R.wav",40
Sample,159223,0,"G#6R_Ab6R.wav",40
Sample,159375,0,"A#6R_Bb6R.wav",40
Sample,159375,0,"D#6R_Eb6R.wav",40
Sample,159526,0,"G#5R_Ab5R.wav",40
Sample,159526,0,"C7R.wav",40
Sample,159678,0,"A#6R_Bb6R.wav",40
Sample,159678,0,"F5R.wav",40
Sample,159981,0,"C5R.wav",40
Sample,160284,0,"G5R.wav",40
Sample,160284,0,"A#5R_Bb5R.wav",40
Sample,160587,0,"D#6R_Eb6R.wav",40
Sample,160738,0,"G#5R_Ab5R.wav",40
Sample,160890,0,"G5R.wav",40
Sample,161041,0,"D#5R_Eb5R.wav",40
Sample,161193,0,"C5R.wav",40
Sample,161496,0,"A#5R_Bb5R.wav",40
Sample,161496,0,"G5R.wav",40
Sample,161799,0,"D#6R_Eb6R.wav",40
Sample,161950,0,"G#5R_Ab5R.wav",40
Sample,162102,0,"G5R.wav",40
Sample,162253,0,"D#5R_Eb5R.wav",40
Sample,162405,0,"C5R.wav",40
Sample,162708,0,"G5R.wav",40
Sample,162708,0,"A#5R_Bb5R.wav",40
Sample,163011,0,"D#6R_Eb6R.wav",40
Sample,163162,0,"G#5R_Ab5R.wav",40
Sample,163314,0,"G5R.wav",40
Sample,163465,0,"D#5R_Eb5R.wav",40
Sample,163920,0,"G5R.wav",40
Sample,163920,0,"A#5R_Bb5R.wav",40
Sample,164223,0,"D#6R_Eb6R.wav",40
Sample,164374,0,"G#5R_Ab5R.wav",40
Sample,164829,0,"C#5R_Db5R.wav",40
Sample,165132,0,"G#5R_Ab5R.wav",40
Sample,165132,0,"F5R.wav",40
Sample,165132,0,"C6R.wav",40
Sample,165284,0,"G#6R_Ab6R.wav",40
Sample,165435,0,"A#6R_Bb6R.wav",40
Sample,165435,0,"D#6R_Eb6R.wav",40
Sample,165587,0,"G#5R_Ab5R.wav",40
Sample,165587,0,"C7R.wav",40
Sample,165738,0,"F5R.wav",40
Sample,165738,0,"A#6R_Bb6R.wav",40
Sample,166041,0,"C#5R_Db5R.wav",40
Sample,166344,0,"F5R.wav",40
Sample,166344,0,"C6R.wav",40
Sample,166344,0,"G#5R_Ab5R.wav",40
Sample,166496,0,"G#6R_Ab6R.wav",40
Sample,166647,0,"D#6R_Eb6R.wav",40
Sample,166647,0,"A#6R_Bb6R.wav",40
Sample,166799,0,"G#5R_Ab5R.wav",40
Sample,166799,0,"C7R.wav",40
Sample,166950,0,"A#6R_Bb6R.wav",40
Sample,166950,0,"F5R.wav",40
Sample,167253,0,"C#5R_Db5R.wav",40
Sample,167556,0,"F5R.wav",40
Sample,167556,0,"G#5R_Ab5R.wav",40
Sample,167556,0,"C6R.wav",40
Sample,167708,0,"G#6R_Ab6R.wav",40
Sample,167859,0,"D#6R_Eb6R.wav",40
Sample,167859,0,"A#6R_Bb6R.wav",40
Sample,168011,0,"G#5R_Ab5R.wav",40
Sample,168011,0,"C7R.wav",40
Sample,168162,0,"A#6R_Bb6R.wav",40
Sample,168162,0,"F5R.wav",40
Sample,168768,0,"G#5R_Ab5R.wav",40
Sample,168768,0,"F5R.wav",40
Sample,168768,0,"C6R.wav",40
Sample,168920,0,"G#6R_Ab6R.wav",40
Sample,169071,0,"A#6R_Bb6R.wav",40
Sample,169071,0,"D#6R_Eb6R.wav",40
Sample,169223,0,"C7R.wav",40
Sample,169223,0,"G#5R_Ab5R.wav",40
Sample,169374,0,"F5R.wav",40
Sample,169374,0,"A#6R_Bb6R.wav",40
Sample,169678,0,"D#5R_Eb5R.wav",40
Sample,169981,0,"G5R.wav",40
Sample,169981,0,"A#5R_Bb5R.wav",40
Sample,170284,0,"D#6R_Eb6R.wav",40
Sample,170435,0,"G#5R_Ab5R.wav",40
Sample,170587,0,"G5R.wav",40
Sample,170738,0,"F5R.wav",40
Sample,170890,0,"D#5R_Eb5R.wav",40
Sample,171193,0,"G5R.wav",40
Sample,171193,0,"A#5R_Bb5R.wav",40
Sample,171496,0,"D#6R_Eb6R.wav",40
Sample,171647,0,"G#5R_Ab5R.wav",40
Sample,171799,0,"G5R.wav",40
Sample,171950,0,"F5R.wav",40
Sample,172102,0,"D#5R_Eb5R.wav",40
Sample,172405,0,"A#5R_Bb5R.wav",40
Sample,173011,0,"G5R.wav",40
Sample,173617,0,"G5R.wav",40
Sample,173617,0,"A#5R_Bb5R.wav",40
Sample,174981,0,"G#6R_Ab6R.wav",40
Sample,175132,0,"D#6R_Eb6R.wav",40
Sample,175132,0,"F5R.wav",15
Sample,175132,0,"C6R.wav",40
Sample,175284,0,"C7R.wav",40
Sample,175435,0,"A#6R_Bb6R.wav",40
Sample,176193,0,"G#6R_Ab6R.wav",40
Sample,176496,0,"C7R.wav",40
Sample,176647,0,"A#6R_Bb6R.wav",40
Sample,177405,0,"G#6R_Ab6R.wav",40
Sample,177556,0,"F5R.wav",15
Sample,177556,0,"D#6R_Eb6R.wav",40
Sample,177556,0,"C6R.wav",40
Sample,177708,0,"C7R.wav",40
Sample,177859,0,"A#6R_Bb6R.wav",40
Sample,178617,0,"G#6R_Ab6R.wav",40
Sample,178920,0,"C7R.wav",40
Sample,179071,0,"A#6R_Bb6R.wav",40
Sample,179981,0,"A#5R_Bb5R.wav",40
Sample,179981,0,"G5R.wav",40
Sample,179981,0,"D#5R_Eb5R.wav",40
Sample,182405,0,"A#5R_Bb5R.wav",40
Sample,182405,0,"G5R.wav",40
Sample,182405,0,"D#5R_Eb5R.wav",40
Sample,184678,0,"G#6R_Ab6R.wav",40
Sample,184829,0,"F5R.wav",15
Sample,184829,0,"D#6R_Eb6R.wav",40
Sample,184829,0,"C6R.wav",40
Sample,184981,0,"C7R.wav",40
Sample,185132,0,"A#6R_Bb6R.wav",40
Sample,185890,0,"G#6R_Ab6R.wav",40
Sample,186193,0,"C7R.wav",40
Sample,186344,0,"A#6R_Bb6R.wav",40
Sample,187102,0,"G#6R_Ab6R.wav",40
Sample,187253,0,"D#6R_Eb6R.wav",40
Sample,187253,0,"F5R.wav",15
Sample,187253,0,"C6R.wav",40
Sample,187405,0,"C7R.wav",40
Sample,187556,0,"A#6R_Bb6R.wav",40
Sample,188314,0,"G#6R_Ab6R.wav",40
Sample,188617,0,"C7R.wav",40
Sample,188768,0,"A#6R_Bb6R.wav",40
Sample,189678,0,"A#5R_Bb5R.wav",40
Sample,189678,0,"D#5R_Eb5R.wav",40
Sample,189678,0,"G5R.wav",40
Sample,192102,0,"G5R.wav",40
Sample,192102,0,"D#5R_Eb5R.wav",40
Sample,192102,0,"A#5R_Bb5R.wav",40
Sample,194526,0,"F5R.wav",15
Sample,196950,0,"F5R.wav",15
Sample,199374,0,"A#5R_Bb5R.wav",40
Sample,201799,0,"A#5R_Bb5R.wav",40
Sample,204223,0,"F5R.wav",15
Sample,206647,0,"F5R.wav",15
Sample,209071,0,"A#5R_Bb5R.wav",40
Sample,211496,0,"A#5R_Bb5R.wav",40

[TimingPoints]
19375,606.060606060606,4,1,1,70,1,0
135738,-100,4,1,1,70,0,1
174526,-100,4,1,1,70,0,0

[HitObjects]
312,192,19374,5,0,0:0:0:40:C#4R_Db4R.wav
369,192,19981,1,0,0:0:0:40:C6R.wav
483,192,19981,1,0,0:0:0:40:D#6R_Eb6R.wav
256,192,21799,1,0,0:0:0:40:A#3R_Bb3R.wav
369,192,22405,1,0,0:0:0:40:C6R.wav
483,192,22405,1,0,0:0:0:40:D#6R_Eb6R.wav
199,192,24223,1,0,0:0:0:40:G#3R_Ab3R.wav
256,192,24829,1,0,0:0:0:40:D#5R_Eb5R.wav
312,192,24829,1,0,0:0:0:40:G5R.wav
142,192,26647,1,0,0:0:0:40:F3R.wav
256,192,27253,1,0,0:0:0:40:D#5R_Eb5R.wav
312,192,27253,1,0,0:0:0:40:G5R.wav
199,192,29071,1,0,0:0:0:40:F7R.wav
312,192,29071,1,0,0:0:0:40:C#4R_Db4R.wav
369,192,29678,1,0,0:0:0:40:C6R.wav
483,192,29678,1,0,0:0:0:40:D#6R_Eb6R.wav
426,192,30587,1,0,0:0:0:40:C8R.wav
369,192,30890,1,0,0:0:0:40:A#7R_Bb7R.wav
256,192,31496,1,0,0:0:0:40:A#3R_Bb3R.wav
369,192,32102,1,0,0:0:0:40:C6R.wav
483,192,32102,1,0,0:0:0:40:D#6R_Eb6R.wav
28,192,33011,1,0,0:0:0:40:C7R.wav
85,192,33314,1,0,0:0:0:40:D#7R_Eb7R.wav
199,192,33920,1,0,0:0:0:40:G#3R_Ab3R.wav
256,192,34526,1,0,0:0:0:40:D#5R_Eb5R.wav
312,192,34526,1,0,0:0:0:40:G5R.wav
426,192,35435,1,0,0:0:0:40:C8R.wav
369,192,35738,1,0,0:0:0:40:A#7R_Bb7R.wav
142,192,36344,1,0,0:0:0:40:F3R.wav
256,192,36950,1,0,0:0:0:40:D#5R_Eb5R.wav
312,192,36950,1,0,0:0:0:40:G5R.wav
199,192,37556,1,0,0:0:0:40:G7R.wav
312,192,37859,1,0,0:0:0:40:G#7R_Ab7R.wav
369,192,38162,1,0,0:0:0:40:A#7R_Bb7R.wav
483,192,38465,1,0,0:0:0:40:D#8R_Eb8R.wav
142,192,38768,1,0,0:0:0:40:D#7R_Eb7R.wav
312,192,38768,1,0,0:0:0:40:C#4R_Db4R.wav
369,192,39374,1,0,0:0:0:40:C6R.wav
483,192,39374,1,0,0:0:0:40:D#6R_Eb6R.wav
426,192,40284,1,0,0:0:0:40:C8R.wav
369,192,40587,1,0,0:0:0:40:A#7R_Bb7R.wav
256,192,41193,1,0,0:0:0:40:A#3R_Bb3R.wav
369,192,41799,1,0,0:0:0:40:C6R.wav
483,192,41799,1,0,0:0:0:40:D#6R_Eb6R.wav
28,192,42708,1,0,0:0:0:40:C7R.wav
85,192,43011,1,0,0:0:0:40:D#7R_Eb7R.wav
199,192,43617,1,0,0:0:0:40:G#3R_Ab3R.wav
256,192,44223,1,0,0:0:0:40:D#5R_Eb5R.wav
312,192,44223,1,0,0:0:0:40:G5R.wav
426,192,45132,1,0,0:0:0:40:C8R.wav
369,192,45435,1,0,0:0:0:40:A#7R_Bb7R.wav
142,192,46041,1,0,0:0:0:40:F3R.wav
256,192,46647,1,0,0:0:0:40:D#5R_Eb5R.wav
312,192,46647,1,0,0:0:0:40:G5R.wav
199,192,47253,1,0,0:0:0:40:F7R.wav
256,192,47556,1,0,0:0:0:40:G7R.wav
312,192,47859,1,0,0:0:0:40:G#7R_Ab7R.wav
369,192,48162,1,0,0:0:0:40:A#7R_Bb7R.wav
199,192,48465,1,0,0:0:0:40:F7R.wav
312,192,48465,1,0,0:0:0:40:C#4R_Db4R.wav
369,192,49071,1,0,0:0:0:40:C6R.wav
483,192,49071,1,0,0:0:0:40:D#6R_Eb6R.wav
426,192,49981,1,0,0:0:0:40:C8R.wav
369,192,50284,1,0,0:0:0:40:A#7R_Bb7R.wav
256,192,50890,1,0,0:0:0:40:A#3R_Bb3R.wav
369,192,51496,1,0,0:0:0:40:C6R.wav
483,192,51496,1,0,0:0:0:40:D#6R_Eb6R.wav
28,192,52405,1,0,0:0:0:40:C7R.wav
85,192,52708,1,0,0:0:0:40:D#7R_Eb7R.wav
199,192,53314,1,0,0:0:0:40:G#3R_Ab3R.wav
256,192,53920,1,0,0:0:0:40:D#5R_Eb5R.wav
312,192,53920,1,0,0:0:0:40:G5R.wav
426,192,54829,1,0,0:0:0:40:C8R.wav
369,192,55132,1,0,0:0:0:40:A#7R_Bb7R.wav
142,192,55738,1,0,0:0:0:40:F3R.wav
256,192,56344,1,0,0:0:0:40:D#5R_Eb5R.wav
312,192,56344,1,0,0:0:0:40:G5R.wav
199,192,56950,1,0,0:0:0:40:G7R.wav
312,192,57253,1,0,0:0:0:40:G#7R_Ab7R.wav
369,192,57556,1,0,0:0:0:40:A#7R_Bb7R.wav
483,192,57859,1,0,0:0:0:40:D#8R_Eb8R.wav
312,192,58162,1,2,0:0:0:0:
369,192,58162,1,0,0:0:0:40:D#7R_Eb7R.wav
256,192,58314,1,0,0:0:0:40:G#5R_Ab5R.wav
199,192,58465,1,0,0:0:0:40:F5R.wav
142,192,58617,1,0,0:0:0:40:C#5R_Db5R.wav
426,192,58768,1,0,0:0:0:40:D#6R_Eb6R.wav
256,192,58920,1,0,0:0:0:40:G#5R_Ab5R.wav
199,192,59071,1,0,0:0:0:40:F5R.wav
142,192,59223,1,0,0:0:0:40:C#5R_Db5R.wav
28,192,59374,1,8,0:0:0:0:
369,192,59374,1,0,0:0:0:40:C6R.wav
256,192,59526,1,0,0:0:0:40:G#5R_Ab5R.wav
199,192,59678,1,0,0:0:0:40:C8R.wav
142,192,59829,1,0,0:0:0:40:C#5R_Db5R.wav
426,192,59981,1,0,0:0:0:40:A#7R_Bb7R.wav
256,192,60132,1,0,0:0:0:40:G#5R_Ab5R.wav
199,192,60284,1,0,0:0:0:40:F5R.wav
142,192,60435,1,0,0:0:0:40:C#5R_Db5R.wav
312,192,60587,1,2,0:0:0:0:
369,192,60587,1,0,0:0:0:40:C6R.wav
256,192,60738,1,0,0:0:0:40:G#5R_Ab5R.wav
199,192,60890,1,0,0:0:0:40:F5R.wav
142,192,61041,1,0,0:0:0:40:C#5R_Db5R.wav
426,192,61193,1,0,0:0:0:40:D#6R_Eb6R.wav
256,192,61344,1,0,0:0:0:40:G#5R_Ab5R.wav
199,192,61496,1,0,0:0:0:40:F5R.wav
142,192,61647,1,2,0:0:0:0:
312,192,61647,1,0,0:0:0:40:C#5R_Db5R.wav
28,192,61799,1,8,0:0:0:0:
369,192,61799,1,0,0:0:0:40:C6R.wav
256,192,61950,1,0,0:0:0:40:G#5R_Ab5R.wav
199,192,62102,1,0,0:0:0:40:C7R.wav
142,192,62253,1,0,0:0:0:40:C#5R_Db5R.wav
426,192,62405,1,0,0:0:0:40:D#7R_Eb7R.wav
256,192,62556,1,0,0:0:0:40:G#5R_Ab5R.wav
199,192,62708,1,0,0:0:0:40:F5R.wav
142,192,62859,1,0,0:0:0:40:C#5R_Db5R.wav
312,192,63011,1,2,0:0:0:0:
369,192,63011,1,0,0:0:0:40:A#5R_Bb5R.wav
256,192,63162,1,0,0:0:0:40:G5R.wav
142,192,63314,1,0,0:0:0:40:D#5R_Eb5R.wav
28,192,63465,1,0,0:0:0:40:C5R.wav
426,192,63617,1,0,0:0:0:40:D#6R_Eb6R.wav
256,192,63768,1,0,0:0:0:40:G5R.wav
142,192,63920,1,0,0:0:0:40:D#5R_Eb5R.wav
28,192,64071,1,0,0:0:0:40:C5R.wav
369,192,64223,1,8,0:0:0:0:
483,192,64223,1,0,0:0:0:70:A#5R_Bb5R.wav
256,192,64374,1,0,0:0:0:40:G5R.wav
142,192,64526,1,0,0:0:0:40:C8R.wav
28,192,64678,1,0,0:0:0:40:C5R.wav
426,192,64829,1,0,0:0:0:40:A#7R_Bb7R.wav
256,192,64981,1,0,0:0:0:40:G5R.wav
142,192,65132,1,0,0:0:0:40:D#5R_Eb5R.wav
28,192,65284,1,0,0:0:0:40:C5R.wav
312,192,65435,1,2,0:0:0:0:
369,192,65435,1,0,0:0:0:70:A#5R_Bb5R.wav
256,192,65587,1,0,0:0:0:40:G5R.wav
142,192,65738,1,0,0:0:0:40:D#5R_Eb5R.wav
28,192,65890,1,0,0:0:0:40:C5R.wav
426,192,66041,1,0,0:0:0:40:D#6R_Eb6R.wav
256,192,66193,1,0,0:0:0:40:G5R.wav
142,192,66344,1,0,0:0:0:40:D#5R_Eb5R.wav
28,192,66496,1,0,0:0:0:40:C5R.wav
369,192,66647,1,8,0:0:0:0:
483,192,66647,1,0,0:0:0:40:F7R.wav
256,192,66799,1,0,0:0:0:40:G5R.wav
142,192,66950,1,0,0:0:0:40:G7R.wav
28,192,67102,1,0,0:0:0:40:C5R.wav
426,192,67253,1,0,0:0:0:40:G#7R_Ab7R.wav
256,192,67405,1,0,0:0:0:40:G5R.wav
142,192,67556,1,0,0:0:0:40:A#7R_Bb7R.wav
28,192,67708,1,0,0:0:0:40:C5R.wav
312,192,67859,1,2,0:0:0:0:
369,192,67859,1,0,0:0:0:40:F7R.wav
256,192,68011,1,0,0:0:0:40:G#5R_Ab5R.wav
199,192,68162,1,0,0:0:0:40:F5R.wav
142,192,68314,1,0,0:0:0:40:C#5R_Db5R.wav
426,192,68465,1,0,0:0:0:40:D#6R_Eb6R.wav
256,192,68617,1,0,0:0:0:40:G#5R_Ab5R.wav
199,192,68768,1,0,0:0:0:40:F5R.wav
142,192,68920,1,0,0:0:0:40:C#5R_Db5R.wav
28,192,69071,1,8,0:0:0:0:
369,192,69071,1,0,0:0:0:40:C6R.wav
256,192,69223,1,0,0:0:0:40:G#5R_Ab5R.wav
199,192,69375,1,0,0:0:0:40:C8R.wav
142,192,69526,1,0,0:0:0:40:C#5R_Db5R.wav
426,192,69678,1,0,0:0:0:40:A#7R_Bb7R.wav
256,192,69829,1,0,0:0:0:40:G#5R_Ab5R.wav
199,192,69981,1,0,0:0:0:40:F5R.wav
142,192,70132,1,0,0:0:0:40:C#5R_Db5R.wav
312,192,70284,1,2,0:0:0:0:
369,192,70284,1,0,0:0:0:40:C6R.wav
256,192,70435,1,0,0:0:0:40:G#5R_Ab5R.wav
199,192,70587,1,0,0:0:0:40:F5R.wav
142,192,70738,1,0,0:0:0:40:C#5R_Db5R.wav
426,192,70890,1,0,0:0:0:40:D#6R_Eb6R.wav
256,192,71041,1,0,0:0:0:40:G#5R_Ab5R.wav
199,192,71193,1,0,0:0:0:40:F5R.wav
142,192,71344,1,2,0:0:0:0:
312,192,71344,1,0,0:0:0:40:C#5R_Db5R.wav
28,192,71496,1,8,0:0:0:0:
369,192,71496,1,0,0:0:0:40:C6R.wav
256,192,71647,1,0,0:0:0:40:G#5R_Ab5R.wav
199,192,71799,1,0,0:0:0:40:C7R.wav
142,192,71950,1,0,0:0:0:40:C#5R_Db5R.wav
426,192,72102,1,0,0:0:0:40:D#7R_Eb7R.wav
256,192,72253,1,0,0:0:0:40:G#5R_Ab5R.wav
199,192,72405,1,0,0:0:0:40:F5R.wav
142,192,72556,1,0,0:0:0:40:C#5R_Db5R.wav
312,192,72708,1,2,0:0:0:0:
369,192,72708,1,0,0:0:0:40:A#5R_Bb5R.wav
256,192,72859,1,0,0:0:0:40:G5R.wav
142,192,73011,1,0,0:0:0:40:D#5R_Eb5R.wav
28,192,73162,1,0,0:0:0:40:C5R.wav
426,192,73314,1,0,0:0:0:40:D#6R_Eb6R.wav
256,192,73465,1,0,0:0:0:40:G5R.wav
142,192,73617,1,0,0:0:0:40:D#5R_Eb5R.wav
28,192,73768,1,0,0:0:0:40:C5R.wav
369,192,73920,1,8,0:0:0:0:
483,192,73920,1,0,0:0:0:70:A#5R_Bb5R.wav
256,192,74071,1,0,0:0:0:40:G5R.wav
142,192,74223,1,0,0:0:0:40:C8R.wav
28,192,74375,1,0,0:0:0:40:C5R.wav
426,192,74526,1,0,0:0:0:40:A#7R_Bb7R.wav
256,192,74678,1,0,0:0:0:40:G5R.wav
142,192,74829,1,0,0:0:0:40:D#5R_Eb5R.wav
28,192,74981,1,0,0:0:0:40:C5R.wav
312,192,75132,1,2,0:0:0:0:
369,192,75132,1,0,0:0:0:70:A#5R_Bb5R.wav
256,192,75284,1,0,0:0:0:40:G5R.wav
142,192,75435,1,0,0:0:0:40:D#5R_Eb5R.wav
28,192,75587,1,0,0:0:0:40:C5R.wav
426,192,75738,1,0,0:0:0:40:D#6R_Eb6R.wav
256,192,75890,1,0,0:0:0:40:G5R.wav
142,192,76041,1,0,0:0:0:40:D#5R_Eb5R.wav
28,192,76193,1,0,0:0:0:40:C5R.wav
369,192,76344,1,8,0:0:0:0:
483,192,76344,1,0,0:0:0:40:G7R.wav
256,192,76496,1,0,0:0:0:40:G5R.wav
142,192,76647,1,0,0:0:0:40:G#7R_Ab7R.wav
28,192,76799,1,0,0:0:0:40:C5R.wav
426,192,76950,1,0,0:0:0:40:A#7R_Bb7R.wav
483,192,76950,128,0,77556:0:0:0:40:D#6R_Eb6R.wav
256,192,77102,1,0,0:0:0:40:G5R.wav
142,192,77253,1,0,0:0:0:40:D#8R_Eb8R.wav
28,192,77405,1,0,0:0:0:40:C5R.wav
142,192,77556,1,2,0:0:0:0:
199,192,77556,1,0,0:0:0:40:D#7R_Eb7R.wav
256,192,77708,1,0,0:0:0:40:G#5R_Ab5R.wav
312,192,77859,1,0,0:0:0:40:F5R.wav
369,192,78011,1,0,0:0:0:40:C#5R_Db5R.wav
85,192,78162,1,0,0:0:0:40:D#6R_Eb6R.wav
256,192,78314,1,0,0:0:0:40:G#5R_Ab5R.wav
312,192,78465,1,0,0:0:0:40:F5R.wav
369,192,78617,1,0,0:0:0:40:C#5R_Db5R.wav
142,192,78768,1,8,0:0:0:0:
483,192,78768,1,0,0:0:0:40:C6R.wav
256,192,78920,1,0,0:0:0:40:G#5R_Ab5R.wav
312,192,79071,1,0,0:0:0:40:C8R.wav
369,192,79223,1,0,0:0:0:40:C#5R_Db5R.wav
85,192,79375,1,0,0:0:0:40:A#7R_Bb7R.wav
256,192,79526,1,0,0:0:0:40:G#5R_Ab5R.wav
312,192,79678,1,0,0:0:0:40:F5R.wav
369,192,79829,1,0,0:0:0:40:C#5R_Db5R.wav
142,192,79981,1,2,0:0:0:0:
199,192,79981,1,0,0:0:0:40:C6R.wav
256,192,80132,1,0,0:0:0:40:G#5R_Ab5R.wav
312,192,80284,1,0,0:0:0:40:F5R.wav
369,192,80435,1,0,0:0:0:40:C#5R_Db5R.wav
85,192,80587,1,0,0:0:0:40:D#6R_Eb6R.wav
256,192,80738,1,0,0:0:0:40:G#5R_Ab5R.wav
312,192,80890,1,0,0:0:0:40:F5R.wav
199,192,81041,1,2,0:0:0:0:
369,192,81041,1,0,0:0:0:40:C#5R_Db5R.wav
142,192,81193,1,8,0:0:0:0:
483,192,81193,1,0,0:0:0:40:C6R.wav
256,192,81344,1,0,0:0:0:40:G#5R_Ab5R.wav
312,192,81496,1,0,0:0:0:40:C7R.wav
369,192,81647,1,0,0:0:0:40:C#5R_Db5R.wav
85,192,81799,1,0,0:0:0:40:D#7R_Eb7R.wav
256,192,81950,1,0,0:0:0:40:G#5R_Ab5R.wav
312,192,82102,1,0,0:0:0:40:F5R.wav
369,192,82253,1,0,0:0:0:40:C#5R_Db5R.wav
142,192,82405,1,2,0:0:0:0:
199,192,82405,1,0,0:0:0:40:A#5R_Bb5R.wav
256,192,82556,1,0,0:0:0:40:G5R.wav
369,192,82708,1,0,0:0:0:40:D#5R_Eb5R.wav
483,192,82859,1,0,0:0:0:40:C5R.wav
85,192,83011,1,0,0:0:0:40:D#6R_Eb6R.wav
256,192,83162,1,0,0:0:0:40:G5R.wav
369,192,83314,1,0,0:0:0:40:D#5R_Eb5R.wav
483,192,83465,1,0,0:0:0:40:C5R.wav
28,192,83617,1,8,0:0:0:0:
142,192,83617,1,0,0:0:0:70:A#5R_Bb5R.wav
256,192,83768,1,0,0:0:0:40:G5R.wav
369,192,83920,1,0,0:0:0:40:C8R.wav
483,192,84071,1,0,0:0:0:40:C5R.wav
85,192,84223,1,0,0:0:0:40:A#7R_Bb7R.wav
256,192,84374,1,0,0:0:0:40:G5R.wav
369,192,84526,1,0,0:0:0:40:D#5R_Eb5R.wav
483,192,84678,1,0,0:0:0:40:C5R.wav
142,192,84829,1,2,0:0:0:0:
199,192,84829,1,0,0:0:0:70:A#5R_Bb5R.wav
256,192,84981,1,0,0:0:0:40:G5R.wav
369,192,85132,1,0,0:0:0:40:D#5R_Eb5R.wav
483,192,85284,1,0,0:0:0:40:C5R.wav
85,192,85435,1,0,0:0:0:40:D#6R_Eb6R.wav
256,192,85587,1,0,0:0:0:40:G5R.wav
369,192,85738,1,0,0:0:0:40:D#5R_Eb5R.wav
483,192,85890,1,0,0:0:0:40:C5R.wav
28,192,86041,1,8,0:0:0:0:
142,192,86041,1,0,0:0:0:40:F7R.wav
256,192,86193,1,0,0:0:0:40:G5R.wav
369,192,86344,1,0,0:0:0:40:G7R.wav
483,192,86496,1,0,0:0:0:40:C5R.wav
85,192,86647,1,0,0:0:0:40:G#7R_Ab7R.wav
256,192,86799,1,0,0:0:0:40:G5R.wav
369,192,86950,1,0,0:0:0:40:A#7R_Bb7R.wav
483,192,87102,1,0,0:0:0:40:C5R.wav
142,192,87253,1,2,0:0:0:0:
199,192,87253,1,0,0:0:0:40:F7R.wav
256,192,87405,1,0,0:0:0:40:G#5R_Ab5R.wav
312,192,87556,1,0,0:0:0:40:F5R.wav
369,192,87708,1,0,0:0:0:40:C#5R_Db5R.wav
85,192,87859,1,0,0:0:0:40:D#6R_Eb6R.wav
256,192,88011,1,0,0:0:0:40:G#5R_Ab5R.wav
312,192,88162,1,0,0:0:0:40:F5R.wav
369,192,88314,1,0,0:0:0:40:C#5R_Db5R.wav
142,192,88465,1,8,0:0:0:0:
483,192,88465,1,0,0:0:0:40:C6R.wav
256,192,88617,1,0,0:0:0:40:G#5R_Ab5R.wav
312,192,88768,1,0,0:0:0:40:C8R.wav
369,192,88920,1,0,0:0:0:40:C#5R_Db5R.wav
85,192,89071,1,0,0:0:0:40:A#7R_Bb7R.wav
256,192,89223,1,0,0:0:0:40:G#5R_Ab5R.wav
312,192,89374,1,0,0:0:0:40:F5R.wav
369,192,89526,1,0,0:0:0:40:C#5R_Db5R.wav
142,192,89678,1,2,0:0:0:0:
199,192,89678,1,0,0:0:0:40:C6R.wav
256,192,89829,1,0,0:0:0:40:G#5R_Ab5R.wav
312,192,89981,1,0,0:0:0:40:F5R.wav
369,192,90132,1,0,0:0:0:40:C#5R_Db5R.wav
85,192,90284,1,0,0:0:0:40:D#6R_Eb6R.wav
256,192,90435,1,0,0:0:0:40:G#5R_Ab5R.wav
312,192,90587,1,0,0:0:0:40:F5R.wav
199,192,90738,1,2,0:0:0:0:
369,192,90738,1,0,0:0:0:40:C#5R_Db5R.wav
142,192,90890,1,8,0:0:0:0:
483,192,90890,1,0,0:0:0:40:C6R.wav
256,192,91041,1,0,0:0:0:40:G#5R_Ab5R.wav
312,192,91193,1,0,0:0:0:40:C7R.wav
369,192,91344,1,0,0:0:0:40:C#5R_Db5R.wav
85,192,91496,1,0,0:0:0:40:D#7R_Eb7R.wav
256,192,91647,1,0,0:0:0:40:G#5R_Ab5R.wav
312,192,91799,1,0,0:0:0:40:F5R.wav
369,192,91950,1,0,0:0:0:40:C#5R_Db5R.wav
142,192,92102,1,2,0:0:0:0:
199,192,92102,1,0,0:0:0:40:A#5R_Bb5R.wav
256,192,92253,1,0,0:0:0:40:G5R.wav
369,192,92405,1,0,0:0:0:40:D#5R_Eb5R.wav
483,192,92556,1,0,0:0:0:40:C5R.wav
85,192,92708,1,0,0:0:0:40:D#6R_Eb6R.wav
256,192,92859,1,0,0:0:0:40:G5R.wav
369,192,93011,1,0,0:0:0:40:D#5R_Eb5R.wav
483,192,93162,1,0,0:0:0:40:C5R.wav
28,192,93314,1,8,0:0:0:0:
142,192,93314,1,0,0:0:0:70:A#5R_Bb5R.wav
256,192,93465,1,0,0:0:0:40:G5R.wav
369,192,93617,1,0,0:0:0:40:C8R.wav
483,192,93768,1,0,0:0:0:40:C5R.wav
85,192,93920,1,0,0:0:0:40:A#7R_Bb7R.wav
256,192,94071,1,0,0:0:0:40:G5R.wav
369,192,94223,1,0,0:0:0:40:D#5R_Eb5R.wav
483,192,94374,1,0,0:0:0:40:C5R.wav
142,192,94526,1,2,0:0:0:0:
199,192,94526,1,0,0:0:0:70:A#5R_Bb5R.wav
256,192,94678,1,0,0:0:0:40:G5R.wav
369,192,94829,1,0,0:0:0:40:D#5R_Eb5R.wav
483,192,94981,1,0,0:0:0:40:C5R.wav
85,192,95132,1,0,0:0:0:40:D#6R_Eb6R.wav
256,192,95284,1,0,0:0:0:40:G5R.wav
369,192,95435,1,0,0:0:0:40:D#5R_Eb5R.wav
483,192,95587,1,0,0:0:0:40:C5R.wav
28,192,95738,1,8,0:0:0:0:
142,192,95738,1,0,0:0:0:40:G7R.wav
256,192,95890,1,0,0:0:0:40:G5R.wav
369,192,96041,1,0,0:0:0:40:G#7R_Ab7R.wav
483,192,96193,1,0,0:0:0:40:C5R.wav
28,192,96344,128,0,96950:0:0:0:40:D#6R_Eb6R.wav
142,192,96950,1,0,0:0:0:40:C#5R_Db5R.wav
199,192,97253,1,0,0:0:0:40:F5R.wav
256,192,97253,1,0,0:0:0:40:G#5R_Ab5R.wav
483,192,97556,1,0,0:0:0:40:D#6R_Eb6R.wav
369,192,97708,1,0,0:0:0:40:G#5R_Ab5R.wav
312,192,97859,1,0,0:0:0:40:F5R.wav
199,192,98011,1,0,0:0:0:40:D#5R_Eb5R.wav
142,192,98162,1,0,0:0:0:40:C#5R_Db5R.wav
199,192,98465,1,0,0:0:0:40:F5R.wav
256,192,98465,1,0,0:0:0:40:G#5R_Ab5R.wav
483,192,98768,1,0,0:0:0:40:D#6R_Eb6R.wav
369,192,98920,1,0,0:0:0:40:G#5R_Ab5R.wav
312,192,99071,1,0,0:0:0:40:F5R.wav
199,192,99223,1,0,0:0:0:40:D#5R_Eb5R.wav
142,192,99374,1,0,0:0:0:40:C#5R_Db5R.wav
199,192,99678,1,0,0:0:0:40:F5R.wav
256,192,99678,1,0,0:0:0:40:G#5R_Ab5R.wav
483,192,99981,1,0,0:0:0:40:D#6R_Eb6R.wav
369,192,100132,1,0,0:0:0:40:G#5R_Ab5R.wav
312,192,100284,1,0,0:0:0:40:F5R.wav
199,192,100435,1,0,0:0:0:40:D#5R_Eb5R.wav
142,192,100587,1,0,0:0:0:40:C#5R_Db5R.wav
199,192,100890,1,0,0:0:0:40:F5R.wav
256,192,100890,1,0,0:0:0:40:G#5R_Ab5R.wav
483,192,101193,1,0,0:0:0:40:D#6R_Eb6R.wav
369,192,101344,1,0,0:0:0:40:G#5R_Ab5R.wav
312,192,101496,1,0,0:0:0:40:F5R.wav
142,192,101647,1,0,0:0:0:40:C#5R_Db5R.wav
28,192,101799,1,0,0:0:0:40:C5R.wav
142,192,102102,1,0,0:0:0:40:D#5R_Eb5R.wav
199,192,102102,1,0,0:0:0:40:G5R.wav
483,192,102405,1,0,0:0:0:40:D#6R_Eb6R.wav
369,192,102556,1,0,0:0:0:40:G#5R_Ab5R.wav
256,192,102708,1,0,0:0:0:40:G5R.wav
142,192,102859,1,0,0:0:0:40:D#5R_Eb5R.wav
28,192,103011,1,0,0:0:0:40:C5R.wav
142,192,103314,1,0,0:0:0:40:D#5R_Eb5R.wav
199,192,103314,1,0,0:0:0:40:G5R.wav
483,192,103617,1,0,0:0:0:40:D#6R_Eb6R.wav
369,192,103768,1,0,0:0:0:40:G#5R_Ab5R.wav
256,192,103920,1,0,0:0:0:40:G5R.wav
142,192,104071,1,0,0:0:0:40:D#5R_Eb5R.wav
28,192,104223,1,0,0:0:0:40:C5R.wav
142,192,104526,1,0,0:0:0:40:D#5R_Eb5R.wav
199,192,104526,1,0,0:0:0:40:G5R.wav
483,192,104829,1,0,0:0:0:40:D#6R_Eb6R.wav
369,192,104981,1,0,0:0:0:40:G#5R_Ab5R.wav
256,192,105132,1,0,0:0:0:40:G5R.wav
142,192,105284,1,0,0:0:0:40:D#5R_Eb5R.wav
28,192,105435,1,0,0:0:0:40:C5R.wav
142,192,105738,1,0,0:0:0:40:D#5R_Eb5R.wav
199,192,105738,1,0,0:0:0:40:G5R.wav
483,192,106041,1,0,0:0:0:40:D#6R_Eb6R.wav
369,192,106193,1,0,0:0:0:40:G#5R_Ab5R.wav
256,192,106344,1,0,0:0:0:40:G5R.wav
199,192,106496,1,0,0:0:0:40:D#5R_Eb5R.wav
28,192,106647,1,0,0:0:0:40:C#5R_Db5R.wav
142,192,106647,1,0,0:0:0:0:
85,192,106950,1,0,0:0:0:40:F5R.wav
312,192,106950,1,0,0:0:0:40:G#5R_Ab5R.wav
256,192,106950,1,0,0:0:0:40:C6R.wav
28,192,107253,1,0,0:0:0:40:D#6R_Eb6R.wav
483,192,107253,1,0,0:0:0:0:
369,192,107405,1,0,0:0:0:40:G#5R_Ab5R.wav
85,192,107556,1,0,0:0:0:40:F5R.wav
312,192,107556,1,0,0:0:0:0:
199,192,107708,1,0,0:0:0:40:D#5R_Eb5R.wav
142,192,107859,1,0,0:0:0:40:C#5R_Db5R.wav
312,192,108162,1,0,0:0:0:40:F5R.wav
256,192,108162,1,0,0:0:0:40:G#5R_Ab5R.wav
483,192,108465,1,0,0:0:0:40:D#6R_Eb6R.wav
369,192,108617,1,0,0:0:0:40:G#5R_Ab5R.wav
312,192,108768,1,0,0:0:0:40:F5R.wav
199,192,108920,1,0,0:0:0:40:D#5R_Eb5R.wav
28,192,109071,1,0,0:0:0:40:C#5R_Db5R.wav
142,192,109071,1,0,0:0:0:0:
85,192,109374,1,0,0:0:0:40:F5R.wav
312,192,109374,1,0,0:0:0:40:G#5R_Ab5R.wav
256,192,109374,1,0,0:0:0:40:C6R.wav
28,192,109678,1,0,0:0:0:40:D#6R_Eb6R.wav
483,192,109678,1,0,0:0:0:0:
369,192,109829,1,0,0:0:0:40:G#5R_Ab5R.wav
85,192,109981,1,0,0:0:0:40:F5R.wav
312,192,109981,1,0,0:0:0:0:
199,192,110132,1,0,0:0:0:40:D#5R_Eb5R.wav
142,192,110284,1,0,0:0:0:40:C#5R_Db5R.wav
312,192,110587,1,0,0:0:0:40:F5R.wav
256,192,110587,1,0,0:0:0:40:G#5R_Ab5R.wav
483,192,110890,1,0,0:0:0:40:D#6R_Eb6R.wav
369,192,111041,1,0,0:0:0:40:G#5R_Ab5R.wav
312,192,111193,1,0,0:0:0:40:F5R.wav
199,192,111344,1,0,0:0:0:40:C#5R_Db5R.wav
142,192,111496,1,0,0:0:0:40:D#5R_Eb5R.wav
256,192,111496,1,0,0:0:0:0:
85,192,111799,1,0,0:0:0:40:D#5R_Eb5R.wav
312,192,111799,1,0,0:0:0:40:G5R.wav
369,192,111799,1,0,0:0:0:40:A#5R_Bb5R.wav
142,192,112102,1,0,0:0:0:40:D#6R_Eb6R.wav
483,192,112102,1,0,0:0:0:0:
426,192,112253,1,0,0:0:0:40:G#5R_Ab5R.wav
85,192,112405,1,0,0:0:0:40:G5R.wav
369,192,112405,1,0,0:0:0:0:
312,192,112556,1,0,0:0:0:40:F5R.wav
256,192,112708,1,0,0:0:0:40:D#5R_Eb5R.wav
312,192,113011,1,0,0:0:0:40:D#5R_Eb5R.wav
369,192,113011,1,0,0:0:0:40:G5R.wav
483,192,113314,1,0,0:0:0:40:D#6R_Eb6R.wav
426,192,113465,1,0,0:0:0:40:G#5R_Ab5R.wav
369,192,113617,1,0,0:0:0:0:
199,192,113617,128,0,113920:0:0:0:40:G5R.wav
312,192,113768,1,0,0:0:0:40:F5R.wav
142,192,113920,1,0,0:0:0:40:D#5R_Eb5R.wav
256,192,113920,1,0,0:0:0:0:
85,192,114223,1,0,0:0:0:40:D#5R_Eb5R.wav
312,192,114223,1,0,0:0:0:40:G5R.wav
369,192,114223,1,0,0:0:0:40:A#5R_Bb5R.wav
142,192,114526,1,0,0:0:0:40:D#6R_Eb6R.wav
483,192,114526,1,0,0:0:0:0:
426,192,114678,1,0,0:0:0:40:G#5R_Ab5R.wav
85,192,114829,1,0,0:0:0:40:G5R.wav
369,192,114829,1,0,0:0:0:0:
312,192,114981,1,0,0:0:0:40:F5R.wav
256,192,115132,1,0,0:0:0:40:D#5R_Eb5R.wav
312,192,115435,1,0,0:0:0:40:D#5R_Eb5R.wav
369,192,115435,1,0,0:0:0:40:G5R.wav
28,192,115738,128,0,116344:0:0:0:40:D#6R_Eb6R.wav
483,192,115738,1,0,0:0:0:0:
426,192,115890,1,0,0:0:0:40:G#5R_Ab5R.wav
369,192,116041,1,0,0:0:0:40:G5R.wav
312,192,116193,1,0,0:0:0:40:F5R.wav
199,192,116344,1,0,0:0:0:40:G#7R_Ab7R.wav
483,192,116344,1,0,0:0:0:40:C#5R_Db5R.wav
142,192,116647,1,0,0:0:0:40:C7R.wav
426,192,116647,1,0,0:0:0:40:G6R.wav
199,192,116799,1,0,0:0:0:40:C#7R_Db7R.wav
85,192,116950,1,0,0:0:0:40:D#7R_Eb7R.wav
312,192,116950,1,0,0:0:0:40:A#6R_Bb6R.wav
369,192,117102,1,0,0:0:0:40:F7R.wav
312,192,117253,1,0,0:0:0:40:D#7R_Eb7R.wav
256,192,117405,1,0,0:0:0:40:D#5R_Eb5R.wav
199,192,117556,1,0,0:0:0:40:G#7R_Ab7R.wav
483,192,117556,1,0,0:0:0:40:C#5R_Db5R.wav
142,192,117859,1,0,0:0:0:40:C7R.wav
426,192,117859,1,0,0:0:0:40:G6R.wav
199,192,118011,1,0,0:0:0:40:C#7R_Db7R.wav
85,192,118162,1,0,0:0:0:40:D#7R_Eb7R.wav
312,192,118162,1,0,0:0:0:40:A#6R_Bb6R.wav
369,192,118314,1,0,0:0:0:40:F7R.wav
312,192,118465,1,0,0:0:0:40:D#7R_Eb7R.wav
256,192,118617,1,0,0:0:0:40:D#5R_Eb5R.wav
199,192,118768,1,0,0:0:0:40:G#7R_Ab7R.wav
483,192,118768,1,0,0:0:0:40:C#5R_Db5R.wav
142,192,119071,1,0,0:0:0:40:C7R.wav
426,192,119071,1,0,0:0:0:40:G6R.wav
199,192,119223,1,0,0:0:0:40:C#7R_Db7R.wav
85,192,119374,1,0,0:0:0:40:D#7R_Eb7R.wav
312,192,119374,1,0,0:0:0:40:A#6R_Bb6R.wav
369,192,119526,1,0,0:0:0:40:F7R.wav
312,192,119678,1,0,0:0:0:40:D#7R_Eb7R.wav
256,192,119829,1,0,0:0:0:40:D#5R_Eb5R.wav
199,192,119981,1,0,0:0:0:40:G#7R_Ab7R.wav
483,192,119981,1,0,0:0:0:40:C#5R_Db5R.wav
142,192,120284,1,0,0:0:0:40:C7R.wav
426,192,120284,1,0,0:0:0:40:G6R.wav
199,192,120435,1,0,0:0:0:40:C#7R_Db7R.wav
85,192,120587,1,0,0:0:0:40:D#7R_Eb7R.wav
312,192,120587,1,0,0:0:0:40:A#6R_Bb6R.wav
369,192,120738,1,0,0:0:0:40:F7R.wav
312,192,120890,1,0,0:0:0:40:D#7R_Eb7R.wav
256,192,121041,1,0,0:0:0:40:C#5R_Db5R.wav
28,192,121193,1,0,0:0:0:40:D#7R_Eb7R.wav
199,192,121193,1,0,0:0:0:40:C5R.wav
483,192,121344,1,0,0:0:0:40:C8R.wav
85,192,121496,1,0,0:0:0:40:A#6R_Bb6R.wav
312,192,121496,1,0,0:0:0:40:D#5R_Eb5R.wav
426,192,121647,1,0,0:0:0:40:A#7R_Bb7R.wav
142,192,121799,1,0,0:0:0:40:G#6R_Ab6R.wav
256,192,121799,1,0,0:0:0:40:D#6R_Eb6R.wav
369,192,121950,1,0,0:0:0:40:G#7R_Ab7R.wav
199,192,122102,1,0,0:0:0:40:G6R.wav
312,192,122253,1,0,0:0:0:40:G7R.wav
142,192,122405,1,0,0:0:0:40:D#6R_Eb6R.wav
199,192,122405,1,0,0:0:0:40:C5R.wav
369,192,122556,1,0,0:0:0:40:D#7R_Eb7R.wav
85,192,122708,1,0,0:0:0:40:C6R.wav
256,192,122708,1,0,0:0:0:40:D#5R_Eb5R.wav
426,192,122859,1,0,0:0:0:40:C7R.wav
28,192,123011,1,0,0:0:0:40:A#5R_Bb5R.wav
312,192,123011,1,0,0:0:0:40:D#6R_Eb6R.wav
483,192,123162,1,0,0:0:0:40:A#6R_Bb6R.wav
199,192,123314,1,0,0:0:0:40:G#5R_Ab5R.wav
312,192,123465,1,0,0:0:0:40:G#6R_Ab6R.wav
28,192,123617,1,0,0:0:0:40:D#7R_Eb7R.wav
199,192,123617,1,0,0:0:0:40:C5R.wav
483,192,123768,1,0,0:0:0:40:C8R.wav
85,192,123920,1,0,0:0:0:40:A#6R_Bb6R.wav
312,192,123920,1,0,0:0:0:40:D#5R_Eb5R.wav
426,192,124071,1,0,0:0:0:40:A#7R_Bb7R.wav
142,192,124223,1,0,0:0:0:40:G#6R_Ab6R.wav
256,192,124223,1,0,0:0:0:40:D#6R_Eb6R.wav
369,192,124374,1,0,0:0:0:40:G#7R_Ab7R.wav
199,192,124526,1,0,0:0:0:40:G6R.wav
312,192,124678,1,0,0:0:0:40:G7R.wav
142,192,124829,1,0,0:0:0:40:D#6R_Eb6R.wav
199,192,124829,1,0,0:0:0:40:C5R.wav
369,192,124981,1,0,0:0:0:40:D#7R_Eb7R.wav
85,192,125132,1,0,0:0:0:40:C6R.wav
256,192,125132,1,0,0:0:0:40:D#5R_Eb5R.wav
483,192,125132,1,0,0:0:0:40:G5R.wav
426,192,125284,1,0,0:0:0:40:C7R.wav
28,192,125435,1,0,0:0:0:40:A#5R_Bb5R.wav
312,192,125435,1,0,0:0:0:40:D#6R_Eb6R.wav
483,192,125587,1,0,0:0:0:40:A#6R_Bb6R.wav
369,192,125738,1,0,0:0:0:40:G5R.wav
28,192,125890,1,0,0:0:0:40:D#5R_Eb5R.wav
199,192,126041,1,0,0:0:0:40:G#7R_Ab7R.wav
483,192,126041,1,0,0:0:0:40:C#5R_Db5R.wav
142,192,126344,1,0,0:0:0:40:C7R.wav
426,192,126344,1,0,0:0:0:40:G6R.wav
199,192,126496,1,0,0:0:0:40:C#7R_Db7R.wav
85,192,126647,1,0,0:0:0:40:D#7R_Eb7R.wav
312,192,126647,1,0,0:0:0:40:A#6R_Bb6R.wav
369,192,126799,1,0,0:0:0:40:F7R.wav
312,192,126950,1,0,0:0:0:40:D#7R_Eb7R.wav
256,192,127102,1,0,0:0:0:40:D#5R_Eb5R.wav
199,192,127253,1,0,0:0:0:40:G#7R_Ab7R.wav
483,192,127253,1,0,0:0:0:40:C#5R_Db5R.wav
142,192,127556,1,0,0:0:0:40:C7R.wav
426,192,127556,1,0,0:0:0:40:G6R.wav
199,192,127708,1,0,0:0:0:40:C#7R_Db7R.wav
85,192,127859,1,0,0:0:0:40:D#7R_Eb7R.wav
312,192,127859,1,0,0:0:0:40:A#6R_Bb6R.wav
369,192,128011,1,0,0:0:0:40:F7R.wav
312,192,128162,1,0,0:0:0:40:D#7R_Eb7R.wav
256,192,128314,1,0,0:0:0:40:D#5R_Eb5R.wav
199,192,128465,1,0,0:0:0:40:G#7R_Ab7R.wav
483,192,128465,1,0,0:0:0:40:C#5R_Db5R.wav
142,192,128768,1,0,0:0:0:40:C7R.wav
426,192,128768,1,0,0:0:0:40:G6R.wav
199,192,128920,1,0,0:0:0:40:C#7R_Db7R.wav
85,192,129071,1,0,0:0:0:40:D#7R_Eb7R.wav
312,192,129071,1,0,0:0:0:40:A#6R_Bb6R.wav
369,192,129223,1,0,0:0:0:40:F7R.wav
312,192,129374,1,0,0:0:0:40:D#7R_Eb7R.wav
256,192,129526,1,0,0:0:0:40:D#5R_Eb5R.wav
199,192,129678,1,0,0:0:0:40:G#7R_Ab7R.wav
483,192,129678,1,0,0:0:0:40:C#5R_Db5R.wav
142,192,129981,1,0,0:0:0:40:C7R.wav
426,192,129981,1,0,0:0:0:40:G6R.wav
199,192,130132,1,0,0:0:0:40:C#7R_Db7R.wav
85,192,130284,1,0,0:0:0:40:D#7R_Eb7R.wav
312,192,130284,1,0,0:0:0:40:A#6R_Bb6R.wav
369,192,130435,1,0,0:0:0:40:F7R.wav
312,192,130587,1,0,0:0:0:40:D#7R_Eb7R.wav
256,192,130738,1,0,0:0:0:40:C#5R_Db5R.wav
28,192,130890,1,0,0:0:0:40:C6R.wav
369,192,130890,1,0,0:0:0:40:D#5R_Eb5R.wav
85,192,131041,1,0,0:0:0:40:D#6R_Eb6R.wav
142,192,131193,1,0,0:0:0:40:F6R.wav
426,192,131193,1,0,0:0:0:40:D#5R_Eb5R.wav
28,192,131344,1,0,0:0:0:40:D#6R_Eb6R.wav
142,192,131496,1,0,0:0:0:40:F6R.wav
483,192,131496,1,0,0:0:0:40:D#6R_Eb6R.wav
199,192,131647,1,0,0:0:0:40:G6R.wav
256,192,131799,1,0,0:0:0:40:G#6R_Ab6R.wav
142,192,131950,1,0,0:0:0:40:G6R.wav
256,192,132102,1,0,0:0:0:40:G#6R_Ab6R.wav
369,192,132102,1,0,0:0:0:40:D#5R_Eb5R.wav
312,192,132253,1,0,0:0:0:40:A#6R_Bb6R.wav
369,192,132405,1,0,0:0:0:40:C7R.wav
426,192,132405,1,0,0:0:0:40:D#5R_Eb5R.wav
142,192,132556,1,0,0:0:0:40:D#7R_Eb7R.wav
256,192,132708,1,0,0:0:0:40:F7R.wav
483,192,132708,1,0,0:0:0:40:D#6R_Eb6R.wav
142,192,132859,1,0,0:0:0:40:D#7R_Eb7R.wav
256,192,133011,1,0,0:0:0:40:F7R.wav
312,192,133162,1,0,0:0:0:40:G7R.wav
369,192,133314,1,0,0:0:0:40:G#7R_Ab7R.wav
483,192,133314,1,0,0:0:0:40:D#5R_Eb5R.wav
199,192,133390,1,0,0:0:0:40:G7R.wav
142,192,133465,1,0,0:0:0:40:D#7R_Eb7R.wav
85,192,133541,1,0,0:0:0:40:A#6R_Bb6R.wav
256,192,133617,1,0,0:0:0:40:D#5R_Eb5R.wav
426,192,133617,1,0,0:0:0:40:G5R.wav
142,192,133920,1,0,0:0:0:40:D#7R_Eb7R.wav
483,192,133920,1,0,0:0:0:40:D#6R_Eb6R.wav
256,192,134223,1,0,0:0:0:40:A#6R_Bb6R.wav
28,192,134526,1,0,0:0:0:40:D#7R_Eb7R.wav
369,192,134526,1,0,0:0:0:40:D#5R_Eb5R.wav
312,192,134602,1,0,0:0:0:40:A#6R_Bb6R.wav
256,192,134678,1,0,0:0:0:40:G#6R_Ab6R.wav
199,192,134753,1,0,0:0:0:40:G6R.wav
142,192,134829,1,0,0:0:0:40:D#6R_Eb6R.wav
426,192,134829,1,0,0:0:0:40:D#5R_Eb5R.wav
28,192,135132,128,0,135738:0:0:0:40:A#6R_Bb6R.wav
483,192,135132,1,0,0:0:0:40:D#6R_Eb6R.wav
426,192,135284,1,0,0:0:0:40:G#5R_Ab5R.wav
369,192,135435,1,0,0:0:0:40:G5R.wav
312,192,135587,1,0,0:0:0:40:F5R.wav
85,192,135738,1,2,0:0:0:0:
483,192,135738,1,0,0:0:0:40:G#7R_Ab7R.wav
142,192,136041,1,0,0:0:0:40:C7R.wav
426,192,136041,1,0,0:0:0:40:G6R.wav
199,192,136193,1,0,0:0:0:40:C#7R_Db7R.wav
85,192,136344,1,8,0:0:0:0:
312,192,136344,1,0,0:0:0:40:D#7R_Eb7R.wav
369,192,136496,1,0,0:0:0:40:F7R.wav
312,192,136647,1,0,0:0:0:40:D#7R_Eb7R.wav
28,192,136799,1,2,0:0:0:0:
256,192,136799,1,0,0:0:0:40:D#5R_Eb5R.wav
199,192,136950,1,2,0:0:0:0:
483,192,136950,1,0,0:0:0:40:G#7R_Ab7R.wav
142,192,137253,1,0,0:0:0:40:C7R.wav
426,192,137253,1,0,0:0:0:40:G6R.wav
199,192,137405,1,0,0:0:0:40:C#7R_Db7R.wav
85,192,137556,1,8,0:0:0:0:
312,192,137556,1,0,0:0:0:40:D#7R_Eb7R.wav
369,192,137708,1,0,0:0:0:40:F7R.wav
312,192,137859,1,0,0:0:0:40:D#7R_Eb7R.wav
256,192,138011,1,0,0:0:0:40:D#5R_Eb5R.wav
199,192,138162,1,2,0:0:0:0:
483,192,138162,1,0,0:0:0:40:G#7R_Ab7R.wav
142,192,138465,1,0,0:0:0:40:C7R.wav
426,192,138465,1,0,0:0:0:40:G6R.wav
199,192,138617,1,0,0:0:0:40:C#7R_Db7R.wav
85,192,138768,1,8,0:0:0:0:
312,192,138768,1,0,0:0:0:40:D#7R_Eb7R.wav
369,192,138920,1,0,0:0:0:40:F7R.wav
312,192,139071,1,0,0:0:0:40:D#7R_Eb7R.wav
28,192,139223,1,2,0:0:0:0:
256,192,139223,1,0,0:0:0:40:D#5R_Eb5R.wav
199,192,139375,1,0,0:0:0:40:G#7R_Ab7R.wav
483,192,139375,1,0,0:0:0:40:C#5R_Db5R.wav
142,192,139678,1,0,0:0:0:40:C7R.wav
426,192,139678,1,0,0:0:0:40:G6R.wav
199,192,139829,1,0,0:0:0:40:C#7R_Db7R.wav
85,192,139981,1,8,0:0:0:0:
312,192,139981,1,0,0:0:0:40:D#7R_Eb7R.wav
369,192,140132,1,0,0:0:0:40:F7R.wav
312,192,140284,1,0,0:0:0:40:D#7R_Eb7R.wav
256,192,140435,1,0,0:0:0:40:C#5R_Db5R.wav
28,192,140587,1,2,0:0:0:0:
199,192,140587,1,0,0:0:0:40:D#7R_Eb7R.wav
483,192,140738,1,0,0:0:0:40:C8R.wav
85,192,140890,1,0,0:0:0:40:A#6R_Bb6R.wav
312,192,140890,1,0,0:0:0:40:D#5R_Eb5R.wav
426,192,141041,1,0,0:0:0:40:A#7R_Bb7R.wav
142,192,141193,1,8,0:0:0:0:
256,192,141193,1,0,0:0:0:40:G#6R_Ab6R.wav
369,192,141344,1,0,0:0:0:40:G#7R_Ab7R.wav
199,192,141496,1,0,0:0:0:40:G6R.wav
312,192,141647,1,2,0:0:0:0:
483,192,141647,1,0,0:0:0:40:G7R.wav
28,192,141799,1,2,0:0:0:0:
142,192,141799,1,0,0:0:0:40:D#6R_Eb6R.wav
369,192,141950,1,0,0:0:0:40:D#7R_Eb7R.wav
85,192,142102,1,0,0:0:0:40:C6R.wav
256,192,142102,1,0,0:0:0:40:D#5R_Eb5R.wav
426,192,142253,1,0,0:0:0:40:C7R.wav
28,192,142405,1,8,0:0:0:0:
312,192,142405,1,0,0:0:0:40:A#5R_Bb5R.wav
483,192,142556,1,0,0:0:0:40:A#6R_Bb6R.wav
199,192,142708,1,0,0:0:0:40:G#5R_Ab5R.wav
312,192,142859,1,0,0:0:0:40:G#6R_Ab6R.wav
28,192,143011,1,2,0:0:0:0:
142,192,143011,1,0,0:0:0:40:D#7R_Eb7R.wav
483,192,143162,1,0,0:0:0:40:C8R.wav
85,192,143314,1,0,0:0:0:40:A#6R_Bb6R.wav
312,192,143314,1,0,0:0:0:40:D#5R_Eb5R.wav
426,192,143465,1,0,0:0:0:40:A#7R_Bb7R.wav
142,192,143617,1,8,0:0:0:0:
256,192,143617,1,0,0:0:0:40:G#6R_Ab6R.wav
369,192,143768,1,0,0:0:0:40:G#7R_Ab7R.wav
199,192,143920,1,0,0:0:0:40:G6R.wav
312,192,144071,1,2,0:0:0:0:
483,192,144071,1,0,0:0:0:40:G7R.wav
28,192,144223,1,0,0:0:0:40:D#6R_Eb6R.wav
142,192,144223,1,0,0:0:0:40:C5R.wav
369,192,144375,1,0,0:0:0:40:D#7R_Eb7R.wav
85,192,144526,1,0,0:0:0:40:C6R.wav
256,192,144526,1,0,0:0:0:40:D#5R_Eb5R.wav
426,192,144678,1,0,0:0:0:40:C7R.wav
28,192,144829,1,8,0:0:0:0:
312,192,144829,1,0,0:0:0:40:A#5R_Bb5R.wav
483,192,144981,1,0,0:0:0:40:A#6R_Bb6R.wav
369,192,145132,1,0,0:0:0:40:G5R.wav
28,192,145284,1,0,0:0:0:40:D#5R_Eb5R.wav
199,192,145435,1,2,0:0:0:0:
483,192,145435,1,0,0:0:0:40:G#7R_Ab7R.wav
142,192,145738,1,0,0:0:0:40:C7R.wav
426,192,145738,1,0,0:0:0:40:G6R.wav
199,192,145890,1,0,0:0:0:40:C#7R_Db7R.wav
85,192,146041,1,8,0:0:0:0:
312,192,146041,1,0,0:0:0:40:D#7R_Eb7R.wav
369,192,146193,1,0,0:0:0:40:F7R.wav
312,192,146344,1,0,0:0:0:40:D#7R_Eb7R.wav
28,192,146496,1,2,0:0:0:0:
256,192,146496,1,0,0:0:0:40:D#5R_Eb5R.wav
199,192,146647,1,2,0:0:0:0:
483,192,146647,1,0,0:0:0:40:G#7R_Ab7R.wav
142,192,146950,1,0,0:0:0:40:C7R.wav
426,192,146950,1,0,0:0:0:40:G6R.wav
199,192,147102,1,0,0:0:0:40:C#7R_Db7R.wav
85,192,147253,1,8,0:0:0:0:
312,192,147253,1,0,0:0:0:40:D#7R_Eb7R.wav
369,192,147405,1,0,0:0:0:40:F7R.wav
312,192,147556,1,0,0:0:0:40:D#7R_Eb7R.wav
256,192,147708,1,0,0:0:0:40:D#5R_Eb5R.wav
85,192,147859,1,2,0:0:0:0:
483,192,147859,1,0,0:0:0:40:G#7R_Ab7R.wav
142,192,148162,1,0,0:0:0:40:C7R.wav
426,192,148162,1,0,0:0:0:40:G6R.wav
199,192,148314,1,0,0:0:0:40:C#7R_Db7R.wav
85,192,148465,1,8,0:0:0:0:
312,192,148465,1,0,0:0:0:40:D#7R_Eb7R.wav
369,192,148617,1,0,0:0:0:40:F7R.wav
312,192,148768,1,0,0:0:0:40:D#7R_Eb7R.wav
28,192,148920,1,2,0:0:0:0:
256,192,148920,1,0,0:0:0:40:D#5R_Eb5R.wav
199,192,149071,1,0,0:0:0:40:G#7R_Ab7R.wav
483,192,149071,1,0,0:0:0:40:C#5R_Db5R.wav
142,192,149375,1,0,0:0:0:40:C7R.wav
426,192,149375,1,0,0:0:0:40:G6R.wav
199,192,149526,1,0,0:0:0:40:C#7R_Db7R.wav
85,192,149678,1,8,0:0:0:0:
312,192,149678,1,0,0:0:0:40:D#7R_Eb7R.wav
369,192,149829,1,0,0:0:0:40:F7R.wav
312,192,149981,1,0,0:0:0:40:D#7R_Eb7R.wav
256,192,150132,1,0,0:0:0:40:C#5R_Db5R.wav
28,192,150284,1,2,0:0:0:0:
369,192,150284,1,0,0:0:0:40:C6R.wav
85,192,150435,1,0,0:0:0:40:D#6R_Eb6R.wav
142,192,150587,1,0,0:0:0:40:F6R.wav
426,192,150587,1,0,0:0:0:40:D#5R_Eb5R.wav
28,192,150738,1,0,0:0:0:40:D#6R_Eb6R.wav
142,192,150890,1,8,0:0:0:0:
483,192,150890,1,0,0:0:0:40:F6R.wav
199,192,151041,1,0,0:0:0:40:G6R.wav
256,192,151193,1,0,0:0:0:40:G#6R_Ab6R.wav
142,192,151344,1,2,0:0:0:0:
426,192,151344,1,0,0:0:0:40:G6R.wav
28,192,151496,1,2,0:0:0:0:
256,192,151496,1,0,0:0:0:40:G#6R_Ab6R.wav
312,192,151647,1,0,0:0:0:40:A#6R_Bb6R.wav
85,192,151799,1,0,0:0:0:40:C7R.wav
369,192,151799,1,0,0:0:0:40:D#5R_Eb5R.wav
142,192,151950,1,0,0:0:0:40:D#7R_Eb7R.wav
256,192,152102,1,8,0:0:0:0:
483,192,152102,1,0,0:0:0:40:F7R.wav
142,192,152253,1,0,0:0:0:40:D#7R_Eb7R.wav
256,192,152405,1,0,0:0:0:40:F7R.wav
312,192,152556,1,0,0:0:0:40:G7R.wav
369,192,152708,1,2,0:0:0:0:
483,192,152708,1,0,0:0:0:40:G#7R_Ab7R.wav
199,192,152784,1,0,0:0:0:40:G7R.wav
142,192,152859,1,0,0:0:0:40:D#7R_Eb7R.wav
85,192,152935,1,0,0:0:0:40:A#6R_Bb6R.wav
256,192,153011,1,0,0:0:0:40:D#5R_Eb5R.wav
426,192,153011,1,0,0:0:0:40:G5R.wav
28,192,153314,1,8,0:0:0:0:
142,192,153314,1,0,0:0:0:40:D#7R_Eb7R.wav
483,192,153314,1,0,0:0:0:40:D#6R_Eb6R.wav
256,192,153617,1,0,0:0:0:40:A#6R_Bb6R.wav
142,192,153768,1,2,0:0:0:0:
199,192,153768,1,0,0:0:0:40:F5R.wav
28,192,153920,1,0,0:0:0:40:D#7R_Eb7R.wav
369,192,153920,1,0,0:0:0:40:D#5R_Eb5R.wav
312,192,153996,1,0,0:0:0:40:A#6R_Bb6R.wav
256,192,154071,1,0,0:0:0:40:G#6R_Ab6R.wav
199,192,154147,1,0,0:0:0:40:G6R.wav
142,192,154223,1,0,0:0:0:40:D#6R_Eb6R.wav
426,192,154223,1,0,0:0:0:40:D#5R_Eb5R.wav
28,192,154526,128,8,155132:0:0:0:0:
312,192,154526,1,0,0:0:0:40:A#6R_Bb6R.wav
483,192,154526,1,0,0:0:0:40:D#6R_Eb6R.wav
426,192,154678,1,0,0:0:0:40:G#5R_Ab5R.wav
369,192,154829,1,0,0:0:0:40:G5R.wav
312,192,154981,1,0,0:0:0:40:F5R.wav
85,192,155132,1,2,0:0:0:0:
483,192,155132,1,0,0:0:0:40:G#7R_Ab7R.wav
142,192,155435,1,0,0:0:0:40:C7R.wav
426,192,155435,1,0,0:0:0:40:G6R.wav
199,192,155587,1,0,0:0:0:40:C#7R_Db7R.wav
85,192,155738,1,8,0:0:0:0:
312,192,155738,1,0,0:0:0:40:D#7R_Eb7R.wav
369,192,155890,1,0,0:0:0:40:F7R.wav
312,192,156041,1,0,0:0:0:40:D#7R_Eb7R.wav
28,192,156193,1,2,0:0:0:0:
256,192,156193,1,0,0:0:0:40:D#5R_Eb5R.wav
199,192,156344,1,2,0:0:0:0:
483,192,156344,1,0,0:0:0:40:G#7R_Ab7R.wav
142,192,156647,1,0,0:0:0:40:C7R.wav
426,192,156647,1,0,0:0:0:40:G6R.wav
199,192,156799,1,0,0:0:0:40:C#7R_Db7R.wav
85,192,156950,1,8,0:0:0:0:
312,192,156950,1,0,0:0:0:40:D#7R_Eb7R.wav
369,192,157102,1,0,0:0:0:40:F7R.wav
312,192,157253,1,0,0:0:0:40:D#7R_Eb7R.wav
256,192,157405,1,0,0:0:0:40:D#5R_Eb5R.wav
199,192,157556,1,2,0:0:0:0:
483,192,157556,1,0,0:0:0:40:G#7R_Ab7R.wav
142,192,157859,1,0,0:0:0:40:C7R.wav
426,192,157859,1,0,0:0:0:40:G6R.wav
199,192,158011,1,0,0:0:0:40:C#7R_Db7R.wav
85,192,158162,1,8,0:0:0:0:
312,192,158162,1,0,0:0:0:40:D#7R_Eb7R.wav
369,192,158314,1,0,0:0:0:40:F7R.wav
312,192,158465,1,0,0:0:0:40:D#7R_Eb7R.wav
28,192,158617,1,2,0:0:0:0:
256,192,158617,1,0,0:0:0:40:D#5R_Eb5R.wav
199,192,158768,1,0,0:0:0:40:G#7R_Ab7R.wav
483,192,158768,1,0,0:0:0:40:C#5R_Db5R.wav
142,192,159071,1,0,0:0:0:40:C7R.wav
426,192,159071,1,0,0:0:0:40:G6R.wav
199,192,159223,1,0,0:0:0:40:C#7R_Db7R.wav
312,192,159375,1,0,0:0:0:40:D#7R_Eb7R.wav
85,192,159375,1,8,0:0:0:0:
369,192,159526,1,0,0:0:0:40:F7R.wav
312,192,159678,1,0,0:0:0:40:D#7R_Eb7R.wav
256,192,159829,1,0,0:0:0:40:C#5R_Db5R.wav
28,192,159981,1,2,0:0:0:0:
199,192,159981,1,0,0:0:0:40:D#7R_Eb7R.wav
483,192,160132,1,0,0:0:0:40:C8R.wav
85,192,160284,1,0,0:0:0:40:A#6R_Bb6R.wav
312,192,160284,1,0,0:0:0:40:D#5R_Eb5R.wav
426,192,160435,1,0,0:0:0:40:A#7R_Bb7R.wav
142,192,160587,1,8,0:0:0:0:
256,192,160587,1,0,0:0:0:40:G#6R_Ab6R.wav
369,192,160738,1,0,0:0:0:40:G#7R_Ab7R.wav
199,192,160890,1,0,0:0:0:40:G6R.wav
312,192,161041,1,2,0:0:0:0:
483,192,161041,1,0,0:0:0:40:G7R.wav
28,192,161193,1,2,0:0:0:0:
142,192,161193,1,0,0:0:0:40:D#6R_Eb6R.wav
369,192,161344,1,0,0:0:0:40:D#7R_Eb7R.wav
85,192,161496,1,0,0:0:0:40:C6R.wav
256,192,161496,1,0,0:0:0:40:D#5R_Eb5R.wav
426,192,161647,1,0,0:0:0:40:C7R.wav
28,192,161799,1,8,0:0:0:0:
312,192,161799,1,0,0:0:0:40:A#5R_Bb5R.wav
483,192,161950,1,0,0:0:0:40:A#6R_Bb6R.wav
199,192,162102,1,0,0:0:0:40:G#5R_Ab5R.wav
312,192,162253,1,0,0:0:0:40:G#6R_Ab6R.wav
28,192,162405,1,2,0:0:0:0:
142,192,162405,1,0,0:0:0:40:D#7R_Eb7R.wav
483,192,162556,1,0,0:0:0:40:C8R.wav
85,192,162708,1,0,0:0:0:40:A#6R_Bb6R.wav
312,192,162708,1,0,0:0:0:40:D#5R_Eb5R.wav
426,192,162859,1,0,0:0:0:40:A#7R_Bb7R.wav
142,192,163011,1,8,0:0:0:0:
256,192,163011,1,0,0:0:0:40:G#6R_Ab6R.wav
369,192,163162,1,0,0:0:0:40:G#7R_Ab7R.wav
199,192,163314,1,0,0:0:0:40:G6R.wav
312,192,163465,1,2,0:0:0:0:
483,192,163465,1,0,0:0:0:40:G7R.wav
28,192,163617,1,0,0:0:0:40:D#6R_Eb6R.wav
142,192,163617,1,0,0:0:0:40:C5R.wav
369,192,163768,1,0,0:0:0:40:D#7R_Eb7R.wav
85,192,163920,1,0,0:0:0:40:C6R.wav
256,192,163920,1,0,0:0:0:40:D#5R_Eb5R.wav
426,192,164071,1,0,0:0:0:40:C7R.wav
28,192,164223,1,8,0:0:0:0:
312,192,164223,1,0,0:0:0:40:A#5R_Bb5R.wav
483,192,164374,1,0,0:0:0:40:A#6R_Bb6R.wav
369,192,164526,1,0,0:0:0:40:G5R.wav
28,192,164678,1,0,0:0:0:40:D#5R_Eb5R.wav
199,192,164829,1,2,0:0:0:0:
483,192,164829,1,0,0:0:0:40:G#7R_Ab7R.wav
142,192,165132,1,0,0:0:0:40:C7R.wav
426,192,165132,1,0,0:0:0:40:G6R.wav
199,192,165284,1,0,0:0:0:40:C#7R_Db7R.wav
85,192,165435,1,8,0:0:0:0:
312,192,165435,1,0,0:0:0:40:D#7R_Eb7R.wav
369,192,165587,1,0,0:0:0:40:F7R.wav
312,192,165738,1,0,0:0:0:40:D#7R_Eb7R.wav
28,192,165890,1,2,0:0:0:0:
256,192,165890,1,0,0:0:0:40:D#5R_Eb5R.wav
199,192,166041,1,2,0:0:0:0:
483,192,166041,1,0,0:0:0:40:G#7R_Ab7R.wav
142,192,166344,1,0,0:0:0:40:C7R.wav
426,192,166344,1,0,0:0:0:40:G6R.wav
199,192,166496,1,0,0:0:0:40:C#7R_Db7R.wav
85,192,166647,1,8,0:0:0:0:
312,192,166647,1,0,0:0:0:40:D#7R_Eb7R.wav
369,192,166799,1,0,0:0:0:40:F7R.wav
312,192,166950,1,0,0:0:0:40:D#7R_Eb7R.wav
256,192,167102,1,0,0:0:0:40:D#5R_Eb5R.wav
85,192,167253,1,2,0:0:0:0:
483,192,167253,1,0,0:0:0:40:G#7R_Ab7R.wav
142,192,167556,1,0,0:0:0:40:C7R.wav
426,192,167556,1,0,0:0:0:40:G6R.wav
199,192,167708,1,0,0:0:0:40:C#7R_Db7R.wav
85,192,167859,1,8,0:0:0:0:
312,192,167859,1,0,0:0:0:40:D#7R_Eb7R.wav
369,192,168011,1,0,0:0:0:40:F7R.wav
312,192,168162,1,0,0:0:0:40:D#7R_Eb7R.wav
28,192,168314,1,2,0:0:0:0:
256,192,168314,1,0,0:0:0:40:D#5R_Eb5R.wav
199,192,168465,1,0,0:0:0:40:G#7R_Ab7R.wav
483,192,168465,1,0,0:0:0:40:C#5R_Db5R.wav
142,192,168768,1,0,0:0:0:40:C7R.wav
426,192,168768,1,0,0:0:0:40:G6R.wav
199,192,168920,1,0,0:0:0:40:C#7R_Db7R.wav
85,192,169071,1,8,0:0:0:0:
312,192,169071,1,0,0:0:0:40:D#7R_Eb7R.wav
369,192,169223,1,0,0:0:0:40:F7R.wav
312,192,169374,1,0,0:0:0:40:D#7R_Eb7R.wav
256,192,169526,1,0,0:0:0:40:C#5R_Db5R.wav
28,192,169678,1,2,0:0:0:0:
369,192,169678,1,0,0:0:0:40:C6R.wav
85,192,169829,1,0,0:0:0:40:D#6R_Eb6R.wav
142,192,169981,1,0,0:0:0:40:F6R.wav
426,192,169981,1,0,0:0:0:40:D#5R_Eb5R.wav
28,192,170132,1,0,0:0:0:40:D#6R_Eb6R.wav
142,192,170284,1,8,0:0:0:0:
483,192,170284,1,0,0:0:0:40:F6R.wav
199,192,170435,1,0,0:0:0:40:G6R.wav
256,192,170587,1,0,0:0:0:40:G#6R_Ab6R.wav
142,192,170738,1,2,0:0:0:0:
426,192,170738,1,0,0:0:0:40:G6R.wav
28,192,170890,1,2,0:0:0:0:
256,192,170890,1,0,0:0:0:40:G#6R_Ab6R.wav
312,192,171041,1,0,0:0:0:40:A#6R_Bb6R.wav
85,192,171193,1,0,0:0:0:40:C7R.wav
369,192,171193,1,0,0:0:0:40:D#5R_Eb5R.wav
142,192,171344,1,0,0:0:0:40:D#7R_Eb7R.wav
256,192,171496,1,8,0:0:0:0:
483,192,171496,1,0,0:0:0:40:F7R.wav
142,192,171647,1,0,0:0:0:40:D#7R_Eb7R.wav
256,192,171799,1,0,0:0:0:40:F7R.wav
312,192,171950,1,0,0:0:0:40:G7R.wav
369,192,172102,1,2,0:0:0:0:
483,192,172102,1,0,0:0:0:40:G#7R_Ab7R.wav
199,192,172178,1,0,0:0:0:40:G7R.wav
142,192,172253,1,0,0:0:0:40:D#7R_Eb7R.wav
85,192,172329,1,0,0:0:0:40:A#6R_Bb6R.wav
256,192,172405,1,0,0:0:0:40:D#5R_Eb5R.wav
426,192,172405,1,0,0:0:0:40:G5R.wav
28,192,172708,1,8,0:0:0:0:
142,192,172708,1,0,0:0:0:40:D#7R_Eb7R.wav
483,192,172708,1,0,0:0:0:40:D#6R_Eb6R.wav
256,192,173011,1,0,0:0:0:40:A#6R_Bb6R.wav
142,192,173162,1,2,0:0:0:0:
199,192,173162,1,0,0:0:0:40:F5R.wav
28,192,173314,1,0,0:0:0:40:D#7R_Eb7R.wav
369,192,173314,1,0,0:0:0:40:D#5R_Eb5R.wav
312,192,173390,1,0,0:0:0:40:A#6R_Bb6R.wav
256,192,173465,1,0,0:0:0:40:G#6R_Ab6R.wav
199,192,173541,1,0,0:0:0:40:G6R.wav
142,192,173617,1,0,0:0:0:40:D#6R_Eb6R.wav
426,192,173617,1,0,0:0:0:40:D#5R_Eb5R.wav
28,192,173920,128,8,174526:0:0:0:0:
312,192,173920,1,0,0:0:0:40:A#6R_Bb6R.wav
483,192,173920,1,0,0:0:0:40:D#6R_Eb6R.wav
426,192,174071,1,0,0:0:0:40:G#5R_Ab5R.wav
369,192,174223,1,0,0:0:0:40:G5R.wav
312,192,174374,1,0,0:0:0:40:F5R.wav
199,192,174526,1,0,0:0:0:40:G#7R_Ab7R.wav
483,192,174526,1,0,0:0:0:40:C#4R_Db4R.wav
142,192,174829,1,0,0:0:0:40:C7R.wav
426,192,174829,1,0,0:0:0:40:G6R.wav
199,192,174981,1,0,0:0:0:40:C#7R_Db7R.wav
312,192,175132,1,0,0:0:0:40:D#7R_Eb7R.wav
85,192,175132,1,0,0:0:0:40:A#6R_Bb6R.wav
369,192,175284,1,0,0:0:0:40:F7R.wav
312,192,175435,1,0,0:0:0:40:D#7R_Eb7R.wav
199,192,175738,1,0,0:0:0:40:G#7R_Ab7R.wav
483,192,175738,1,0,0:0:0:0:
142,192,176041,1,0,0:0:0:40:C7R.wav
426,192,176041,1,0,0:0:0:40:G6R.wav
199,192,176193,1,0,0:0:0:40:C#7R_Db7R.wav
312,192,176344,1,0,0:0:0:40:D#7R_Eb7R.wav
85,192,176344,1,0,0:0:0:40:A#6R_Bb6R.wav
369,192,176496,1,0,0:0:0:40:F7R.wav
312,192,176647,1,0,0:0:0:40:D#7R_Eb7R.wav
85,192,176950,1,0,0:0:0:40:G#7R_Ab7R.wav
483,192,176950,1,0,0:0:0:40:A#3R_Bb3R.wav
142,192,177253,1,0,0:0:0:40:C7R.wav
426,192,177253,1,0,0:0:0:40:G6R.wav
199,192,177405,1,0,0:0:0:40:C#7R_Db7R.wav
312,192,177556,1,0,0:0:0:40:D#7R_Eb7R.wav
85,192,177556,1,0,0:0:0:40:A#6R_Bb6R.wav
369,192,177708,1,0,0:0:0:40:F7R.wav
312,192,177859,1,0,0:0:0:40:D#7R_Eb7R.wav
199,192,178162,1,0,0:0:0:40:G#7R_Ab7R.wav
483,192,178162,1,0,0:0:0:0:
142,192,178465,1,0,0:0:0:40:C7R.wav
426,192,178465,1,0,0:0:0:40:G6R.wav
199,192,178617,1,0,0:0:0:40:C#7R_Db7R.wav
312,192,178768,1,0,0:0:0:40:D#7R_Eb7R.wav
85,192,178768,1,0,0:0:0:40:A#6R_Bb6R.wav
369,192,178920,1,0,0:0:0:40:F7R.wav
312,192,179071,1,0,0:0:0:40:D#7R_Eb7R.wav
28,192,179374,1,0,0:0:0:40:D#7R_Eb7R.wav
199,192,179374,1,0,0:0:0:40:G#3R_Ab3R.wav
483,192,179526,1,0,0:0:0:40:C8R.wav
85,192,179678,1,0,0:0:0:40:A#6R_Bb6R.wav
426,192,179829,1,0,0:0:0:40:A#7R_Bb7R.wav
142,192,179981,1,0,0:0:0:40:G#6R_Ab6R.wav
369,192,180132,1,0,0:0:0:40:G#7R_Ab7R.wav
199,192,180284,1,0,0:0:0:40:G6R.wav
312,192,180435,1,0,0:0:0:40:G7R.wav
142,192,180587,1,0,0:0:0:40:D#6R_Eb6R.wav
369,192,180738,1,0,0:0:0:40:D#7R_Eb7R.wav
85,192,180890,1,0,0:0:0:40:C6R.wav
426,192,181041,1,0,0:0:0:40:C7R.wav
28,192,181193,1,0,0:0:0:40:A#5R_Bb5R.wav
483,192,181344,1,0,0:0:0:40:A#6R_Bb6R.wav
199,192,181496,1,0,0:0:0:40:G#5R_Ab5R.wav
312,192,181647,1,0,0:0:0:40:G#6R_Ab6R.wav
28,192,181799,1,0,0:0:0:40:D#7R_Eb7R.wav
142,192,181799,1,0,0:0:0:40:F3R.wav
483,192,181950,1,0,0:0:0:40:C8R.wav
85,192,182102,1,0,0:0:0:40:A#6R_Bb6R.wav
426,192,182253,1,0,0:0:0:40:A#7R_Bb7R.wav
142,192,182405,1,0,0:0:0:40:G#6R_Ab6R.wav
369,192,182556,1,0,0:0:0:40:G#7R_Ab7R.wav
199,192,182708,1,0,0:0:0:40:G6R.wav
312,192,182859,1,0,0:0:0:40:G7R.wav
142,192,183011,1,0,0:0:0:40:D#6R_Eb6R.wav
369,192,183162,1,0,0:0:0:40:D#7R_Eb7R.wav
85,192,183314,1,0,0:0:0:40:C6R.wav
426,192,183465,1,0,0:0:0:40:C7R.wav
28,192,183617,1,0,0:0:0:40:A#5R_Bb5R.wav
483,192,183768,1,0,0:0:0:40:A#6R_Bb6R.wav
199,192,184223,1,0,0:0:0:40:G#7R_Ab7R.wav
483,192,184223,1,0,0:0:0:40:C#4R_Db4R.wav
142,192,184526,1,0,0:0:0:40:C7R.wav
426,192,184526,1,0,0:0:0:40:G6R.wav
199,192,184678,1,0,0:0:0:40:C#7R_Db7R.wav
312,192,184829,1,0,0:0:0:40:D#7R_Eb7R.wav
85,192,184829,1,0,0:0:0:40:A#6R_Bb6R.wav
369,192,184981,1,0,0:0:0:40:F7R.wav
312,192,185132,1,0,0:0:0:40:D#7R_Eb7R.wav
199,192,185435,1,0,0:0:0:40:G#7R_Ab7R.wav
483,192,185435,1,0,0:0:0:0:
142,192,185738,1,0,0:0:0:40:C7R.wav
426,192,185738,1,0,0:0:0:40:G6R.wav
199,192,185890,1,0,0:0:0:40:C#7R_Db7R.wav
312,192,186041,1,0,0:0:0:40:D#7R_Eb7R.wav
85,192,186041,1,0,0:0:0:40:A#6R_Bb6R.wav
369,192,186193,1,0,0:0:0:40:F7R.wav
312,192,186344,1,0,0:0:0:40:D#7R_Eb7R.wav
199,192,186647,1,0,0:0:0:40:G#7R_Ab7R.wav
483,192,186647,1,0,0:0:0:40:A#3R_Bb3R.wav
142,192,186950,1,0,0:0:0:40:C7R.wav
426,192,186950,1,0,0:0:0:40:G6R.wav
199,192,187102,1,0,0:0:0:40:C#7R_Db7R.wav
85,192,187253,1,0,0:0:0:40:D#7R_Eb7R.wav
312,192,187253,1,0,0:0:0:40:A#6R_Bb6R.wav
369,192,187405,1,0,0:0:0:40:F7R.wav
312,192,187556,1,0,0:0:0:40:D#7R_Eb7R.wav
199,192,187859,1,0,0:0:0:40:G#7R_Ab7R.wav
483,192,187859,1,0,0:0:0:0:
142,192,188162,1,0,0:0:0:40:C7R.wav
426,192,188162,1,0,0:0:0:40:G6R.wav
199,192,188314,1,0,0:0:0:40:C#7R_Db7R.wav
85,192,188465,1,0,0:0:0:40:D#7R_Eb7R.wav
312,192,188465,1,0,0:0:0:40:A#6R_Bb6R.wav
369,192,188617,1,0,0:0:0:40:F7R.wav
312,192,188768,1,0,0:0:0:40:D#7R_Eb7R.wav
28,192,189071,1,0,0:0:0:40:C6R.wav
369,192,189071,1,0,0:0:0:40:G#3R_Ab3R.wav
85,192,189223,1,0,0:0:0:40:D#6R_Eb6R.wav
142,192,189374,1,0,0:0:0:40:F6R.wav
28,192,189526,1,0,0:0:0:40:D#6R_Eb6R.wav
142,192,189678,1,0,0:0:0:40:F6R.wav
199,192,189829,1,0,0:0:0:40:G6R.wav
256,192,189981,1,0,0:0:0:40:G#6R_Ab6R.wav
142,192,190132,1,0,0:0:0:40:G6R.wav
256,192,190284,1,0,0:0:0:40:G#6R_Ab6R.wav
312,192,190435,1,0,0:0:0:40:A#6R_Bb6R.wav
369,192,190587,1,0,0:0:0:40:C7R.wav
142,192,190738,1,0,0:0:0:40:D#7R_Eb7R.wav
256,192,190890,1,0,0:0:0:40:F7R.wav
142,192,191041,1,0,0:0:0:40:D#7R_Eb7R.wav
256,192,191193,1,0,0:0:0:40:F7R.wav
312,192,191344,1,0,0:0:0:40:G7R.wav
369,192,191496,1,0,0:0:0:40:G#7R_Ab7R.wav
483,192,191496,1,0,0:0:0:40:F3R.wav
199,192,191571,1,0,0:0:0:40:G7R.wav
142,192,191647,1,0,0:0:0:40:D#7R_Eb7R.wav
85,192,191723,1,0,0:0:0:40:A#6R_Bb6R.wav
483,192,192102,1,0,0:0:0:40:D#7R_Eb7R.wav
256,192,192405,1,0,0:0:0:40:A#6R_Bb6R.wav
369,192,192708,1,0,0:0:0:40:D#7R_Eb7R.wav
312,192,192784,1,0,0:0:0:40:A#6R_Bb6R.wav
256,192,192859,1,0,0:0:0:40:G#6R_Ab6R.wav
199,192,192935,1,0,0:0:0:40:G6R.wav
142,192,193011,1,0,0:0:0:40:D#6R_Eb6R.wav
426,192,193314,1,0,0:0:0:40:A#6R_Bb6R.wav
312,192,193920,1,0,0:0:0:40:C#4R_Db4R.wav
369,192,194526,1,0,0:0:0:40:C6R.wav
483,192,194526,1,0,0:0:0:40:D#6R_Eb6R.wav
256,192,196344,1,0,0:0:0:40:A#3R_Bb3R.wav
369,192,196950,1,0,0:0:0:40:C6R.wav
426,192,196950,1,0,0:0:0:40:D#6R_Eb6R.wav
199,192,198768,1,0,0:0:0:40:G#3R_Ab3R.wav
256,192,199374,1,0,0:0:0:40:D#5R_Eb5R.wav
312,192,199374,1,0,0:0:0:40:G5R.wav
142,192,201193,1,0,0:0:0:40:F3R.wav
199,192,201799,1,0,0:0:0:40:D#5R_Eb5R.wav
312,192,201799,1,0,0:0:0:40:G5R.wav
312,192,203617,1,0,0:0:0:40:C#4R_Db4R.wav
369,192,204223,1,0,0:0:0:40:C6R.wav
483,192,204223,1,0,0:0:0:40:D#6R_Eb6R.wav
256,192,206041,1,0,0:0:0:40:A#3R_Bb3R.wav
369,192,206647,1,0,0:0:0:40:C6R.wav
426,192,206647,1,0,0:0:0:40:D#6R_Eb6R.wav
199,192,208465,1,0,0:0:0:40:G#3R_Ab3R.wav
256,192,209071,1,0,0:0:0:40:D#5R_Eb5R.wav
312,192,209071,1,0,0:0:0:40:G5R.wav
142,192,210890,1,0,0:0:0:40:F3R.wav
256,192,211496,1,0,0:0:0:40:D#5R_Eb5R.wav
312,192,211496,1,0,0:0:0:40:G5R.wav
