osu file format v14

[General]
AudioFilename: audio.mp3
AudioLeadIn: 0
PreviewTime: 8393
Countdown: 0
SampleSet: Soft
StackLeniency: 0.6
Mode: 0
LetterboxInBreaks: 0
WidescreenStoryboard: 1

[Editor]
DistanceSpacing: 1
BeatDivisor: 4
GridSize: 32
TimelineZoom: 2.2

[Metadata]
Title:cute and soft
TitleUnicode:cute and soft
Artist:in love with a ghost
ArtistUnicode:in love with a ghost
Creator:fieryrage
Version:hard
Source:
Tags:ilwag fa featured artist mappers' guild mpg playful spirits instrumental electronic lo-fi lofi chillwave ambient midorijeon
BeatmapID:4455345
BeatmapSetID:2120553

[Difficulty]
HPDrainRate:5
CircleSize:4
OverallDifficulty:6
ApproachRate:7
SliderMultiplier:1.5
SliderTickRate:1

[Events]
//Background and Video events
0,0,"teddy bear jumpscare.jpg",0,0
//Break Periods
//Storyboard Layer 0 (Background)
//Storyboard Layer 1 (Fail)
//Storyboard Layer 2 (Pass)
//Storyboard Layer 3 (Foreground)
//Storyboard Layer 4 (Overlay)
//Storyboard Sound Samples

[TimingPoints]
182,517.241379310345,4,2,1,40,1,0
182,-125,4,2,1,40,0,0
2250,-125,4,2,1,30,0,0
4319,-125,4,2,1,40,0,0
6388,-125,4,2,1,30,0,0
8457,-100,4,2,1,50,0,0
14664,-125,4,2,1,50,0,0
16733,-100,4,2,1,50,0,0
22940,-125,4,2,1,50,0,0
25009,-90.9090909090909,4,2,1,50,0,0
31216,-111.111111111111,4,2,1,50,0,0
33285,-90.9090909090909,4,2,1,50,0,0
33802,-90.9090909090909,4,2,1,55,0,0
34837,-90.9090909090909,4,2,1,50,0,0
37423,-125,4,2,1,35,0,0
40009,-125,4,2,1,30,0,0
40526,-125,4,2,1,25,0,0
41044,-125,4,2,1,20,0,0
41561,-125,4,2,2,5,0,0

[Colours]
Combo1 : 170,170,170
Combo2 : 184,129,88
Combo3 : 232,188,140

[HitObjects]
79,173,182,5,2,2:2:0:0:
113,244,440,2,0,L|117:326,1,60,2|0,2:2|0:0,0:0:0:0:
186,217,957,2,0,L|188:276,1,60,2|0,2:2|0:0,0:0:0:0:
259,190,1475,2,0,L|263:272,1,60,2|0,2:2|0:0,0:0:0:0:
448,384,2250,5,2,2:2:0:0:
402,345,2509,1,2,2:2:0:0:
416,286,2768,1,0,0:0:0:0:
384,188,3285,5,0,0:0:0:0:
430,227,3544,1,2,2:2:0:0:
416,286,3803,1,0,0:0:0:0:
259,190,4319,5,2,2:2:0:0:
186,217,4578,2,0,L|116:210,1,60,2|0,2:2|0:0,0:0:0:0:
97,283,5095,2,0,L|156:288,1,60,2|0,2:2|0:0,0:0:0:0:
256,295,5613,2,0,L|256:369,1,60,2|0,2:2|0:0,0:0:0:0:
370,252,6388,6,0,P|374:216|369:179,2,60,2|2|0,2:2|2:2|0:0,0:0:0:0:
142,252,7423,6,0,P|138:216|143:179,2,60,0|2|0,0:0|2:2|0:0,0:0:0:0:
256,384,8457,5,2,3:2:0:0:
297,321,8716,1,2,2:2:0:0:
364,354,8975,1,10,2:2:0:0:
428,315,9233,2,0,P|451:246|433:165,1,150,2|0,2:2|0:0,0:0:0:0:
386,115,10009,1,10,2:2:0:0:
341,175,10268,6,0,P|279:183|220:50,1,225,2|10,2:2|2:2,0:0:0:0:
150,20,11302,1,2,2:2:0:0:
88,63,11561,2,0,L|82:146,1,75,0|2,3:3|2:2,0:0:0:0:
75,212,12078,1,8,2:2:0:0:
68,286,12337,2,0,L|39:322,1,37.5,2|2,2:2|2:2,0:0:0:0:
21,344,12595,5,2,3:2:0:0:
88,377,12854,1,2,2:2:0:0:
147,331,13113,1,8,2:2:0:0:
256,282,13630,6,0,L|256:205,1,75,0|2,3:3|2:2,0:0:0:0:
256,131,14147,1,8,2:2:0:0:
365,53,14664,6,0,P|396:62|431:59,2,60,2|2|8,3:2|2:2|2:2,0:0:0:0:
147,53,15699,6,0,P|116:62|81:59,2,60,0|2|8,3:3|2:2|2:2,0:0:0:0:
256,131,16733,5,2,3:2:0:0:
324,162,16992,1,2,2:2:0:0:
384,117,17250,1,10,2:2:0:0:
428,177,17509,2,0,L|419:352,1,150,2|0,2:2|0:0,0:0:0:0:
360,371,18285,1,10,2:2:0:0:
339,298,18544,6,0,P|287:219|167:245,1,225,2|10,2:2|2:2,0:0:0:0:
144,309,19578,1,2,2:2:0:0:
72,286,19837,2,0,P|80:244|78:199,1,75,0|0,3:3|0:0,0:0:0:0:
67,136,20354,1,10,2:2:0:0:
122,85,20613,1,2,2:2:0:0:
122,85,20742,1,2,2:2:0:0:
122,85,20871,6,0,P|168:70|198:74,1,75,2|2,3:2|2:2,0:0:0:0:
256,114,21388,1,8,2:2:0:0:
390,85,21906,6,0,P|344:70|314:74,1,75,0|2,3:3|2:2,0:0:0:0:
256,114,22423,1,8,2:2:0:0:
256,270,22940,5,2,3:2:0:0:
256,192,23069,12,8,24492,2:2:0:0:
256,270,25009,5,2,3:2:0:0:
232,349,25268,1,2,2:2:0:0:
153,324,25526,1,10,2:2:0:0:
177,245,25785,2,0,L|167:73,1,165.000005035401,2|0,2:2|0:0,0:0:0:0:
217,14,26561,1,10,2:2:0:0:
259,84,26819,6,0,P|288:114|408:111,1,165.000005035401,2|0,2:2|0:0,0:0:0:0:
459,53,27595,1,10,2:2:0:0:
499,124,27854,1,2,2:2:0:0:
460,196,28113,2,0,P|448:234|450:281,1,82.5000025177003,0|0,3:3|0:0,0:0:0:0:
470,356,28630,1,10,2:2:0:0:
398,337,28888,1,2,2:2:0:0:
398,337,29018,1,2,2:2:0:0:
398,337,29147,6,0,L|302:333,1,82.5000025177003,2|2,3:2|2:2,0:0:0:0:
256,275,29664,1,8,2:2:0:0:
114,337,30182,6,0,L|210:333,1,82.5000025177003,0|2,3:3|2:2,0:0:0:0:
256,275,30699,1,8,2:2:0:0:
256,192,30957,1,0,0:0:0:0:
256,109,31216,6,0,L|256:31,2,67.4999979400635,2|2|8,3:2|2:2|2:2,0:0:0:0:
256,275,32250,6,0,L|256:353,2,67.4999979400635,0|2|8,3:3|2:2|2:2,0:0:0:0:
256,109,33285,5,2,3:2:0:0:
176,131,33544,1,2,2:2:0:0:
120,70,33802,1,10,2:2:0:0:
44,103,34061,2,0,P|14:160|19:265,1,165.000005035401,2|0,2:2|0:0,0:0:0:0:
76,315,34837,1,10,2:2:0:0:
158,309,35095,6,0,L|351:300,1,165.000005035401,2|0,2:2|0:0,0:0:0:0:
405,297,35871,1,10,2:2:0:0:
371,221,36130,1,2,2:2:0:0:
420,155,36388,2,0,P|437:119|435:71,1,82.5000025177003,0|0,3:3|0:0,0:0:0:0:
399,2,36906,1,10,2:2:0:0:
338,55,37164,1,2,2:2:0:0:
338,55,37294,1,2,2:2:0:0:
338,55,37423,6,0,L|205:49,1,120,2|0,2:2|0:0,0:0:0:0:
158,45,38199,1,2,2:2:0:0:
256,192,38975,5,0,0:0:0:0:
256,192,39104,12,0,41561,0:0:0:0:
