osu file format v14

[General]
AudioFilename: audio.mp3
AudioLeadIn: 0
PreviewTime: 149
Countdown: 0
SampleSet: Soft
StackLeniency: 0.7
Mode: 2
LetterboxInBreaks: 0
WidescreenStoryboard: 1

[Editor]
DistanceSpacing: 2.4
BeatDivisor: 4
GridSize: 8
TimelineZoom: 1

[Metadata]
Title:cute and soft
TitleUnicode:cute and soft
Artist:in love with a ghost
ArtistUnicode:in love with a ghost
Creator:bigh
Version:rain
Source:
Tags:ilwag playful spirits electronic instrumental lo-fi lofi chillwave ambient chillout electronica lgbt lgbtq pride fa featured artist mappers' guild mpg bighzonda
BeatmapID:3576004
BeatmapSetID:1748257

[Difficulty]
HPDrainRate:6
CircleSize:4.5
OverallDifficulty:8.5
ApproachRate:8.5
SliderMultiplier:2.4
SliderTickRate:2

[Events]
//Background and Video events
0,0,"bg.jpg",0,0
//Break Periods
//Storyboard Layer 0 (Background)
//Storyboard Layer 1 (Fail)
//Storyboard Layer 2 (Pass)
//Storyboard Layer 3 (Foreground)
//Storyboard Layer 4 (Overlay)
//Storyboard Sound Samples

[TimingPoints]
182,517.241379310345,4,2,1,40,1,0
8457,-100,4,2,1,50,0,0
25009,-100,4,2,1,60,0,0
33802,-100,4,2,1,70,0,0
37682,-100,4,2,1,40,0,0

[Colours]
Combo1 : 216,219,155
Combo2 : 150,217,147
Combo3 : 107,158,220

[HitObjects]
152,112,182,6,0,L|32:112,2,120,2|0|0,0:0|0:0|0:0,0:0:0:0:
368,112,957,2,0,L|368:240,1,120,2|0,0:3|0:0,0:0:0:0:
152,176,1475,2,0,L|152:304,1,120,2|0,0:1|0:0,0:0:0:0:
272,296,1992,1,0,0:0:0:0:
152,296,2250,5,0,0:0:0:0:
32,296,2509,2,0,L|32:160,1,120
152,296,3026,1,0,0:0:0:0:
272,296,3285,1,0,0:0:0:0:
152,296,3544,2,0,L|152:168,2,120
368,112,4319,6,0,L|488:112,2,120,2|0|0,0:0|0:0|0:0,0:0:0:0:
152,112,5094,2,0,L|152:240,1,120,2|0,0:3|0:0,0:0:0:0:
368,176,5613,2,0,L|368:304,1,120,2|0,0:1|0:0,0:0:0:0:
248,296,6129,1,0,0:0:0:0:
368,296,6387,5,0,0:0:0:0:
488,296,6646,2,0,L|488:160,1,120
368,296,7163,1,0,0:0:0:0:
248,296,7422,1,0,0:0:0:0:
368,296,7682,1,0,0:0:0:0:
248,296,7940,2,0,L|232:328,6,30
464,208,8457,6,0,B|508:166|508:166|464:208,1,120,12|0,0:2|0:2,0:0:0:0:
232,56,8975,1,8,0:2:0:0:
112,56,9233,2,0,L|112:184,1,120,0|2,0:0|0:1,0:0:0:0:
232,184,9750,1,2,0:3:0:0:
16,184,10009,2,0,L|16:64,1,120,8|0,0:0|0:0,0:0:0:0:
232,56,10526,6,0,L|368:56,1,120,8|0,0:2|0:0,0:0:0:0:
136,120,11044,2,0,L|8:120,1,120,8|0,0:2|0:0,0:0:0:0:
232,184,11561,2,0,L|232:56,1,120,8|0,0:2|0:0,0:0:0:0:
16,64,12078,2,0,L|16:184,1,120,8|2,0:2|0:1,0:0:0:0:
80,184,12466,1,2,0:1:0:0:
144,184,12595,5,2,0:2:0:0:
488,96,12854,2,0,L|368:96,1,120,6|8,0:2|0:2,0:0:0:0:
152,96,13371,1,0,0:0:0:0:
272,96,13630,2,0,L|152:96,1,120,8|0,0:2|0:0,0:0:0:0:
368,184,14147,2,0,L|248:184,1,120,8|0,0:2|0:0,0:0:0:0:
464,144,14664,6,0,L|464:272,1,120,8|0,0:2|0:0,0:0:0:0:
248,16,15182,2,0,L|248:144,1,120,8|0,0:0|0:0,0:0:0:0:
464,144,15699,1,8,0:2:0:0:
248,152,15957,2,0,L|240:184,1,30,2|0,0:2|0:0,0:0:0:0:
336,80,16216,1,8,0:2:0:0:
376,96,16302,1,0,0:0:0:0:
400,120,16388,1,0,0:0:0:0:
400,120,16475,1,0,0:0:0:0:
376,96,16561,1,0,0:0:0:0:
336,80,16647,1,0,0:0:0:0:
192,72,16733,6,0,L|56:72,1,120,12|0,0:0|0:0,0:0:0:0:
272,72,17250,1,8,0:2:0:0:
392,72,17509,2,0,L|392:200,1,120,2|2,0:2|0:1,0:0:0:0:
272,72,18026,1,2,0:2:0:0:
56,64,18285,2,0,L|184:64,1,120,8|0,0:2|0:0,0:0:0:0:
392,168,18802,6,0,L|152:168,1,240,12|8,0:2|0:2,0:0:0:0:
32,168,19578,1,0,0:0:0:0:
248,168,19837,2,0,L|488:168,1,240,8|8,0:2|0:0,0:0:0:0:
488,104,20613,1,2,0:1:0:0:
488,104,20742,1,2,0:1:0:0:
424,104,20871,5,2,0:2:0:0:
80,104,21130,2,0,L|216:104,1,120,4|8,0:2|0:2,0:0:0:0:
80,104,21647,1,2,0:2:0:0:
304,104,21906,2,0,L|432:104,1,120,8|0,0:2|0:0,0:0:0:0:
208,184,22423,2,0,L|88:184,1,120,8|0,0:2|0:0,0:0:0:0:
304,104,22940,6,0,L|304:224,1,120,8|0,0:2|0:0,0:0:0:0:
232,224,23328,1,0,0:0:0:0:
160,224,23457,2,0,L|96:224,2,60,8|0|0,0:2|0:0|0:0,0:0:0:0:
232,224,23845,1,0,0:0:0:0:
376,208,23975,2,0,L|376:104,1,60,10|0,0:2|0:0,0:0:0:0:
192,128,24233,2,0,L|96:128,1,60,2|2,0:2|0:1,0:0:0:0:
336,80,24492,2,0,L|400:80,1,60,8|2,0:2|0:1,0:0:0:0:
424,48,24750,1,2,0:2:0:0:
396,80,24880,1,0,0:0:0:0:
208,40,25009,6,0,L|72:40,1,120,12|0,0:2|0:0,0:0:0:0:
304,40,25526,1,8,0:2:0:0:
424,96,25785,2,0,L|288:96,1,120,0|2,0:0|0:1,0:0:0:0:
184,96,26302,1,2,0:2:0:0:
400,128,26561,2,0,B|451:160|451:160|400:192,1,120,10|0,0:2|0:0,0:0:0:0:
184,112,27078,6,0,B|133:80|133:80|184:48,1,120,8|0,0:2|0:0,0:0:0:0:
400,88,27595,2,0,L|280:88,1,120,8|0,0:2|0:0,0:0:0:0:
64,80,28113,2,0,L|64:208,1,120,8|0,0:2|0:0,0:0:0:0:
280,208,28630,1,8,0:2:0:0:
400,248,28888,1,2,0:1:0:0:
424,248,29018,1,2,0:1:0:0:
368,248,29147,5,2,0:2:0:0:
40,264,29406,2,0,L|40:128,1,120,14|8,0:2|0:2,0:0:0:0:
256,72,29923,1,2,0:1:0:0:
136,144,30182,2,0,L|264:144,1,120,8|0,0:2|0:0,0:0:0:0:
40,216,30699,2,0,L|168:216,1,120,8|0,0:2|0:0,0:0:0:0:
376,144,31216,6,0,L|248:144,1,120,8|0,0:2|0:0,0:0:0:0:
472,72,31733,2,0,L|344:72,1,120,8|0,0:2|0:0,0:0:0:0:
136,72,32250,1,8,0:2:0:0:
352,72,32509,2,0,L|360:32,1,30,2|0,0:2|0:0,0:0:0:0:
264,72,32768,2,0,L|176:72,2,80,8|0|0,0:2|0:0|0:0,0:0:0:0:
24,104,33285,6,0,L|24:232,1,120,12|0,0:2|0:0,0:0:0:0:
360,224,33802,1,10,0:2:0:0:
240,176,34061,2,0,L|240:48,1,120,0|10,0:0|0:2,0:0:0:0:
456,48,34578,1,2,0:2:0:0:
136,40,34837,2,0,L|0:40,1,120,10|0,0:2|0:0,0:0:0:0:
232,112,35354,6,0,L|368:112,1,120,8|0,0:2|0:0,0:0:0:0:
136,168,35871,2,0,L|136:296,1,120,8|0,0:2|0:0,0:0:0:0:
352,240,36388,2,0,L|480:240,1,120,8|0,0:2|0:0,0:0:0:0:
256,144,36906,2,0,L|128:144,1,120,8|2,0:2|0:1,0:0:0:0:
192,144,37294,1,2,0:1:0:0:
256,144,37423,5,2,0:2:0:0:
256,192,37682,12,0,41561,0:3:0:0:
