osu file format v14

[General]
AudioFilename: audio.mp3
AudioLeadIn: 0
PreviewTime: 149
Countdown: 0
SampleSet: Soft
StackLeniency: 0.7
Mode: 2
LetterboxInBreaks: 0
WidescreenStoryboard: 1

[Editor]
DistanceSpacing: 2.4
BeatDivisor: 4
GridSize: 8
TimelineZoom: 1

[Metadata]
Title:cute and soft
TitleUnicode:cute and soft
Artist:in love with a ghost
ArtistUnicode:in love with a ghost
Creator:bigh
Version:cup
Source:
Tags:ilwag playful spirits electronic instrumental lo-fi lofi chillwave ambient chillout electronica lgbt lgbtq pride fa featured artist mappers' guild mpg bighzonda
BeatmapID:3576002
BeatmapSetID:1748257

[Difficulty]
HPDrainRate:3
CircleSize:3
OverallDifficulty:6
ApproachRate:6
SliderMultiplier:1.8
SliderTickRate:1

[Events]
//Background and Video events
0,0,"bg.jpg",0,0
//Break Periods
//Storyboard Layer 0 (Background)
//Storyboard Layer 1 (Fail)
//Storyboard Layer 2 (Pass)
//Storyboard Layer 3 (Foreground)
//Storyboard Layer 4 (Overlay)
//Storyboard Sound Samples

[TimingPoints]
182,517.241379310345,4,2,1,40,1,0
8457,-100,4,2,1,50,0,0
25009,-100,4,2,1,60,0,0
33802,-100,4,2,1,70,0,0
37682,-100,4,2,1,40,0,0

[Colours]
Combo1 : 216,219,155
Combo2 : 150,217,147
Combo3 : 107,158,220

[HitObjects]
192,208,182,6,0,P|102:154|200:77,1,270,2|2,0:0|0:3,0:0:0:0:
378,109,1475,1,2,0:1:0:0:
104,152,2250,5,0,0:0:0:0:
104,232,2509,2,0,L|392:232,1,270,0|0,0:0|0:0,0:0:0:0:
374,152,3544,1,0,0:0:0:0:
104,64,4319,6,0,L|376:64,1,270,2|2,0:0|0:3,0:0:0:0:
192,144,5613,1,2,0:1:0:0:
464,80,6388,5,0,0:0:0:0:
464,80,6647,2,0,B|280:80|280:80|280:184,1,270,0|0,0:0|0:0,0:0:0:0:
280,166,7682,1,0,0:0:0:0:
16,96,8457,6,0,B|16:48|16:48|160:40,1,180,12|8,0:2|0:2,0:0:0:0:
240,32,9233,2,0,P|312:80|192:168,1,270,0|8,0:0|0:0,0:0:0:0:
120,104,10268,6,0,B|103:195|103:195|132:277|132:277|260:279,1,270,0|8,0:0|0:2,0:0:0:0:
312,272,11302,2,0,P|400:208|336:80,1,270,0|8,0:0|0:2,0:0:0:0:
251,42,12337,1,2,0:1:0:0:
160,40,12595,6,0,L|160:152,1,90,2|6,0:2|0:2,0:0:0:0:
251,42,13113,1,8,0:2:0:0:
432,40,13630,2,0,L|432:152,1,90,8|0,0:2|0:0,0:0:0:0:
341,42,14148,1,8,0:2:0:0:
160,32,14664,6,0,L|160:224,1,180,8|8,0:2|0:0,0:0:0:0:
344,216,15699,1,8,0:2:0:0:
248,176,15957,2,0,L|248:80,1,90,2|8,0:2|0:2,0:0:0:0:
344,72,16475,1,0,0:0:0:0:
456,80,16733,6,0,B|440:176|440:176|336:192,1,180,12|8,0:0|0:2,0:0:0:0:
264,201,17509,2,0,B|448:177|448:177|352:161,1,270,2|8,0:2|0:2,0:0:0:0:
272,105,18544,6,0,B|136:89|136:89|96:121|96:121|72:209,1,270,0|8,0:0|0:2,0:0:0:0:
168,192,19578,2,0,B|296:192|296:192|160:144,1,270,0|8,0:0|0:0,0:0:0:0:
256,112,20613,1,2,0:1:0:0:
352,96,20871,6,0,L|352:0,1,90,2|4,0:2|0:2,0:0:0:0:
256,112,21388,1,8,0:2:0:0:
72,128,21906,2,0,L|72:224,1,90,8|0,0:2|0:0,0:0:0:0:
168,112,22423,1,8,0:2:0:0:
352,272,22940,6,0,B|352:92|352:92|161:92,1,360,8|10,0:2|0:2,0:0:0:0:
172,92,24233,1,2,0:2:0:0:
262,99,24492,2,0,L|268:1,1,90,8|2,0:2|0:2,0:0:0:0:
152,192,25009,6,0,B|96:184|96:184|110:145|110:145|203:156,1,180,12|8,0:2|0:2,0:0:0:0:
288,216,25785,2,0,B|306:260|306:260|78:277,1,270,0|10,0:0|0:2,0:0:0:0:
176,176,26819,6,0,P|232:160|160:24,1,270,0|8,0:0|0:2,0:0:0:0:
77,89,27854,2,0,B|12:152|12:152|17:286|17:286|79:297|79:297,1,270,0|8,0:0|0:2,0:0:0:0:
152,304,28888,1,2,0:1:0:0:
248,304,29147,6,0,L|264:208,1,90,2|14,0:2|0:2,0:0:0:0:
176,192,29664,1,8,0:2:0:0:
352,224,30182,2,0,L|368:128,1,90,8|0,0:2|0:0,0:0:0:0:
280,112,30699,1,8,0:2:0:0:
96,48,31216,6,0,L|288:48,1,180,8|8,0:2|0:2,0:0:0:0:
96,136,32250,2,0,L|208:136,1,90,8|2,0:2|0:2,0:0:0:0:
276,138,32768,2,0,L|276:42,1,90,8|0,0:2|0:0,0:0:0:0:
160,40,33285,6,0,B|104:48|104:48|96:80|96:80|208:80,1,180,12|10,0:2|0:2,0:0:0:0:
296,80,34061,2,0,B|184:80|184:80|104:136|104:136|192:168,1,270,0|10,0:0|0:2,0:0:0:0:
272,232,35095,6,0,B|415:219|415:219|304:152,1,270,0|8,0:0|0:2,0:0:0:0:
216,144,36130,2,0,B|110:69|110:69|184:224,1,270,0|8,0:0|0:2,0:0:0:0:
262,226,37164,1,2,0:1:0:0:
350,234,37423,5,2,0:2:0:0:
256,192,37940,12,0,41561,0:3:0:0:
