osu file format v14

[General]
AudioFilename: audio.mp3
AudioLeadIn: 0
PreviewTime: 8457
Countdown: 0
SampleSet: Soft
StackLeniency: 0.7
Mode: 3
LetterboxInBreaks: 0
SpecialStyle: 1
WidescreenStoryboard: 1

[Editor]
Bookmarks: 182,8457,16733,25009,33285,41561
DistanceSpacing: 2.4
BeatDivisor: 4
GridSize: 32
TimelineZoom: 2

[Metadata]
Title:cute and soft
TitleUnicode:cute and soft
Artist:in love with a ghost
ArtistUnicode:in love with a ghost
Creator:-NoName-
Version:normal
Source:
Tags:featured artist fa mg mpg mappers' guild Playful Spirits downtempo electronic instrumental ilwag lo-fi lofi chillwave ambient chillout electronica
BeatmapID:4455471
BeatmapSetID:2120611

[Difficulty]
HPDrainRate:7
CircleSize:7
OverallDifficulty:6.5
ApproachRate:5
SliderMultiplier:1.4
SliderTickRate:1

[Events]
//Background and Video events
0,0,"cristina-anne-costello-kNxcs0mZdvQ-unsplash.jpg",0,0
//Break Periods
//Storyboard Layer 0 (Background)
//Storyboard Layer 1 (Fail)
//Storyboard Layer 2 (Pass)
//Storyboard Layer 3 (Foreground)
//Storyboard Layer 4 (Overlay)
//Storyboard Sound Samples

[TimingPoints]
182,517.241379310345,4,2,1,25,1,0

[HitObjects]
36,192,182,5,0,0:0:0:0:
256,192,182,1,0,0:0:0:0:
402,192,440,1,0,0:0:0:0:
109,192,699,1,0,0:0:0:0:
329,192,957,1,0,0:0:0:0:
475,192,957,1,0,0:0:0:0:
36,192,1216,1,0,0:0:0:0:
256,192,1475,1,0,0:0:0:0:
402,192,1475,1,0,0:0:0:0:
109,192,1733,1,0,0:0:0:0:
475,192,1992,1,0,0:0:0:0:
36,192,2250,1,0,0:0:0:0:
402,192,2509,1,0,0:0:0:0:
109,192,2768,1,0,0:0:0:0:
475,192,3026,1,0,0:0:0:0:
36,192,3285,1,0,0:0:0:0:
402,192,3544,1,0,0:0:0:0:
109,192,3802,1,0,0:0:0:0:
475,192,4061,1,0,0:0:0:0:
36,192,4319,1,0,0:0:0:0:
256,192,4319,1,0,0:0:0:0:
402,192,4578,1,0,0:0:0:0:
109,192,4837,1,0,0:0:0:0:
329,192,5095,1,0,0:0:0:0:
475,192,5095,1,0,0:0:0:0:
36,192,5354,1,0,0:0:0:0:
256,192,5613,1,0,0:0:0:0:
402,192,5613,1,0,0:0:0:0:
109,192,5871,1,0,0:0:0:0:
475,192,6130,1,0,0:0:0:0:
36,192,6388,1,0,0:0:0:0:
402,192,6647,1,0,0:0:0:0:
109,192,6906,1,0,0:0:0:0:
475,192,7164,1,0,0:0:0:0:
36,192,7423,1,0,0:0:0:0:
402,192,7682,1,0,0:0:0:0:
109,192,7940,1,0,0:0:0:0:
475,192,8199,1,0,0:0:0:0:
36,192,8457,1,8,0:0:0:0:
182,192,8457,1,0,0:0:0:0:
475,192,8716,1,0,0:0:0:0:
182,192,8975,1,2,0:0:0:0:
329,192,8975,1,0,0:0:0:0:
36,192,9233,1,0,0:0:0:0:
109,192,9233,1,0,0:0:0:0:
402,192,9492,1,8,0:0:0:0:
475,192,9492,1,0,0:0:0:0:
36,192,9750,1,0,0:0:0:0:
182,192,10009,1,2,0:0:0:0:
329,192,10009,1,0,0:0:0:0:
402,192,10268,1,0,0:0:0:0:
475,192,10268,1,0,0:0:0:0:
36,192,10526,1,8,0:0:0:0:
109,192,10526,1,0,0:0:0:0:
329,192,10785,1,0,0:0:0:0:
182,192,11044,1,2,0:0:0:0:
475,192,11044,1,0,0:0:0:0:
109,192,11302,1,0,0:0:0:0:
402,192,11302,1,0,0:0:0:0:
36,192,11561,1,8,0:0:0:0:
329,192,11561,1,0,0:0:0:0:
182,192,11819,1,0,0:0:0:0:
402,192,12078,1,2,0:0:0:0:
475,192,12078,1,0,0:0:0:0:
256,192,12337,1,0,0:0:0:0:
36,192,12595,1,8,0:0:0:0:
109,192,12595,1,0,0:0:0:0:
475,192,12854,1,0,0:0:0:0:
182,192,13113,1,2,0:0:0:0:
329,192,13113,1,0,0:0:0:0:
109,192,13371,1,0,0:0:0:0:
36,192,13630,1,8,0:0:0:0:
402,192,13630,1,0,0:0:0:0:
256,192,13888,1,0,0:0:0:0:
109,192,14147,1,2,0:0:0:0:
475,192,14147,1,0,0:0:0:0:
36,192,14664,1,8,0:0:0:0:
402,192,14664,1,0,0:0:0:0:
329,192,14923,1,0,0:0:0:0:
109,192,15182,1,2,0:0:0:0:
475,192,15182,1,0,0:0:0:0:
256,192,15440,1,0,0:0:0:0:
36,192,15699,1,8,0:0:0:0:
402,192,15699,1,0,0:0:0:0:
182,192,15957,1,0,0:0:0:0:
402,192,16216,1,2,0:0:0:0:
475,192,16216,1,0,0:0:0:0:
36,192,16733,1,8,0:0:0:0:
182,192,16733,1,0,0:0:0:0:
329,192,16992,1,0,0:0:0:0:
36,192,17250,1,2,0:0:0:0:
475,192,17250,1,0,0:0:0:0:
109,192,17509,1,0,0:0:0:0:
182,192,17509,1,0,0:0:0:0:
329,192,17768,1,8,0:0:0:0:
402,192,17768,1,0,0:0:0:0:
182,192,18026,1,0,0:0:0:0:
36,192,18285,1,2,0:0:0:0:
475,192,18285,1,0,0:0:0:0:
329,192,18544,1,0,0:0:0:0:
402,192,18544,1,0,0:0:0:0:
109,192,18802,1,8,0:0:0:0:
182,192,18802,1,0,0:0:0:0:
475,192,19061,1,0,0:0:0:0:
36,192,19319,1,2,0:0:0:0:
329,192,19319,1,0,0:0:0:0:
109,192,19578,1,0,0:0:0:0:
402,192,19578,1,0,0:0:0:0:
182,192,19837,1,8,0:0:0:0:
475,192,19837,1,0,0:0:0:0:
36,192,20095,1,0,0:0:0:0:
402,192,20354,1,2,0:0:0:0:
475,192,20354,1,0,0:0:0:0:
182,192,20613,1,0,0:0:0:0:
329,192,20613,1,0,0:0:0:0:
36,192,20871,1,8,0:0:0:0:
109,192,20871,1,0,0:0:0:0:
329,192,21130,1,0,0:0:0:0:
256,192,21388,1,2,0:0:0:0:
475,192,21388,1,0,0:0:0:0:
109,192,21647,1,0,0:0:0:0:
182,192,21906,1,8,0:0:0:0:
402,192,21906,1,0,0:0:0:0:
256,192,22164,1,0,0:0:0:0:
109,192,22423,1,2,0:0:0:0:
329,192,22423,1,0,0:0:0:0:
182,192,22940,1,8,0:0:0:0:
402,192,22940,1,0,0:0:0:0:
475,192,23199,1,0,0:0:0:0:
109,192,23457,1,2,0:0:0:0:
329,192,23457,1,0,0:0:0:0:
256,192,23716,1,0,0:0:0:0:
182,192,23975,1,8,0:0:0:0:
402,192,23975,1,0,0:0:0:0:
36,192,24233,1,0,0:0:0:0:
329,192,24492,1,2,0:0:0:0:
475,192,24492,1,0,0:0:0:0:
36,192,25009,1,8,0:0:0:0:
329,192,25009,1,0,0:0:0:0:
256,192,25268,1,0,0:0:0:0:
182,192,25526,1,2,0:0:0:0:
475,192,25526,128,0,25785:0:0:0:0:
402,192,25785,128,0,26561:0:0:0:0:
109,192,26044,1,8,0:0:0:0:
182,192,26302,1,0,0:0:0:0:
36,192,26561,128,2,26819:0:0:0:0:
329,192,26561,1,0,0:0:0:0:
109,192,26819,128,0,27595:0:0:0:0:
402,192,27078,1,8,0:0:0:0:
329,192,27337,1,0,0:0:0:0:
182,192,27595,1,2,0:0:0:0:
475,192,27595,128,0,27854:0:0:0:0:
402,192,27854,128,0,28630:0:0:0:0:
109,192,28113,1,8,0:0:0:0:
182,192,28371,1,0,0:0:0:0:
36,192,28630,1,2,0:0:0:0:
329,192,28630,1,0,0:0:0:0:
256,192,28888,1,0,0:0:0:0:
182,192,29147,1,8,0:0:0:0:
475,192,29147,1,0,0:0:0:0:
329,192,29406,1,0,0:0:0:0:
109,192,29664,1,2,0:0:0:0:
402,192,29664,1,0,0:0:0:0:
182,192,29923,1,0,0:0:0:0:
36,192,30182,1,8,0:0:0:0:
329,192,30182,1,0,0:0:0:0:
256,192,30440,1,0,0:0:0:0:
109,192,30699,1,2,0:0:0:0:
475,192,30699,1,0,0:0:0:0:
36,192,31216,1,8,0:0:0:0:
329,192,31216,1,0,0:0:0:0:
109,192,31475,1,0,0:0:0:0:
182,192,31733,1,2,0:0:0:0:
402,192,31733,1,0,0:0:0:0:
329,192,31992,1,0,0:0:0:0:
109,192,32250,1,8,0:0:0:0:
475,192,32250,1,0,0:0:0:0:
256,192,32509,1,0,0:0:0:0:
36,192,32768,1,2,0:0:0:0:
182,192,32768,1,0,0:0:0:0:
36,192,33285,1,8,0:0:0:0:
109,192,33285,1,0,0:0:0:0:
256,192,33544,1,0,0:0:0:0:
402,192,33802,1,2,0:0:0:0:
475,192,33802,128,0,34061:0:0:0:0:
329,192,34061,128,0,34837:0:0:0:0:
182,192,34319,1,8,0:0:0:0:
475,192,34578,1,0,0:0:0:0:
36,192,34837,128,2,35095:0:0:0:0:
109,192,34837,1,0,0:0:0:0:
182,192,35095,128,0,35871:0:0:0:0:
329,192,35354,1,8,0:0:0:0:
36,192,35613,1,0,0:0:0:0:
402,192,35871,1,2,0:0:0:0:
475,192,35871,128,0,36130:0:0:0:0:
329,192,36130,128,0,36906:0:0:0:0:
109,192,36388,1,8,0:0:0:0:
475,192,36647,1,0,0:0:0:0:
109,192,36906,1,2,0:0:0:0:
182,192,36906,1,0,0:0:0:0:
256,192,37164,1,0,0:0:0:0:
36,192,37423,1,0,0:0:0:0:
475,192,37423,1,0,0:0:0:0:
329,192,37682,1,0,0:0:0:0:
402,192,37682,1,0,0:0:0:0:
109,192,37940,1,0,0:0:0:0:
475,192,38199,1,0,0:0:0:0:
36,192,38457,1,0,0:0:0:0:
402,192,38716,1,0,0:0:0:0:
109,192,38975,1,0,0:0:0:0:
475,192,39233,1,0,0:0:0:0:
36,192,39492,1,0,0:0:0:0:
402,192,39750,1,0,0:0:0:0:
109,192,40009,1,0,0:0:0:0:
475,192,40268,1,0,0:0:0:0:
36,192,40526,1,0,0:0:0:0:
402,192,40785,1,0,0:0:0:0:
109,192,41044,1,0,0:0:0:0:
256,192,41302,1,0,0:0:0:0:
