osu file format v14

[General]
AudioFilename: audio.mp3
AudioLeadIn: 0
PreviewTime: 19075
Countdown: 1
SampleSet: Soft
StackLeniency: 0.7
Mode: 0
LetterboxInBreaks: 0
WidescreenStoryboard: 1

[Editor]
Bookmarks: 48025,57625,67225,76825,86425
DistanceSpacing: 1.2
BeatDivisor: 2
GridSize: 4
TimelineZoom: 1

[Metadata]
Title:complex feelings about my own existence feat. jungkook
TitleUnicode:complex feelings about my own existence feat. jungkook
Artist:in love with a ghost
ArtistUnicode:in love with a ghost
Creator:Cerberus Roze
Version:Light Hard
Source:
Tags:
BeatmapID:1513369
BeatmapSetID:716105

[Difficulty]
HPDrainRate:4
CircleSize:3.7
OverallDifficulty:7
ApproachRate:8
SliderMultiplier:1.39999990463257
SliderTickRate:1

[Events]
//Background and Video events
0,0,"NICOMAKIAAAAAAAAAAA.png",0,0
//Break Periods
//Storyboard Layer 0 (Background)
//Storyboard Layer 1 (Fail)
//Storyboard Layer 2 (Pass)
//Storyboard Layer 3 (Foreground)
//Storyboard Sound Samples

[TimingPoints]
1225,300,4,2,1,45,1,0
19225,-100,4,2,1,45,0,1
38425,-153.846153846154,4,2,1,45,0,0

[HitObjects]
49,68,19225,6,0,P|41:135|59:208,1,139.999990463257,8|0,0:0|0:0,0:0:0:0:
100,277,19675,1,2,0:0:0:0:
161,219,19825,2,0,L|312:220,1,139.999990463257,8|0,0:1|0:0,0:0:0:0:
367,272,20275,1,2,0:0:0:0:
442,234,20425,2,0,P|457:157|442:94,1,139.999990463257,2|0,0:0|0:0,0:0:0:0:
377,149,20875,1,2,0:0:0:0:
372,65,21025,2,0,L|225:47,1,139.999990463257,8|0,0:1|0:0,0:0:0:0:
148,45,21475,1,2,0:0:0:0:
0,129,21625,6,0,B|97:95|100:164|209:128,1,209.999985694886,8|0,0:0|0:0,0:0:0:0:
279,88,22225,2,0,P|346:73|418:88,1,139.999990463257,2|0,0:0|0:0,0:0:0:0:
479,141,22675,1,2,0:0:0:0:
434,211,22825,2,0,P|397:230|365:229,2,69.9999952316285,8|0|0,0:1|0:0|0:0,0:0:0:0:
373,152,23275,1,2,0:0:0:0:
300,195,23425,2,0,L|241:148,1,69.9999952316285,6|0,0:0|0:0,0:0:0:0:
234,217,23725,2,0,L|175:170,1,69.9999952316285,2|0,0:0|0:0,0:0:0:0:
99,111,24025,6,0,B|60:217|131:219|99:321,1,209.999985694886,8|0,0:0|0:0,0:0:0:0:
34,368,24625,2,0,P|106:354|176:368,1,139.999990463257,8|0,0:1|0:0,0:0:0:0:
253,382,25075,1,2,0:0:0:0:
325,339,25225,2,0,P|311:264|325:199,1,139.999990463257,2|0,0:0|0:0,0:0:0:0:
385,145,25675,1,2,0:0:0:0:
358,65,25825,2,0,P|288:105|250:163,1,139.999990463257,8|0,0:1|0:0,0:0:0:0:
231,234,26275,1,2,0:0:0:0:
280,301,26425,6,0,B|181:341|180:263|68:301,1,209.999985694886,12|0,0:0|0:0,0:0:0:0:
11,354,27025,2,0,L|-3:200,1,139.999990463257,2|0,0:0|0:0,0:0:0:0:
19,132,27475,1,2,0:0:0:0:
85,183,27625,2,0,P|163:189|232:167,1,139.999990463257,8|0,0:1|0:0,0:0:0:0:
283,115,28075,1,2,0:0:0:0:
352,161,28225,2,0,L|441:155,2,69.9999952316285,4|0|0,0:0|0:0|0:0,0:0:0:0:
283,115,28675,1,2,0:0:0:0:
203,87,28825,6,0,B|104:43|103:116|-9:66,1,209.999985694886,8|0,0:0|0:0,0:0:0:0:
16,151,29425,2,0,P|31:232|16:292,1,139.999990463257,8|0,0:1|0:0,0:0:0:0:
102,282,29875,1,2,0:0:0:0:
141,356,30025,2,0,L|289:365,1,139.999990463257,2|0,0:0|0:0,0:0:0:0:
362,341,30475,1,2,0:0:0:0:
320,268,30625,2,0,L|288:197,2,69.9999952316285,8|0|0,0:1|0:0|0:0,0:0:0:0:
362,341,31075,1,2,0:0:0:0:
433,297,31225,6,0,B|485:205|415:182|459:89,1,209.999985694886,8|0,0:0|0:0,0:0:0:0:
396,34,31825,2,0,P|320:50|255:34,1,139.999990463257,2|0,0:0|0:0,0:0:0:0:
178,17,32275,1,2,0:0:0:0:
179,100,32425,2,0,P|168:174|129:232,1,139.999990463257,8|0,0:1|0:0,0:0:0:0:
71,286,32875,1,0,0:0:0:0:
152,307,33025,2,0,L|229:277,1,69.9999952316285,4|0,0:0|0:0,0:0:0:0:
195,319,33325,2,0,L|272:289,1,69.9999952316285,2|0,0:0|0:0,0:0:0:0:
321,352,33625,6,0,B|375:257|296:234|343:142,1,209.999985694886,8|0,0:0|0:0,0:0:0:0:
422,134,34225,2,0,P|445:59|438:-7,1,139.999990463257,8|0,0:1|0:0,0:0:0:0:
370,47,34675,1,2,0:0:0:0:
342,126,34825,2,0,P|264:107|202:110,1,139.999990463257,2|0,0:0|0:0,0:0:0:0:
149,172,35275,1,2,0:0:0:0:
69,146,35425,2,0,P|115:89|132:18,1,139.999990463257,8|0,0:1|0:0,0:0:0:0:
199,75,35875,1,2,0:0:0:0:
273,114,36025,6,0,B|339:20|381:78|449:-9,1,209.999985694886,12|0,0:0|0:0,0:0:0:0:
469,78,36625,2,0,P|455:155|469:217,1,139.999990463257,2|0,0:0|0:0,0:0:0:0:
507,288,37075,1,2,0:0:0:0:
438,336,37225,2,0,P|370:323|311:271,1,139.999990463257,8|0,0:1|0:0,0:0:0:0:
267,210,37675,1,2,0:0:0:0:
340,168,37825,2,0,L|405:121,1,69.9999952316285,2|0,0:0|0:0,0:0:0:0:
320,89,38125,2,0,L|297:19,1,69.9999952316285,2|0,0:0|0:0,0:0:0:0:
222,62,38425,6,0,L|222:115,3,45.4999948177341,4|0|0|0,0:0|0:0|0:0|0:0,0:0:0:0:
168,117,39025,2,0,L|121:138,3,45.4999948177341,4|0|0|0,0:0|0:0|0:0|0:0,0:0:0:0:
86,173,39625,2,0,L|30:173,3,45.4999948177341,4|0|0|0,0:0|0:0|0:0|0:0,0:0:0:0:
59,224,40225,2,0,L|107:246,3,45.4999948177341,4|0|0|0,0:0|0:0|0:0|0:0,0:0:0:0:
156,313,40825,6,0,P|175:241|222:200,1,136.499984453202,6|0,0:0|0:0,0:0:0:0:
299,214,41425,2,0,L|289:169,3,45.4999948177341,4|0|0|0,0:0|0:0|0:0|0:0,0:0:0:0:
378,214,42025,2,0,L|388:169,3,45.4999948177341,4|0|0|0,0:0|0:0|0:0|0:0,0:0:0:0:
425,275,42625,2,0,L|424:334,3,45.4999948177341,4|0|0|0,0:0|0:0|0:0|0:0,0:0:0:0:
326,347,43225,6,0,L|270:339,1,45.4999948177341,8|0,0:0|0:0,0:0:0:0:
228,356,43525,2,0,L|172:364,1,45.4999948177341,4|0,0:0|0:0,0:0:0:0:
133,337,43825,2,0,L|99:291,1,45.4999948177341,8|0,0:0|0:0,0:0:0:0:
61,220,44125,1,4,0:0:0:0:
51,115,44425,1,8,0:0:0:0:
141,36,44725,1,8,0:0:0:0:
266,28,45025,2,0,L|306:47,3,45.4999948177341,4|0|0|0,0:0|0:0|0:0|0:0,0:0:0:0:
321,123,45625,2,0,L|362:103,3,45.4999948177341,4|0|0|0,0:0|0:0|0:0|0:0,0:0:0:0:
382,32,46225,2,0,L|422:51,3,45.4999948177341,4|0|0|0,0:0|0:0|0:0|0:0,0:0:0:0:
495,82,46825,1,8,0:1:0:0:
266,28,47425,5,4,0:0:0:0:
427,328,48025,6,0,L|245:312,1,181.999979270936,8|8,0:0|0:1,0:0:0:0:
141,277,48925,2,0,P|127:226|129:185,1,90.9999896354681,2|0,0:0|0:0,0:0:0:0:
183,93,49525,1,2,0:0:0:0:
214,197,49825,2,0,L|306:197,1,90.9999896354681,8|0,0:1|0:0,0:0:0:0:
382,274,50425,6,0,B|447:207|379:172|437:99,1,181.999979270936,8|8,0:0|0:1,0:0:0:0:
505,23,51325,2,0,L|396:24,1,90.9999896354681,2|0,0:0|0:0,0:0:0:0:
336,101,51925,1,2,0:0:0:0:
262,19,52225,2,0,P|216:9|171:19,1,90.9999896354681,8|0,0:1|0:0,0:0:0:0:
76,68,52825,6,0,B|43:155|106:162|75:251,1,181.999979270936,8|8,0:0|0:1,0:0:0:0:
7,330,53725,2,0,L|108:329,1,90.9999896354681,2|0,0:0|0:0,0:0:0:0:
188,267,54325,1,2,0:0:0:0:
97,205,54625,2,0,P|90:160|97:115,1,90.9999896354681,8|0,0:1|0:0,0:0:0:0:
179,43,55225,6,0,B|263:14|263:75|357:49,1,181.999979270936,8|8,0:0|0:1,0:0:0:0:
462,20,56125,1,2,0:0:0:0:
423,122,56425,1,2,0:0:0:0:
341,194,56725,1,2,0:0:0:0:
214,151,57025,1,8,0:1:0:0:
298,110,57325,1,8,0:1:0:0:
253,230,57625,6,0,P|253:285|272:322,1,90.9999896354681,8|0,0:0|0:0,0:0:0:0:
390,384,58225,2,0,L|409:291,1,90.9999896354681,8|0,0:1|0:0,0:0:0:0:
330,265,58825,1,2,0:0:0:0:
330,265,59125,1,2,0:0:0:0:
331,183,59425,2,0,L|393:159,1,45.4999948177341,2|0,0:0|0:0,0:0:0:0:
381,191,59725,2,0,L|443:167,1,45.4999948177341,2|0,0:0|0:0,0:0:0:0:
491,234,60025,6,0,B|533:154|466:130|505:53,1,181.999979270936,8|8,0:0|0:1,0:0:0:0:
263,304,61225,1,2,0:0:0:0:
161,263,61525,2,0,L|99:239,1,45.4999948177341,2|0,0:0|0:0,0:0:0:0:
113,271,61825,2,0,L|51:247,1,45.4999948177341,2|0,0:0|0:0,0:0:0:0:
263,304,62125,1,4,0:0:0:0:
263,304,62425,6,0,L|263:211,1,90.9999896354681,8|0,0:0|0:0,0:0:0:0:
198,124,63025,2,0,P|146:93|132:47,1,90.9999896354681,8|0,0:1|0:0,0:0:0:0:
128,176,63625,1,2,0:0:0:0:
217,41,63925,1,2,0:0:0:0:
277,249,64225,2,0,P|308:301|351:326,1,90.9999896354681,8|0,0:1|0:0,0:0:0:0:
181,210,64825,6,0,B|105:155|96:224|-1:167,1,181.999979270936,8|8,0:0|0:1,0:0:0:0:
74,105,65725,1,2,0:0:0:0:
117,267,66025,2,0,L|159:312,1,45.4999948177341,2|0,0:0|0:0,0:0:0:0:
165,278,66325,2,0,L|207:323,1,45.4999948177341,2|0,0:0|0:0,0:0:0:0:
264,325,66625,2,0,L|222:280,1,45.4999948177341,8|0,0:1|0:0,0:0:0:0:
166,220,66925,1,2,0:0:0:0:
328,382,67225,6,0,B|378:302|314:288|360:203,1,181.999979270936,12|8,0:0|0:1,0:0:0:0:
448,145,68125,2,0,L|462:50,1,90.9999896354681,2|0,0:0|0:0,0:0:0:0:
356,85,68725,1,2,0:0:0:0:
247,99,69025,2,0,L|130:72,1,90.9999896354681,8|4,0:1|0:0,0:0:0:0:
71,11,69625,6,0,B|28:103|92:116|46:200,1,181.999979270936,8|8,0:0|0:1,0:0:0:0:
2,286,70525,2,0,P|46:275|93:281,1,90.9999896354681,2|0,0:0|0:0,0:0:0:0:
184,336,71125,1,2,0:0:0:0:
266,264,71425,1,2,0:0:0:0:
266,264,71725,1,2,0:0:0:0:
266,264,72025,6,0,L|255:161,1,90.9999896354681,8|0,0:0|0:0,0:0:0:0:
362,200,72625,2,0,L|373:97,1,90.9999896354681,4|0,0:0|0:0,0:0:0:0:
266,139,73225,2,0,L|255:36,1,90.9999896354681,2|0,0:0|0:0,0:0:0:0:
357,89,73825,2,0,L|368:-14,1,90.9999896354681,8|4,0:1|0:0,0:0:0:0:
357,89,74425,6,0,B|321:177|384:196|336:277,1,181.999979270936,8|8,0:0|0:1,0:0:0:0:
249,324,75325,2,0,L|147:343,1,90.9999896354681,2|0,0:0|0:0,0:0:0:0:
177,231,75925,1,2,0:0:0:0:
79,280,76225,2,0,L|55:182,1,90.9999896354681,8|0,0:1|0:0,0:0:0:0:
5,95,76825,6,0,B|98:70|98:129|188:95,2,181.999979270936,8|8|0,0:0|0:1|0:0,0:0:0:0:
209,172,78625,2,0,L|301:130,1,90.9999896354681,8|0,0:1|0:0,0:0:0:0:
352,43,79225,6,0,B|413:116|360:141|429:208,2,181.999979270936,8|8|0,0:0|0:1|0:0,0:0:0:0:
363,261,81025,2,0,L|264:277,1,90.9999896354681,8|0,0:1|0:0,0:0:0:0:
203,359,81625,6,0,B|141:285|194:260|125:193,2,181.999979270936,8|8|0,0:0|0:1|0:0,0:0:0:0:
50,202,83425,2,0,L|103:116,1,90.9999896354681,8|0,0:1|0:0,0:0:0:0:
133,21,84025,6,0,B|220:61|182:106|273:138,2,181.999979270936,8|8|0,2:0|2:1|2:0,2:0:0:0:
97,124,85525,1,2,0:0:0:0:
118,231,85825,1,8,0:1:0:0:
184,317,86125,1,8,0:1:0:0:
289,346,86425,6,0,L|311:241,1,90.9999896354681
413,285,87025,2,0,L|391:180,1,90.9999896354681,8|0,0:1|0:0,0:0:0:0:
364,90,87625,1,2,0:0:0:0:
364,90,87925,1,2,0:0:0:0:
283,163,88225,2,0,L|221:139,1,45.4999948177341,8|0,0:1|0:0,0:0:0:0:
233,171,88525,2,0,L|171:147,1,45.4999948177341,4|0,0:0|0:0,0:0:0:0:
117,114,88825,6,0,B|80:186|147:210|105:290,1,181.999979270936,8|8,0:0|0:1,0:0:0:0:
274,151,90025,1,2,0:0:0:0:
350,228,90325,2,0,L|412:204,1,45.4999948177341,4|0,0:0|0:0,0:0:0:0:
398,236,90625,2,0,L|460:212,1,45.4999948177341,6|0,0:0|0:0,0:0:0:0:
491,200,90925,1,2,0:0:0:0:
491,200,91225,6,0,L|491:107,1,90.9999896354681,8|0,0:0|0:0,0:0:0:0:
390,153,91825,2,0,P|344:161|300:153,1,90.9999896354681,8|0,0:1|0:0,0:0:0:0:
216,81,92425,1,2,0:0:0:0:
338,44,92725,1,2,0:0:0:0:
248,175,93025,2,0,B|152:209|162:136|63:169,1,181.999979270936,8|8,0:1|0:0,0:0:0:0:
256,192,93925,12,0,96025,0:0:0:0:
