osu file format v14

[General]
AudioFilename: audio.mp3
AudioLeadIn: 0
PreviewTime: 8988
Countdown: 0
SampleSet: Soft
StackLeniency: 0.7
Mode: 2
LetterboxInBreaks: 0
WidescreenStoryboard: 1

[Editor]
Bookmarks: 26603
DistanceSpacing: 2.4
BeatDivisor: 4
GridSize: 4
TimelineZoom: 1

[Metadata]
Title:chilling at nemu's place
TitleUnicode:chilling at nemu's place
Artist:in love with a ghost
ArtistUnicode:in love with a ghost
Creator:bigh
Version:zirox's cup
Source:
Tags:ilwag healing electronic instrumental lo-fi lofi chillwave ambient chillout electronica lgbt lgbtq pride fa featured artist mappers' guild mpg zirox bighzonda
BeatmapID:3597222
BeatmapSetID:1757755

[Difficulty]
HPDrainRate:3
CircleSize:3
OverallDifficulty:6
ApproachRate:6
SliderMultiplier:2
SliderTickRate:1

[Events]
//Background and Video events
0,0,"bg.png",0,0
//Break Periods
//Storyboard Layer 0 (Background)
//Storyboard Layer 1 (Fail)
//Storyboard Layer 2 (Pass)
//Storyboard Layer 3 (Foreground)
//Storyboard Layer 4 (Overlay)
//Storyboard Sound Samples

[TimingPoints]
181,550.45871559633,4,2,1,50,1,0
8988,-100,4,2,1,60,0,0
26603,-100,4,2,1,70,0,0
44217,-100,4,2,1,60,0,0

[Colours]
Combo1 : 250,187,146
Combo2 : 219,145,217
Combo3 : 52,122,207

[HitObjects]
360,192,181,6,0,L|360:80,1,100,0|2,0:0|0:1,0:0:0:0:
200,92,1006,1,2,0:1:0:0:
120,96,1281,2,0,L|120:204,1,100,0|2,0:0|0:1,0:0:0:0:
280,188,2106,1,2,0:1:0:0:
360,192,2382,6,0,L|360:304,1,100,0|2,0:0|0:2,0:0:0:0:
200,276,3208,1,2,0:2:0:0:
280,200,3483,2,0,L|280:92,1,100,0|2,0:0|0:2,0:0:0:0:
120,104,4309,1,2,0:2:0:0:
32,184,4585,6,0,L|160:184,1,100,2|2,0:2|0:2,0:0:0:0:
308,180,5411,1,0,0:0:0:0:
396,248,5686,2,0,L|267:248,1,100,2|0,0:1|0:0,0:0:0:0:
120,252,6511,1,2,0:2:0:0:
32,180,6786,6,0,L|161:180,1,100,0|2,0:0|0:1,0:0:0:0:
308,100,7612,1,2,0:1:0:0:
396,176,7887,2,0,L|267:176,1,100,0|2,0:0|0:1,0:0:0:0:
208,176,8437,1,8,0:0:0:0:
408,168,8988,6,0,P|476:108|408:56,1,200,6|8,0:0|0:0,0:0:0:0:
212,80,10089,2,0,L|104:80,2,100,2|2|8,0:1|0:2|0:0,0:0:0:0:
412,80,11190,6,0,B|201:79,2,200,2|10|2,0:1|0:2|0:2,0:0:0:0:
144,84,13116,1,2,0:1:0:0:
48,88,13392,6,0,P|24:120|92:260,1,200,2|10,0:2|0:0,0:0:0:0:
276,260,14492,2,0,B|480:260,1,200,2|8,0:1|0:0,0:0:0:0:
376,256,15318,1,2,0:1:0:0:
276,260,15593,6,0,P|252:228|320:88,1,200,2|8,0:2|0:0,0:0:0:0:
500,72,16694,2,0,B|296:72,1,200,2|8,0:1|0:0,0:0:0:0:
100,168,17795,6,0,P|32:108|100:56,1,200,2|10,0:1|0:2,0:0:0:0:
300,80,18896,2,0,L|408:80,2,100,2|2|10,0:1|0:0|0:0,0:0:0:0:
100,80,19997,6,0,B|304:80,2,200,2|2|2,0:1|0:2|0:1,0:0:0:0:
344,72,21923,1,2,0:0:0:0:
256,72,22199,6,0,P|196:128|264:200,1,200,2|10,0:2|0:2,0:0:0:0:
468,208,23300,2,0,P|484:264|380:360,1,200,2|8,0:1|0:0,0:0:0:0:
296,364,24125,1,2,0:1:0:0:
196,364,24401,6,0,P|136:300|200:232,1,200,2|8,0:2|0:0,0:0:0:0:
392,180,25502,2,0,L|180:180,1,200,2|8,0:2|0:0,0:0:0:0:
420,160,26603,6,0,L|216:160,1,200,6|8,0:0|0:0,0:0:0:0:
120,160,27428,1,2,0:1:0:0:
220,160,27703,1,2,0:1:0:0:
420,160,28254,1,8,0:0:0:0:
220,160,28804,6,0,B|442:159,2,200,2|10|2,0:1|0:2|0:2,0:0:0:0:
44,172,30731,1,2,0:1:0:0:
144,172,31006,6,0,L|348:172,1,200,2|10,0:2|0:0,0:0:0:0:
444,176,31832,1,2,0:2:0:0:
344,172,32107,2,0,L|144:172,1,200,2|8,0:1|0:0,0:0:0:0:
344,172,33208,6,0,P|404:256|340:308,1,200,2|8,0:2|0:0,0:0:0:0:
144,172,34309,2,0,B|352:172,1,200,2|8,0:1|0:0,0:0:0:0:
120,168,35410,6,0,L|324:168,1,200,2|10,0:1|0:2,0:0:0:0:
420,168,36235,1,2,0:1:0:0:
320,168,36510,1,2,0:1:0:0:
120,168,37061,1,10,0:0:0:0:
320,168,37611,6,0,B|98:167,2,200,2|2|2,0:1|0:2|0:1,0:0:0:0:
468,172,39538,1,2,0:0:0:0:
368,172,39813,6,0,L|164:172,1,200,2|10,0:2|0:2,0:0:0:0:
68,176,40639,1,2,0:2:0:0:
168,172,40914,2,0,L|368:172,1,200,2|8,0:1|0:0,0:0:0:0:
168,172,42015,6,0,P|108:256|172:308,1,200,2|8,0:2|0:0,0:0:0:0:
368,172,43116,2,0,B|160:172,1,200,2|8,0:2|0:0,0:0:0:0:
368,172,44217,6,0,L|368:276,1,100,0|2,0:3|0:2,0:0:0:0:
