osu file format v14

[General]
AudioFilename: audio.mp3
AudioLeadIn: 0
PreviewTime: 8988
Countdown: 0
SampleSet: Soft
StackLeniency: 0.7
Mode: 2
LetterboxInBreaks: 0
WidescreenStoryboard: 1

[Editor]
DistanceSpacing: 2.4
BeatDivisor: 4
GridSize: 32
TimelineZoom: 1

[Metadata]
Title:chilling at nemu's place
TitleUnicode:chilling at nemu's place
Artist:in love with a ghost
ArtistUnicode:in love with a ghost
Creator:bigh
Version:rain
Source:
Tags:ilwag healing electronic instrumental lo-fi lofi chillwave ambient chillout electronica lgbt lgbtq pride fa featured artist mappers' guild mpg zirox bighzonda
BeatmapID:3597220
BeatmapSetID:1757755

[Difficulty]
HPDrainRate:6
CircleSize:4.5
OverallDifficulty:8.5
ApproachRate:8.5
SliderMultiplier:2.4
SliderTickRate:2

[Events]
//Background and Video events
0,0,"bg.png",0,0
//Break Periods
//Storyboard Layer 0 (Background)
//Storyboard Layer 1 (Fail)
//Storyboard Layer 2 (Pass)
//Storyboard Layer 3 (Foreground)
//Storyboard Layer 4 (Overlay)
//Storyboard Sound Samples

[TimingPoints]
181,550.45871559633,4,2,1,50,1,0
8988,-100,4,2,1,60,0,0
26603,-100,4,2,1,70,0,0
44217,-100,4,2,1,60,0,0

[Colours]
Combo1 : 250,187,146
Combo2 : 219,145,217
Combo3 : 52,122,207

[HitObjects]
14,252,181,6,0,L|14:125,1,120,0|2,0:0|0:1,0:0:0:0:
254,133,1006,1,2,0:1:0:0:
14,252,1281,2,0,L|14:125,1,120,0|2,0:0|0:1,0:0:0:0:
254,133,2106,1,2,0:1:0:0:
13,85,2382,6,0,L|157:85,1,120,0|2,0:0|0:2,0:0:0:0:
373,77,3208,1,2,0:2:0:0:
133,83,3483,2,0,L|277:83,1,120,0|2,0:0|0:2,0:0:0:0:
480,86,4309,1,2,0:2:0:0:
240,66,4584,6,0,L|98:65,1,120,2|2,0:2|0:2,0:0:0:0:
92,65,4928,1,0,0:0:0:0:
273,67,5135,2,0,L|143:63,1,120,2|0,0:2|0:0,0:0:0:0:
411,70,5685,2,0,L|409:192,1,120,2|0,0:1|0:0,0:0:0:0:
185,190,6511,1,2,0:2:0:0:
426,92,6786,6,0,L|259:86,1,120,0|2,0:0|0:1,0:0:0:0:
63,79,7612,1,2,0:1:0:0:
321,85,7887,2,0,L|445:86,1,120,0|2,0:0|0:1,0:0:0:0:
183,172,8437,2,0,L|59:173,1,120,8|0,0:0|0:0,0:0:0:0:
408,104,8988,6,0,B|401:56|401:56|329:55,1,120,6|2,0:0|0:0,0:0:0:0:
278,52,9332,1,0,0:0:0:0:
98,42,9538,1,8,0:0:0:0:
443,54,9814,2,0,L|507:54,2,60,2|2|2,0:1|0:2|0:1,0:0:0:0:
383,52,10226,1,0,0:0:0:0:
324,54,10364,1,2,0:2:0:0:
71,98,10639,1,8,0:0:0:0:
324,54,10914,1,2,0:1:0:0:
71,98,11190,6,0,P|30:132|85:156,1,120,2|0,0:1|0:0,0:0:0:0:
323,105,11740,2,0,L|177:102,1,120,10|0,0:2|0:0,0:0:0:0:
452,162,12291,2,0,L|511:162,2,60,2|0|0,0:2|0:0|0:0,0:0:0:0:
202,160,12841,1,8,0:0:0:0:
456,141,13116,1,2,0:1:0:0:
111,105,13392,6,0,B|51:101|51:101|1:65,1,120,2|0,0:2|0:0,0:0:0:0:
255,59,13942,1,10,0:0:0:0:
8,88,14217,1,2,0:2:0:0:
255,59,14492,1,2,0:1:0:0:
192,54,14630,1,0,0:0:0:0:
132,46,14768,1,0,0:0:0:0:
384,77,15043,2,0,L|383:205,1,120,8|2,0:0|0:1,0:0:0:0:
131,70,15593,6,0,B|72:70|72:70|132:68,1,120,2|0,0:2|0:0,0:0:0:0:
253,67,16144,2,0,L|93:67,1,120,8|0,0:0|0:0,0:0:0:0:
385,69,16694,1,2,0:1:0:0:
325,68,16831,1,0,0:0:0:0:
265,68,16969,1,0,0:0:0:0:
385,69,17245,2,0,L|545:69,1,120,8|0,0:0|0:0,0:0:0:0:
161,77,17795,6,0,B|113:55|113:55|199:54,1,120,2|2,0:1|0:0,0:0:0:0:
229,50,18139,1,0,0:0:0:0:
414,42,18345,1,10,0:2:0:0:
69,54,18621,2,0,L|5:54,2,60,2|2|2,0:1|0:2|0:1,0:0:0:0:
129,54,19034,1,0,0:0:0:0:
188,54,19171,1,2,0:0:0:0:
441,98,19446,1,10,0:0:0:0:
188,54,19721,1,2,0:1:0:0:
441,98,19997,6,0,P|482:132|427:156,1,120,2|0,0:1|0:0,0:0:0:0:
189,105,20547,2,0,L|335:102,1,120,2|0,0:2|0:0,0:0:0:0:
60,162,21098,2,0,L|1:162,2,60,2|0|0,0:1|0:0|0:0,0:0:0:0:
308,159,21648,1,0,0:0:0:0:
56,141,21923,1,2,0:0:0:0:
401,105,22199,6,0,B|461:101|461:101|511:65,1,120,2|0,0:2|0:0,0:0:0:0:
257,59,22749,1,10,0:2:0:0:
504,88,23025,1,2,0:0:0:0:
257,59,23299,1,2,0:1:0:0:
320,54,23437,1,0,0:0:0:0:
380,46,23575,1,0,0:0:0:0:
128,77,23850,2,0,L|129:205,1,120,8|2,0:0|0:1,0:0:0:0:
381,70,24401,6,0,B|440:70|440:70|380:68,1,120,2|0,0:2|0:0,0:0:0:0:
259,67,24951,2,0,L|419:67,1,120,8|0,0:0|0:0,0:0:0:0:
127,69,25502,1,2,0:2:0:0:
187,68,25639,1,0,0:0:0:0:
249,66,25777,1,0,0:0:0:0:
127,69,26052,2,0,B|47:74|47:74|82:102,1,120,8|0,0:0|0:0,0:0:0:0:
423,105,26603,6,0,B|389:58|389:58|328:54,1,120,6|2,0:0|0:0,0:0:0:0:
280,52,26947,1,0,0:0:0:0:
98,42,27153,1,8,0:0:0:0:
442,54,27428,1,2,0:1:0:0:
383,48,27566,1,2,0:2:0:0:
323,42,27703,1,2,0:1:0:0:
263,35,27841,1,0,0:0:0:0:
203,34,27979,1,2,0:2:0:0:
456,78,28254,1,8,0:0:0:0:
203,34,28529,1,2,0:1:0:0:
456,78,28805,6,0,P|497:112|442:136,1,120,2|0,0:1|0:0,0:0:0:0:
204,85,29355,2,0,L|350:82,1,120,10|0,0:2|0:0,0:0:0:0:
75,142,29905,1,2,0:2:0:0:
75,100,30043,1,0,0:0:0:0:
135,97,30180,1,0,0:0:0:0:
388,134,30456,1,8,0:0:0:0:
136,116,30731,1,2,0:1:0:0:
388,134,31007,6,0,B|419:131|419:131|429:132|429:132|423:115|427:98|427:98|418:102|418:102|384:96,1,120,2|0,0:2|0:0,0:0:0:0:
143,85,31557,1,10,0:0:0:0:
390,114,31832,1,2,0:2:0:0:
143,85,32107,1,2,0:1:0:0:
206,80,32245,1,0,0:0:0:0:
267,73,32383,1,0,0:0:0:0:
143,85,32658,2,0,L|144:213,1,120,8|2,0:0|0:1,0:0:0:0:
396,71,33208,6,0,B|455:71|455:71|395:69,1,120,2|0,0:2|0:0,0:0:0:0:
274,68,33759,2,0,L|434:68,1,120,8|0,0:0|0:0,0:0:0:0:
142,70,34309,1,2,0:1:0:0:
201,69,34446,1,0,0:0:0:0:
261,69,34584,1,0,0:0:0:0:
382,68,34860,2,0,B|472:71|472:71|417:69,1,120,8|0,0:0|0:0,0:0:0:0:
103,118,35410,6,0,B|110:75|135:53|135:53|184:53,1,120,2|2,0:1|0:0,0:0:0:0:
229,52,35754,1,0,0:0:0:0:
414,42,35960,1,10,0:2:0:0:
69,54,36236,1,2,0:1:0:0:
69,54,36373,1,2,0:2:0:0:
129,55,36511,1,2,0:1:0:0:
188,54,36648,1,0,0:0:0:0:
249,54,36786,1,2,0:0:0:0:
502,98,37061,1,10,0:0:0:0:
249,54,37336,1,2,0:1:0:0:
502,98,37612,6,0,L|366:100,1,120,2|0,0:1|0:0,0:0:0:0:
130,108,38162,2,0,L|276:105,1,120,2|0,0:2|0:0,0:0:0:0:
502,98,38713,1,2,0:1:0:0:
442,98,38850,1,0,0:0:0:0:
382,99,38988,1,0,0:0:0:0:
130,117,39263,1,0,0:0:0:0:
382,99,39538,1,2,0:0:0:0:
37,58,39814,6,0,L|157:58,1,120,2|0,0:2|0:0,0:0:0:0:
277,59,40365,2,0,B|277:196,1,120,10|2,0:2|0:2,0:0:0:0:
25,62,40915,1,2,0:1:0:0:
21,121,41052,1,0,0:0:0:0:
18,181,41190,1,0,0:0:0:0:
139,58,41466,2,0,B|10:60,1,120,8|2,0:0|0:1,0:0:0:0:
363,194,42016,6,0,L|364:74,1,120,2|0,0:2|0:0,0:0:0:0:
245,65,42566,2,0,L|378:74,1,120,8|0,0:0|0:0,0:0:0:0:
19,84,43117,1,2,0:2:0:0:
79,81,43254,1,0,0:0:0:0:
19,84,43392,1,0,0:0:0:0:
271,71,43667,2,0,B|109:72,1,120,8|0,0:0|0:0,0:0:0:0:
495,161,44217,5,0,0:3:0:0:
494,119,44355,1,0,0:3:0:0:
493,84,44492,1,2,0:2:0:0:
