osu file format v14

[General]
AudioFilename: audio.mp3
AudioLeadIn: 0
PreviewTime: 8988
Countdown: 0
SampleSet: Soft
StackLeniency: 0.7
Mode: 2
LetterboxInBreaks: 0
WidescreenStoryboard: 1

[Editor]
DistanceSpacing: 2.4
BeatDivisor: 4
GridSize: 32
TimelineZoom: 1

[Metadata]
Title:chilling at nemu's place
TitleUnicode:chilling at nemu's place
Artist:in love with a ghost
ArtistUnicode:in love with a ghost
Creator:bigh
Version:platter
Source:
Tags:ilwag healing electronic instrumental lo-fi lofi chillwave ambient chillout electronica lgbt lgbtq pride fa featured artist mappers' guild mpg zirox bighzonda
BeatmapID:3597219
BeatmapSetID:1757755

[Difficulty]
HPDrainRate:5
CircleSize:4
OverallDifficulty:8
ApproachRate:8
SliderMultiplier:2.2
SliderTickRate:1

[Events]
//Background and Video events
0,0,"bg.png",0,0
//Break Periods
//Storyboard Layer 0 (Background)
//Storyboard Layer 1 (Fail)
//Storyboard Layer 2 (Pass)
//Storyboard Layer 3 (Foreground)
//Storyboard Layer 4 (Overlay)
//Storyboard Sound Samples

[TimingPoints]
181,550.45871559633,4,2,1,50,1,0
8988,-100,4,2,1,60,0,0
26603,-100,4,2,1,70,0,0
44217,-100,4,2,1,60,0,0

[Colours]
Combo1 : 250,187,146
Combo2 : 219,145,217
Combo3 : 52,122,207

[HitObjects]
167,207,181,6,0,L|167:82,1,110,0|2,0:0|0:1,0:0:0:0:
386,64,1006,1,2,0:1:0:0:
276,86,1281,2,0,L|276:211,1,110,0|2,0:0|0:1,0:0:0:0:
495,229,2106,1,2,0:1:0:0:
385,226,2382,6,0,L|253:227,1,110,0|2,0:0|0:2,0:0:0:0:
55,245,3208,1,2,0:2:0:0:
165,173,3483,2,0,L|297:174,1,110,0|2,0:0|0:2,0:0:0:0:
495,192,4309,1,2,0:2:0:0:
253,171,4584,6,0,L|250:62,1,110,2|2,0:2|0:2,0:0:0:0:
361,127,5135,2,0,L|364:18,1,110,2|0,0:2|0:0,0:0:0:0:
254,18,5685,2,0,L|136:20,1,110,2|0,0:1|0:0,0:0:0:0:
364,28,6511,1,2,0:2:0:0:
254,33,6786,6,0,L|134:32,1,110,0|2,0:0|0:1,0:0:0:0:
365,88,7612,1,2,0:1:0:0:
255,112,7887,2,0,L|251:235,1,110,0|2,0:0|0:1,0:0:0:0:
493,222,8437,2,0,L|354:219,1,110,8|0,0:0|0:0,0:0:0:0:
36,223,8988,6,0,P|-7:180|41:133,1,110,6|2,0:0|0:0,0:0:0:0:
148,127,9538,1,8,0:0:0:0:
402,118,9814,2,0,L|458:116,2,55,2|2|2,0:1|0:2|0:1,0:0:0:0:
292,121,10364,1,2,0:2:0:0:
402,113,10639,2,0,L|405:-3,1,110,8|2,0:0|0:1,0:0:0:0:
151,31,11190,6,0,L|32:30,1,110,2|0,0:1|0:0,0:0:0:0:
151,104,11740,2,0,L|293:106,1,110,10|0,0:2|0:0,0:0:0:0:
10,158,12291,2,0,L|19:285,1,110,2|0,0:2|0:0,0:0:0:0:
129,283,12841,1,8,0:0:0:0:
18,267,13116,1,2,0:1:0:0:
273,150,13392,6,0,L|408:148,1,110,2|0,0:2|0:0,0:0:0:0:
272,75,13942,1,10,0:0:0:0:
162,65,14217,1,2,0:2:0:0:
272,158,14492,2,0,B|327:160|327:160|272:158,1,110,2|0,0:1|0:0,0:0:0:0:
162,170,15043,2,0,B|159:293,1,110,8|2,0:0|0:1,0:0:0:0:
412,67,15593,6,0,B|460:68|460:68|460:80|460:80|411:80,1,110,2|0,0:2|0:0,0:0:0:0:
300,79,16144,1,8,0:0:0:0:
410,103,16419,1,0,0:0:0:0:
300,173,16694,2,0,L|177:171,1,110,2|0,0:1|0:0,0:0:0:0:
80,147,17245,1,8,0:0:0:0:
80,147,17520,1,0,0:0:0:0:
421,222,17795,6,0,P|484:184|451:153,1,110,2|2,0:1|0:0,0:0:0:0:
341,133,18345,1,10,0:2:0:0:
87,124,18621,2,0,L|31:122,2,55,2|2|2,0:1|0:2|0:1,0:0:0:0:
197,127,19171,1,2,0:0:0:0:
87,119,19446,2,0,P|64:88|125:53,1,110,10|2,0:0|0:1,0:0:0:0:
361,31,19997,6,0,L|480:30,1,110,2|0,0:1|0:0,0:0:0:0:
361,104,20547,2,0,L|219:106,1,110,2|0,0:2|0:0,0:0:0:0:
494,158,21098,2,0,L|493:285,1,110,2|0,0:1|0:0,0:0:0:0:
383,283,21648,1,0,0:0:0:0:
494,267,21923,1,2,0:0:0:0:
239,150,22199,6,0,L|104:148,1,110,2|0,0:2|0:0,0:0:0:0:
240,75,22749,1,10,0:2:0:0:
350,65,23024,1,2,0:0:0:0:
240,158,23299,2,0,B|185:160|185:160|240:158,1,110,2|0,0:1|0:0,0:0:0:0:
350,170,23850,2,0,B|353:293,1,110,8|2,0:0|0:1,0:0:0:0:
100,67,24400,6,0,B|52:75|20:75|52:75|101:80,1,110,2|0,0:2|0:0,0:0:0:0:
212,79,24951,1,8,0:0:0:0:
102,103,25226,1,0,0:0:0:0:
212,173,25501,2,0,L|335:171,1,110,2|0,0:2|0:0,0:0:0:0:
432,168,26052,1,8,0:0:0:0:
432,168,26327,1,0,0:0:0:0:
91,222,26603,6,0,L|213:221,1,110,6|2,0:0|0:0,0:0:0:0:
312,210,27153,1,8,0:0:0:0:
59,63,27428,1,2,0:1:0:0:
114,64,27566,1,2,0:2:0:0:
169,65,27703,1,2,0:1:0:0:
279,72,27979,1,2,0:2:0:0:
26,150,28254,2,0,L|165:153,1,110,8|2,0:0|0:1,0:0:0:0:
378,183,28804,6,0,L|511:184,1,110,2|0,0:1|0:0,0:0:0:0:
357,220,29355,2,0,L|358:348,1,110,10|0,0:2|0:0,0:0:0:0:
105,222,29905,2,0,B|49:222|49:222|2:197,1,110,2|0,0:2|0:0,0:0:0:0:
112,136,30456,1,8,0:0:0:0:
2,118,30731,1,2,0:1:0:0:
256,147,31007,6,0,L|391:145,1,110,2|0,0:2|0:0,0:0:0:0:
255,72,31557,1,10,0:0:0:0:
365,65,31832,1,2,0:2:0:0:
255,72,32107,2,0,L|136:75,1,110,2|0,0:1|0:0,0:0:0:0:
35,77,32658,2,0,B|176:73,1,110,8|2,0:0|0:1,0:0:0:0:
398,74,33208,6,0,B|446:82|446:160|446:82|397:87,1,110,2|0,0:2|0:0,0:0:0:0:
286,86,33759,1,8,0:0:0:0:
176,97,34034,1,0,0:0:0:0:
286,180,34309,2,0,B|341:180|341:180|286:180,1,110,2|0,0:1|0:0,0:0:0:0:
176,250,34860,1,8,0:0:0:0:
66,177,35135,1,0,0:0:0:0:
400,207,35410,6,0,L|278:206,1,110,2|2,0:1|0:0,0:0:0:0:
179,195,35960,1,10,0:2:0:0:
433,113,36235,1,2,0:1:0:0:
433,47,36373,1,2,0:2:0:0:
378,48,36510,1,2,0:1:0:0:
268,55,36786,1,2,0:0:0:0:
510,163,37061,2,0,L|371:166,1,110,10|2,0:0|0:1,0:0:0:0:
157,164,37612,6,0,L|158:45,1,110,2|0,0:1|0:0,0:0:0:0:
269,115,38162,2,0,L|270:-4,1,110,2|0,0:2|0:0,0:0:0:0:
16,92,38713,2,0,B|32:129|32:129|115:129,1,110,2|0,0:1|0:0,0:0:0:0:
212,100,39263,1,0,0:0:0:0:
101,129,39538,1,2,0:0:0:0:
355,155,39814,6,0,P|394:152|354:150,1,110,2|0,0:2|0:0,0:0:0:0:
247,127,40364,1,10,0:2:0:0:
357,107,40639,1,2,0:2:0:0:
247,127,40914,2,0,P|208:124|248:122,1,110,2|0,0:1|0:0,0:0:0:0:
355,99,41464,1,8,0:0:0:0:
245,79,41739,1,2,0:1:0:0:
499,48,42015,6,0,L|352:40,1,110,2|0,0:2|0:0,0:0:0:0:
279,38,42566,2,0,L|283:155,1,110,8|0,0:0|0:0,0:0:0:0:
30,46,43116,2,0,L|177:38,1,110,2|0,0:2|0:0,0:0:0:0:
250,36,43667,2,0,L|126:41,1,110,8|0,0:0|0:0,0:0:0:0:
486,111,44217,6,0,L|486:229,1,110,0|2,0:3|0:2,0:0:0:0:
