osu file format v14

[General]
AudioFilename: audio.mp3
AudioLeadIn: 0
PreviewTime: 8994
Countdown: 0
SampleSet: Normal
StackLeniency: 0.7
Mode: 1
LetterboxInBreaks: 0
WidescreenStoryboard: 0

[Editor]
DistanceSpacing: 1
BeatDivisor: 8
GridSize: 32
TimelineZoom: 1.5

[Metadata]
Title:chilling at nemu's place
TitleUnicode:chilling at nemu's place
Artist:in love with a ghost
ArtistUnicode:in love with a ghost
Creator:Vixlowo
Version:just chillin
Source:
Tags:ilwag healing electronic instrumental lo-fi lofi chillwave ambient chillout electronica lgbt lgbtq pride month fa featured artist Vixlovo
BeatmapID:3671184
BeatmapSetID:1791490

[Difficulty]
HPDrainRate:8.5
CircleSize:3
OverallDifficulty:5
ApproachRate:3
SliderMultiplier:1.4
SliderTickRate:1

[Events]
//Background and Video events
0,0,"morp.png",0,50
//Break Periods
//Storyboard Layer 0 (Background)
//Storyboard Layer 1 (Fail)
//Storyboard Layer 2 (Pass)
//Storyboard Layer 3 (Foreground)
//Storyboard Layer 4 (Overlay)
//Storyboard Sound Samples

[TimingPoints]
187,550.45871559633,4,1,0,50,1,0
187,-125,4,1,0,50,0,0
8719,-111.111111111111,4,1,0,50,0,0
8994,-100,4,1,0,65,0,0

[HitObjects]
256,192,187,5,0,0:0:0:0:
256,192,462,1,8,0:0:0:0:
256,192,1012,1,8,0:0:0:0:
256,192,1287,1,0,0:0:0:0:
256,192,1563,1,8,0:0:0:0:
256,192,2113,1,8,0:0:0:0:
256,192,2388,1,0,0:0:0:0:
256,192,2664,1,0,0:0:0:0:
256,192,3214,1,8,0:0:0:0:
256,192,3489,1,0,0:0:0:0:
256,192,3764,1,0,0:0:0:0:
256,192,4315,1,0,0:0:0:0:
256,192,4590,1,8,0:0:0:0:
256,192,4865,1,0,0:0:0:0:
256,192,4934,1,8,0:0:0:0:
256,192,5141,1,8,0:0:0:0:
256,192,5416,1,0,0:0:0:0:
256,192,5691,1,8,0:0:0:0:
256,192,5966,1,8,0:0:0:0:
256,192,6517,1,8,0:0:0:0:
256,192,6792,1,0,0:0:0:0:
256,192,7067,1,8,0:0:0:0:
256,192,7618,1,8,0:0:0:0:
256,192,7893,1,0,0:0:0:0:
256,192,8168,1,0,0:0:0:0:
256,192,8443,1,8,0:0:0:0:
256,192,8719,1,8,0:0:0:0:
256,192,8994,1,0,0:0:0:0:
256,192,9269,1,8,0:0:0:0:
256,192,9338,1,8,0:0:0:0:
256,192,9544,1,0,0:0:0:0:
256,192,9820,1,8,0:0:0:0:
256,192,9957,1,0,0:0:0:0:
256,192,10095,1,8,0:0:0:0:
256,192,10232,1,8,0:0:0:0:
256,192,10370,1,0,0:0:0:0:
256,192,10645,1,0,0:0:0:0:
256,192,10920,1,8,0:0:0:0:
256,192,11196,1,0,0:0:0:0:
256,192,11471,1,8,0:0:0:0:
256,192,11746,1,0,0:0:0:0:
256,192,12021,1,0,0:0:0:0:
256,192,12297,1,8,0:0:0:0:
256,192,12434,1,0,0:0:0:0:
256,192,12572,1,0,0:0:0:0:
256,192,12847,1,8,0:0:0:0:
256,192,13122,1,0,0:0:0:0:
256,192,13398,1,0,0:0:0:0:
256,192,13673,1,0,0:0:0:0:
256,192,13742,1,8,0:0:0:0:
256,192,13948,1,8,0:0:0:0:
256,192,14223,1,0,0:0:0:0:
256,192,14498,1,0,0:0:0:0:
256,192,14636,1,8,0:0:0:0:
256,192,14774,1,8,0:0:0:0:
256,192,15049,1,0,0:0:0:0:
256,192,15324,1,8,0:0:0:0:
256,192,15599,1,8,0:0:0:0:
256,192,15875,1,0,0:0:0:0:
256,192,16150,1,8,0:0:0:0:
256,192,16425,1,0,0:0:0:0:
256,192,16700,1,0,0:0:0:0:
256,192,16838,1,8,0:0:0:0:
256,192,16975,1,0,0:0:0:0:
256,192,17251,1,8,0:0:0:0:
256,192,17801,1,8,0:0:0:0:
256,192,18076,1,0,0:0:0:0:
256,192,18145,1,0,0:0:0:0:
256,192,18352,1,0,0:0:0:0:
256,192,18627,1,8,0:0:0:0:
256,192,18764,1,8,0:0:0:0:
256,192,18902,1,0,0:0:0:0:
256,192,19040,1,0,0:0:0:0:
256,192,19177,1,8,0:0:0:0:
256,192,19453,1,0,0:0:0:0:
256,192,19728,1,8,0:0:0:0:
256,192,20003,1,8,0:0:0:0:
256,192,20278,1,0,0:0:0:0:
256,192,20553,1,0,0:0:0:0:
256,192,20829,1,8,0:0:0:0:
256,192,21104,1,8,0:0:0:0:
256,192,21242,1,0,0:0:0:0:
256,192,21379,1,8,0:0:0:0:
256,192,21654,1,8,0:0:0:0:
256,192,21930,1,0,0:0:0:0:
256,192,22205,1,0,0:0:0:0:
256,192,22480,1,0,0:0:0:0:
256,192,22549,1,8,0:0:0:0:
256,192,22755,1,8,0:0:0:0:
256,192,23031,1,0,0:0:0:0:
256,192,23306,1,0,0:0:0:0:
256,192,23443,1,8,0:0:0:0:
256,192,23581,1,8,0:0:0:0:
256,192,23856,1,8,0:0:0:0:
256,192,24131,1,8,0:0:0:0:
256,192,24407,1,0,0:0:0:0:
256,192,24682,1,8,0:0:0:0:
256,192,24957,1,0,0:0:0:0:
256,192,25232,1,0,0:0:0:0:
256,192,25508,1,0,0:0:0:0:
256,192,25645,1,8,0:0:0:0:
256,192,25783,1,0,0:0:0:0:
256,192,26058,1,8,0:0:0:0:
256,192,26609,1,0,0:0:0:0:
256,192,26884,1,0,0:0:0:0:
256,192,26953,1,0,0:0:0:0:
256,192,27159,1,8,0:0:0:0:
256,192,27434,1,8,0:0:0:0:
256,192,27572,1,0,0:0:0:0:
256,192,27709,1,8,0:0:0:0:
256,192,27847,1,0,0:0:0:0:
256,192,27985,1,0,0:0:0:0:
256,192,28260,1,0,0:0:0:0:
256,192,28535,1,8,0:0:0:0:
256,192,28673,1,0,0:0:0:0:
256,192,28810,1,0,0:0:0:0:
256,192,29086,1,0,0:0:0:0:
256,192,29361,1,8,0:0:0:0:
256,192,29636,1,0,0:0:0:0:
256,192,29911,1,8,0:0:0:0:
256,192,30049,1,8,0:0:0:0:
256,192,30186,1,0,0:0:0:0:
256,192,30462,1,8,0:0:0:0:
256,192,30737,1,0,0:0:0:0:
256,192,30875,1,0,0:0:0:0:
256,192,31012,1,8,0:0:0:0:
256,192,31287,1,0,0:0:0:0:
256,192,31356,1,8,0:0:0:0:
256,192,31563,1,8,0:0:0:0:
256,192,31838,1,0,0:0:0:0:
256,192,32113,1,0,0:0:0:0:
256,192,32251,1,8,0:0:0:0:
256,192,32388,1,0,0:0:0:0:
256,192,32664,1,8,0:0:0:0:
256,192,32801,1,0,0:0:0:0:
256,192,32939,1,8,0:0:0:0:
256,192,33076,1,8,0:0:0:0:
256,192,33214,1,0,0:0:0:0:
256,192,33489,1,8,0:0:0:0:
256,192,33764,1,0,0:0:0:0:
256,192,34040,1,0,0:0:0:0:
256,192,34315,1,8,0:0:0:0:
256,192,34453,1,8,0:0:0:0:
256,192,34590,1,0,0:0:0:0:
256,192,34865,1,8,0:0:0:0:
256,192,35416,1,8,0:0:0:0:
256,192,35691,1,0,0:0:0:0:
256,192,35760,1,8,0:0:0:0:
256,192,35966,1,8,0:0:0:0:
256,192,36242,1,0,0:0:0:0:
256,192,36379,1,8,0:0:0:0:
256,192,36517,1,8,0:0:0:0:
256,192,36654,1,0,0:0:0:0:
256,192,36792,1,8,0:0:0:0:
256,192,37067,1,0,0:0:0:0:
256,192,37342,1,8,0:0:0:0:
256,192,37480,1,8,0:0:0:0:
256,192,37618,1,0,0:0:0:0:
256,192,37893,1,0,0:0:0:0:
256,192,38168,1,8,0:0:0:0:
256,192,38443,1,0,0:0:0:0:
256,192,38719,1,8,0:0:0:0:
256,192,38856,1,8,0:0:0:0:
256,192,38994,1,0,0:0:0:0:
256,192,39269,1,8,0:0:0:0:
256,192,39544,1,0,0:0:0:0:
256,192,39682,1,0,0:0:0:0:
256,192,39820,1,8,0:0:0:0:
256,192,40095,1,0,0:0:0:0:
256,192,40164,1,8,0:0:0:0:
256,192,40370,1,8,0:0:0:0:
256,192,40645,1,0,0:0:0:0:
256,192,40920,1,0,0:0:0:0:
256,192,41058,1,8,0:0:0:0:
256,192,41196,1,8,0:0:0:0:
256,192,41333,1,0,0:0:0:0:
256,192,41471,1,0,0:0:0:0:
256,192,41746,1,8,0:0:0:0:
256,192,41884,1,0,0:0:0:0:
256,192,42021,1,8,0:0:0:0:
256,192,42297,1,0,0:0:0:0:
256,192,42572,1,8,0:0:0:0:
256,192,42847,1,0,0:0:0:0:
256,192,43122,1,0,0:0:0:0:
256,192,43260,1,8,0:0:0:0:
256,192,43398,1,0,0:0:0:0:
256,192,43673,1,8,0:0:0:0:
256,192,43948,1,8,0:0:0:0:
256,192,44223,1,0,0:0:0:0:
256,192,44498,1,8,0:0:0:0:
