osu file format v14

[General]
AudioFilename: audio.mp3
AudioLeadIn: 0
PreviewTime: 8980
Countdown: 0
SampleSet: Normal
StackLeniency: 0.7
Mode: 3
LetterboxInBreaks: 0
SpecialStyle: 0
WidescreenStoryboard: 1

[Editor]
Bookmarks: 8980,17787,26595,35402,44209
DistanceSpacing: 2.4
BeatDivisor: 4
GridSize: 32
TimelineZoom: 0.8999999

[Metadata]
Title:chilling at nemu's place
TitleUnicode:chilling at nemu's place
Artist:in love with a ghost
ArtistUnicode:in love with a ghost
Creator:-NoName-
Version:7k easy
Source:
Tags:featured artist fa mappers' guild mg mpg instrumental electronic chillwave ambient chillout dream electronica ilwag chiptune Healing LVGHSTmusic
BeatmapID:3641493
BeatmapSetID:1775044

[Difficulty]
HPDrainRate:6.9
CircleSize:7
OverallDifficulty:6.7
ApproachRate:5
SliderMultiplier:1.4
SliderTickRate:1

[Events]
//Background and Video events
0,0,"bg.jpg",0,0
//Break Periods
//Storyboard Layer 0 (Background)
//Storyboard Layer 1 (Fail)
//Storyboard Layer 2 (Pass)
//Storyboard Layer 3 (Foreground)
//Storyboard Layer 4 (Overlay)
//Storyboard Sound Samples

[TimingPoints]
198,550.45871559633,4,1,1,100,1,0

[HitObjects]
182,192,198,5,0,0:0:0:0:
475,192,473,1,0,0:0:0:0:
402,192,1023,1,0,0:0:0:0:
182,192,1298,1,0,0:0:0:0:
475,192,1574,1,0,0:0:0:0:
402,192,2124,1,0,0:0:0:0:
36,192,2399,1,0,0:0:0:0:
329,192,2675,1,0,0:0:0:0:
256,192,3225,1,0,0:0:0:0:
36,192,3500,1,0,0:0:0:0:
329,192,3775,1,0,0:0:0:0:
256,192,4326,1,0,0:0:0:0:
109,192,4601,1,0,0:0:0:0:
475,192,4876,1,0,0:0:0:0:
182,192,4876,1,0,0:0:0:0:
256,192,5152,1,0,0:0:0:0:
402,192,5427,1,0,0:0:0:0:
329,192,5427,1,0,0:0:0:0:
182,192,5702,1,0,0:0:0:0:
36,192,5702,1,0,0:0:0:0:
402,192,6528,1,0,0:0:0:0:
36,192,6803,1,0,0:0:0:0:
109,192,6803,1,0,0:0:0:0:
329,192,7078,1,0,0:0:0:0:
256,192,7629,1,0,0:0:0:0:
402,192,7629,1,0,0:0:0:0:
36,192,7904,1,0,0:0:0:0:
182,192,7904,1,0,0:0:0:0:
475,192,8179,1,0,0:0:0:0:
109,192,8454,1,0,0:0:0:0:
329,192,8454,1,0,0:0:0:0:
256,192,9005,1,0,0:0:0:0:
402,192,9005,1,0,0:0:0:0:
109,192,9555,1,0,0:0:0:0:
36,192,9555,1,0,0:0:0:0:
475,192,9831,1,0,0:0:0:0:
256,192,10106,1,0,0:0:0:0:
402,192,10381,1,0,0:0:0:0:
329,192,10381,1,0,0:0:0:0:
109,192,10656,1,0,0:0:0:0:
36,192,10656,1,0,0:0:0:0:
475,192,10931,1,0,0:0:0:0:
182,192,11207,1,0,0:0:0:0:
329,192,11207,1,0,0:0:0:0:
36,192,11757,1,0,0:0:0:0:
182,192,11757,1,0,0:0:0:0:
256,192,12308,1,0,0:0:0:0:
475,192,12583,1,0,0:0:0:0:
329,192,12583,1,0,0:0:0:0:
36,192,12858,1,0,0:0:0:0:
182,192,12858,1,0,0:0:0:0:
402,192,13133,1,0,0:0:0:0:
109,192,13409,1,0,0:0:0:0:
256,192,13409,1,0,0:0:0:0:
402,192,13959,1,0,0:0:0:0:
475,192,13959,1,0,0:0:0:0:
256,192,14509,1,0,0:0:0:0:
36,192,14785,1,0,0:0:0:0:
109,192,14785,1,0,0:0:0:0:
402,192,15060,1,0,0:0:0:0:
475,192,15060,1,0,0:0:0:0:
329,192,15335,1,0,0:0:0:0:
182,192,15610,1,0,0:0:0:0:
36,192,15610,1,0,0:0:0:0:
475,192,16161,1,0,0:0:0:0:
329,192,16161,1,0,0:0:0:0:
256,192,16711,1,0,0:0:0:0:
182,192,16986,1,0,0:0:0:0:
36,192,16986,1,0,0:0:0:0:
329,192,17262,1,0,0:0:0:0:
475,192,17262,1,0,0:0:0:0:
256,192,17812,1,0,0:0:0:0:
402,192,17812,1,0,0:0:0:0:
109,192,18363,1,0,0:0:0:0:
182,192,18363,1,0,0:0:0:0:
475,192,18638,1,0,0:0:0:0:
256,192,18913,1,0,0:0:0:0:
329,192,19188,1,0,0:0:0:0:
402,192,19188,1,0,0:0:0:0:
109,192,19464,1,0,0:0:0:0:
36,192,19464,1,0,0:0:0:0:
475,192,19739,1,0,0:0:0:0:
182,192,20014,1,0,0:0:0:0:
329,192,20014,1,0,0:0:0:0:
182,192,20564,1,0,0:0:0:0:
36,192,20564,1,0,0:0:0:0:
256,192,21115,1,0,0:0:0:0:
475,192,21390,1,0,0:0:0:0:
329,192,21390,1,0,0:0:0:0:
182,192,21665,1,0,0:0:0:0:
36,192,21665,1,0,0:0:0:0:
329,192,21941,1,0,0:0:0:0:
256,192,22216,1,0,0:0:0:0:
109,192,22216,1,0,0:0:0:0:
329,192,22766,1,0,0:0:0:0:
402,192,22766,1,0,0:0:0:0:
182,192,23317,1,0,0:0:0:0:
36,192,23592,1,0,0:0:0:0:
109,192,23592,1,0,0:0:0:0:
402,192,23867,1,0,0:0:0:0:
475,192,23867,1,0,0:0:0:0:
256,192,24142,1,0,0:0:0:0:
182,192,24418,1,0,0:0:0:0:
109,192,24418,1,0,0:0:0:0:
329,192,24968,1,0,0:0:0:0:
475,192,24968,1,0,0:0:0:0:
256,192,25519,1,0,0:0:0:0:
36,192,25794,1,0,0:0:0:0:
182,192,25794,1,0,0:0:0:0:
329,192,26069,1,0,0:0:0:0:
475,192,26069,1,0,0:0:0:0:
256,192,26620,1,0,0:0:0:0:
402,192,26620,1,0,0:0:0:0:
109,192,27170,1,0,0:0:0:0:
36,192,27170,1,0,0:0:0:0:
329,192,27445,1,0,0:0:0:0:
256,192,27720,1,0,0:0:0:0:
402,192,27996,1,0,0:0:0:0:
475,192,27996,1,0,0:0:0:0:
109,192,28271,1,0,0:0:0:0:
36,192,28271,1,0,0:0:0:0:
402,192,28546,1,0,0:0:0:0:
182,192,28821,1,0,0:0:0:0:
329,192,28821,1,0,0:0:0:0:
36,192,29372,1,0,0:0:0:0:
182,192,29372,1,0,0:0:0:0:
402,192,29647,1,0,0:0:0:0:
256,192,29922,1,0,0:0:0:0:
475,192,30197,1,0,0:0:0:0:
329,192,30197,1,0,0:0:0:0:
36,192,30473,1,0,0:0:0:0:
182,192,30473,1,0,0:0:0:0:
329,192,30748,1,0,0:0:0:0:
109,192,31023,1,0,0:0:0:0:
256,192,31023,1,0,0:0:0:0:
402,192,31574,1,0,0:0:0:0:
475,192,31574,1,0,0:0:0:0:
329,192,32124,1,0,0:0:0:0:
109,192,32399,1,0,0:0:0:0:
182,192,32399,1,0,0:0:0:0:
402,192,32675,1,0,0:0:0:0:
475,192,32675,1,0,0:0:0:0:
329,192,32950,1,0,0:0:0:0:
182,192,33225,1,0,0:0:0:0:
36,192,33225,1,0,0:0:0:0:
475,192,33775,1,0,0:0:0:0:
329,192,33775,1,0,0:0:0:0:
109,192,34051,1,0,0:0:0:0:
256,192,34326,1,0,0:0:0:0:
36,192,34601,1,0,0:0:0:0:
182,192,34601,1,0,0:0:0:0:
329,192,34876,1,0,0:0:0:0:
475,192,34876,1,0,0:0:0:0:
182,192,35427,1,0,0:0:0:0:
402,192,35427,1,0,0:0:0:0:
109,192,35977,1,0,0:0:0:0:
36,192,35977,1,0,0:0:0:0:
475,192,36253,1,0,0:0:0:0:
256,192,36528,1,0,0:0:0:0:
329,192,36803,1,0,0:0:0:0:
402,192,36803,1,0,0:0:0:0:
109,192,37078,1,0,0:0:0:0:
36,192,37078,1,0,0:0:0:0:
475,192,37353,1,0,0:0:0:0:
182,192,37629,1,0,0:0:0:0:
329,192,37629,1,0,0:0:0:0:
182,192,38179,1,0,0:0:0:0:
36,192,38179,1,0,0:0:0:0:
256,192,38730,1,0,0:0:0:0:
475,192,39005,1,0,0:0:0:0:
329,192,39005,1,0,0:0:0:0:
182,192,39280,1,0,0:0:0:0:
36,192,39280,1,0,0:0:0:0:
329,192,39555,1,0,0:0:0:0:
256,192,39831,1,0,0:0:0:0:
109,192,39831,1,0,0:0:0:0:
402,192,40381,1,0,0:0:0:0:
475,192,40381,1,0,0:0:0:0:
256,192,40931,1,0,0:0:0:0:
36,192,41207,1,0,0:0:0:0:
109,192,41207,1,0,0:0:0:0:
402,192,41482,1,0,0:0:0:0:
329,192,41482,1,0,0:0:0:0:
182,192,41757,1,0,0:0:0:0:
256,192,42032,1,0,0:0:0:0:
109,192,42032,1,0,0:0:0:0:
475,192,42583,1,0,0:0:0:0:
329,192,42583,1,0,0:0:0:0:
182,192,42858,1,0,0:0:0:0:
256,192,43133,1,0,0:0:0:0:
329,192,43409,1,0,0:0:0:0:
475,192,43409,1,0,0:0:0:0:
182,192,43684,1,0,0:0:0:0:
109,192,43684,1,0,0:0:0:0:
36,192,44234,1,0,0:0:0:0:
256,192,44234,1,0,0:0:0:0:
402,192,44509,1,0,0:0:0:0:
