osu file format v14

[General]
AudioFilename: audio.mp3
AudioLeadIn: 0
PreviewTime: 8980
Countdown: 0
SampleSet: Normal
StackLeniency: 0.7
Mode: 3
LetterboxInBreaks: 0
SpecialStyle: 0
WidescreenStoryboard: 1

[Editor]
Bookmarks: 8980,17787,26595,35402,44209
DistanceSpacing: 2.4
BeatDivisor: 8
GridSize: 32
TimelineZoom: 1.5

[Metadata]
Title:chilling at nemu's place
TitleUnicode:chilling at nemu's place
Artist:in love with a ghost
ArtistUnicode:in love with a ghost
Creator:-NoName-
Version:4k hard
Source:
Tags:featured artist fa mappers' guild mg mpg instrumental electronic chillwave ambient chillout dream electronica ilwag chiptune Healing LVGHSTmusic
BeatmapID:3644891
BeatmapSetID:1775044

[Difficulty]
HPDrainRate:7.8
CircleSize:4
OverallDifficulty:7.5
ApproachRate:5
SliderMultiplier:1.4
SliderTickRate:1

[Events]
//Background and Video events
0,0,"bg.jpg",0,0
//Break Periods
//Storyboard Layer 0 (Background)
//Storyboard Layer 1 (Fail)
//Storyboard Layer 2 (Pass)
//Storyboard Layer 3 (Foreground)
//Storyboard Layer 4 (Overlay)
//Storyboard Sound Samples

[TimingPoints]
198,550.45871559633,4,1,1,100,1,0

[HitObjects]
192,192,198,5,0,0:0:0:0:
448,192,473,1,0,0:0:0:0:
448,192,1023,1,0,0:0:0:0:
192,192,1298,1,0,0:0:0:0:
448,192,1574,1,0,0:0:0:0:
448,192,2124,1,0,0:0:0:0:
64,192,2399,1,0,0:0:0:0:
320,192,2675,1,0,0:0:0:0:
320,192,3225,1,0,0:0:0:0:
64,192,3500,1,0,0:0:0:0:
320,192,3775,1,0,0:0:0:0:
320,192,4326,1,0,0:0:0:0:
64,192,4601,1,0,0:0:0:0:
192,192,4601,1,0,0:0:0:0:
448,192,4876,1,0,0:0:0:0:
64,192,4945,1,0,0:0:0:0:
192,192,5152,1,0,0:0:0:0:
448,192,5427,1,0,0:0:0:0:
320,192,5427,1,0,0:0:0:0:
64,192,5702,1,0,0:0:0:0:
192,192,5702,1,0,0:0:0:0:
448,192,5977,1,0,0:0:0:0:
448,192,6528,1,0,0:0:0:0:
64,192,6803,1,0,0:0:0:0:
192,192,6803,1,0,0:0:0:0:
320,192,7078,1,0,0:0:0:0:
320,192,7629,1,0,0:0:0:0:
448,192,7629,1,0,0:0:0:0:
64,192,7904,1,0,0:0:0:0:
320,192,7904,1,0,0:0:0:0:
192,192,8179,1,0,0:0:0:0:
320,192,8454,1,0,0:0:0:0:
448,192,8454,1,0,0:0:0:0:
64,192,8730,1,0,0:0:0:0:
320,192,8730,1,0,0:0:0:0:
448,192,9005,1,0,0:0:0:0:
64,192,9005,128,0,9280:0:0:0:0:
192,192,9280,1,0,0:0:0:0:
320,192,9349,1,0,0:0:0:0:
192,192,9555,1,0,0:0:0:0:
448,192,9555,1,0,0:0:0:0:
320,192,9831,128,0,9968:0:0:0:0:
64,192,9831,1,0,0:0:0:0:
448,192,9968,128,0,10106:0:0:0:0:
320,192,10106,128,0,10381:0:0:0:0:
192,192,10106,1,0,0:0:0:0:
64,192,10243,1,0,0:0:0:0:
192,192,10381,128,0,10656:0:0:0:0:
448,192,10381,1,0,0:0:0:0:
448,192,10656,128,0,10931:0:0:0:0:
64,192,10656,1,0,0:0:0:0:
192,192,10931,128,0,11207:0:0:0:0:
320,192,10931,1,0,0:0:0:0:
320,192,11207,128,0,11482:0:0:0:0:
64,192,11207,1,0,0:0:0:0:
448,192,11482,1,0,0:0:0:0:
192,192,11482,1,0,0:0:0:0:
64,192,11757,128,0,12032:0:0:0:0:
192,192,11757,1,0,0:0:0:0:
320,192,12032,1,0,0:0:0:0:
448,192,12032,1,0,0:0:0:0:
192,192,12308,128,0,12583:0:0:0:0:
64,192,12308,1,0,0:0:0:0:
448,192,12445,1,0,0:0:0:0:
320,192,12583,1,0,0:0:0:0:
64,192,12583,1,0,0:0:0:0:
320,192,12858,1,0,0:0:0:0:
448,192,12858,1,0,0:0:0:0:
64,192,13133,1,0,0:0:0:0:
192,192,13133,128,0,13409:0:0:0:0:
320,192,13409,128,0,13684:0:0:0:0:
448,192,13409,1,0,0:0:0:0:
64,192,13684,1,0,0:0:0:0:
192,192,13753,1,0,0:0:0:0:
64,192,13959,1,0,0:0:0:0:
320,192,13959,1,0,0:0:0:0:
192,192,14234,1,0,0:0:0:0:
448,192,14234,1,0,0:0:0:0:
192,192,14509,128,0,14785:0:0:0:0:
320,192,14509,1,0,0:0:0:0:
64,192,14647,1,0,0:0:0:0:
320,192,14785,1,0,0:0:0:0:
448,192,14785,1,0,0:0:0:0:
192,192,15060,1,0,0:0:0:0:
448,192,15060,1,0,0:0:0:0:
320,192,15335,128,0,15610:0:0:0:0:
64,192,15335,1,0,0:0:0:0:
192,192,15610,128,0,15886:0:0:0:0:
448,192,15610,1,0,0:0:0:0:
320,192,15886,1,0,0:0:0:0:
64,192,15886,1,0,0:0:0:0:
320,192,16161,1,0,0:0:0:0:
192,192,16161,1,0,0:0:0:0:
64,192,16436,1,0,0:0:0:0:
448,192,16436,1,0,0:0:0:0:
320,192,16711,128,0,16986:0:0:0:0:
192,192,16711,1,0,0:0:0:0:
448,192,16849,1,0,0:0:0:0:
64,192,16986,1,0,0:0:0:0:
192,192,16986,1,0,0:0:0:0:
448,192,17262,1,0,0:0:0:0:
64,192,17262,1,0,0:0:0:0:
192,192,17537,1,0,0:0:0:0:
448,192,17812,128,0,18087:0:0:0:0:
64,192,17812,1,0,0:0:0:0:
192,192,18087,1,0,0:0:0:0:
320,192,18156,1,0,0:0:0:0:
448,192,18363,1,0,0:0:0:0:
192,192,18363,1,0,0:0:0:0:
320,192,18638,128,0,18775:0:0:0:0:
64,192,18638,1,0,0:0:0:0:
448,192,18775,128,0,18913:0:0:0:0:
320,192,18913,128,0,19188:0:0:0:0:
192,192,18913,1,0,0:0:0:0:
64,192,19051,1,0,0:0:0:0:
192,192,19188,128,0,19464:0:0:0:0:
448,192,19188,1,0,0:0:0:0:
448,192,19464,128,0,19739:0:0:0:0:
64,192,19464,1,0,0:0:0:0:
192,192,19739,128,0,20014:0:0:0:0:
320,192,19739,1,0,0:0:0:0:
320,192,20014,128,0,20289:0:0:0:0:
64,192,20014,1,0,0:0:0:0:
448,192,20289,1,0,0:0:0:0:
192,192,20289,1,0,0:0:0:0:
64,192,20564,128,0,20840:0:0:0:0:
320,192,20564,1,0,0:0:0:0:
192,192,20840,1,0,0:0:0:0:
448,192,20840,1,0,0:0:0:0:
320,192,21115,128,0,21390:0:0:0:0:
64,192,21115,1,0,0:0:0:0:
448,192,21253,1,0,0:0:0:0:
64,192,21390,1,0,0:0:0:0:
192,192,21390,1,0,0:0:0:0:
192,192,21665,1,0,0:0:0:0:
320,192,21665,1,0,0:0:0:0:
64,192,21941,128,0,22216:0:0:0:0:
448,192,21941,1,0,0:0:0:0:
192,192,22216,1,0,0:0:0:0:
320,192,22216,128,0,22491:0:0:0:0:
64,192,22491,1,0,0:0:0:0:
192,192,22560,1,0,0:0:0:0:
64,192,22766,1,0,0:0:0:0:
320,192,22766,1,0,0:0:0:0:
192,192,23042,1,0,0:0:0:0:
448,192,23042,1,0,0:0:0:0:
192,192,23317,128,0,23592:0:0:0:0:
320,192,23317,1,0,0:0:0:0:
64,192,23454,1,0,0:0:0:0:
320,192,23592,1,0,0:0:0:0:
448,192,23592,1,0,0:0:0:0:
448,192,23867,1,0,0:0:0:0:
192,192,23867,1,0,0:0:0:0:
320,192,24142,128,0,24418:0:0:0:0:
64,192,24142,1,0,0:0:0:0:
192,192,24418,128,0,24693:0:0:0:0:
448,192,24418,1,0,0:0:0:0:
320,192,24693,1,0,0:0:0:0:
192,192,24968,1,0,0:0:0:0:
448,192,24968,1,0,0:0:0:0:
64,192,25243,1,0,0:0:0:0:
320,192,25243,1,0,0:0:0:0:
192,192,25519,128,0,25794:0:0:0:0:
448,192,25519,1,0,0:0:0:0:
64,192,25656,1,0,0:0:0:0:
320,192,25794,1,0,0:0:0:0:
448,192,25794,1,0,0:0:0:0:
64,192,26069,1,0,0:0:0:0:
320,192,26069,1,0,0:0:0:0:
192,192,26344,1,0,0:0:0:0:
448,192,26620,1,0,0:0:0:0:
64,192,26620,128,0,26895:0:0:0:0:
192,192,26895,1,0,0:0:0:0:
320,192,26964,1,0,0:0:0:0:
192,192,27170,1,0,0:0:0:0:
448,192,27170,1,0,0:0:0:0:
320,192,27445,128,0,27583:0:0:0:0:
64,192,27445,1,0,0:0:0:0:
448,192,27583,128,0,27720:0:0:0:0:
320,192,27720,128,0,27996:0:0:0:0:
192,192,27720,1,0,0:0:0:0:
64,192,27858,1,0,0:0:0:0:
192,192,27996,128,0,28271:0:0:0:0:
448,192,27996,128,0,28133:0:0:0:0:
448,192,28271,128,0,28546:0:0:0:0:
64,192,28271,128,0,28684:0:0:0:0:
192,192,28546,128,0,28821:0:0:0:0:
320,192,28546,1,0,0:0:0:0:
320,192,28821,128,0,29097:0:0:0:0:
64,192,28821,1,0,0:0:0:0:
448,192,28821,128,0,29372:0:0:0:0:
192,192,29097,1,0,0:0:0:0:
320,192,29372,1,0,0:0:0:0:
64,192,29372,128,0,29922:0:0:0:0:
448,192,29647,1,0,0:0:0:0:
192,192,29922,128,0,30197:0:0:0:0:
320,192,29922,1,0,0:0:0:0:
448,192,30060,1,0,0:0:0:0:
64,192,30197,1,0,0:0:0:0:
320,192,30197,128,0,30335:0:0:0:0:
64,192,30473,1,0,0:0:0:0:
448,192,30473,128,0,30886:0:0:0:0:
320,192,30748,1,0,0:0:0:0:
192,192,30748,128,0,31023:0:0:0:0:
64,192,31023,128,0,31298:0:0:0:0:
448,192,31023,1,0,0:0:0:0:
192,192,31298,1,0,0:0:0:0:
320,192,31367,1,0,0:0:0:0:
64,192,31574,1,0,0:0:0:0:
320,192,31574,1,0,0:0:0:0:
192,192,31849,1,0,0:0:0:0:
448,192,31849,1,0,0:0:0:0:
192,192,32124,128,0,32399:0:0:0:0:
320,192,32124,1,0,0:0:0:0:
64,192,32262,1,0,0:0:0:0:
320,192,32399,1,0,0:0:0:0:
448,192,32399,128,0,32537:0:0:0:0:
64,192,32675,1,0,0:0:0:0:
192,192,32675,128,0,33225:0:0:0:0:
448,192,32950,128,0,33225:0:0:0:0:
320,192,32950,1,0,0:0:0:0:
320,192,33225,128,0,33500:0:0:0:0:
64,192,33225,128,0,33638:0:0:0:0:
448,192,33500,1,0,0:0:0:0:
64,192,33775,1,0,0:0:0:0:
448,192,33775,128,0,34188:0:0:0:0:
192,192,34051,1,0,0:0:0:0:
320,192,34326,128,0,34601:0:0:0:0:
448,192,34326,1,0,0:0:0:0:
64,192,34464,1,0,0:0:0:0:
192,192,34601,1,0,0:0:0:0:
448,192,34601,128,0,34739:0:0:0:0:
192,192,34876,1,0,0:0:0:0:
320,192,34876,1,0,0:0:0:0:
448,192,35152,128,0,35289:0:0:0:0:
64,192,35152,1,0,0:0:0:0:
192,192,35427,128,0,35702:0:0:0:0:
448,192,35427,1,0,0:0:0:0:
64,192,35702,1,0,0:0:0:0:
320,192,35771,1,0,0:0:0:0:
448,192,35977,1,0,0:0:0:0:
64,192,35977,1,0,0:0:0:0:
192,192,36253,128,0,36390:0:0:0:0:
320,192,36253,1,0,0:0:0:0:
448,192,36390,128,0,36528:0:0:0:0:
192,192,36528,128,0,36803:0:0:0:0:
320,192,36528,1,0,0:0:0:0:
64,192,36665,1,0,0:0:0:0:
320,192,36803,128,0,37078:0:0:0:0:
448,192,36803,1,0,0:0:0:0:
64,192,37078,128,0,37353:0:0:0:0:
448,192,37078,128,0,37353:0:0:0:0:
320,192,37353,128,0,37629:0:0:0:0:
192,192,37353,128,0,37629:0:0:0:0:
448,192,37629,128,0,37904:0:0:0:0:
64,192,37629,128,0,37904:0:0:0:0:
320,192,37904,1,0,0:0:0:0:
192,192,37904,1,0,0:0:0:0:
64,192,38179,128,0,38454:0:0:0:0:
320,192,38179,1,0,0:0:0:0:
192,192,38454,1,0,0:0:0:0:
448,192,38454,1,0,0:0:0:0:
320,192,38730,128,0,39005:0:0:0:0:
64,192,38730,1,0,0:0:0:0:
448,192,38867,1,0,0:0:0:0:
192,192,39005,1,0,0:0:0:0:
64,192,39005,128,0,39280:0:0:0:0:
192,192,39280,1,0,0:0:0:0:
448,192,39280,128,0,39831:0:0:0:0:
64,192,39555,128,0,39831:0:0:0:0:
320,192,39555,1,0,0:0:0:0:
192,192,39831,1,0,0:0:0:0:
320,192,39831,128,0,40106:0:0:0:0:
64,192,40106,1,0,0:0:0:0:
448,192,40175,1,0,0:0:0:0:
192,192,40381,1,0,0:0:0:0:
448,192,40381,1,0,0:0:0:0:
64,192,40656,1,0,0:0:0:0:
320,192,40656,1,0,0:0:0:0:
192,192,40931,128,0,41207:0:0:0:0:
448,192,40931,1,0,0:0:0:0:
64,192,41069,1,0,0:0:0:0:
320,192,41207,1,0,0:0:0:0:
448,192,41207,128,0,41344:0:0:0:0:
64,192,41482,128,0,42032:0:0:0:0:
192,192,41482,1,0,0:0:0:0:
448,192,41757,128,0,42032:0:0:0:0:
320,192,41757,1,0,0:0:0:0:
192,192,42032,128,0,42308:0:0:0:0:
320,192,42032,128,0,42583:0:0:0:0:
64,192,42308,1,0,0:0:0:0:
64,192,42583,1,0,0:0:0:0:
448,192,42583,128,0,43133:0:0:0:0:
320,192,42858,1,0,0:0:0:0:
192,192,42858,1,0,0:0:0:0:
192,192,43133,128,0,43409:0:0:0:0:
64,192,43133,1,0,0:0:0:0:
448,192,43271,1,0,0:0:0:0:
320,192,43409,1,0,0:0:0:0:
64,192,43409,128,0,43546:0:0:0:0:
320,192,43684,128,0,44097:0:0:0:0:
448,192,43684,1,0,0:0:0:0:
192,192,43959,1,0,0:0:0:0:
64,192,44234,1,0,0:0:0:0:
320,192,44234,1,0,0:0:0:0:
448,192,44509,1,0,0:0:0:0:
