osu file format v14

[General]
AudioFilename: audio.mp3
AudioLeadIn: 0
PreviewTime: 18331
Countdown: 0
SampleSet: Soft
StackLeniency: 0.7
Mode: 3
LetterboxInBreaks: 0
SpecialStyle: 0
WidescreenStoryboard: 1

[Editor]
DistanceSpacing: 2.4
BeatDivisor: 4
GridSize: 32
TimelineZoom: 0.5

[Metadata]
Title:am i a girl? am i a boy? do i really care? i'm hungry anyway
TitleUnicode:am i a girl? am i a boy? do i really care? i'm hungry anyway
Artist:in love with a ghost
ArtistUnicode:in love with a ghost
Creator:fvrex
Version:6k normal
Source:
Tags:osu! healing featured artist fa xtrippin hytex itzuaka guden mappers' guild mapper's mg mpg chillwave electronic ambient chillout downtempo dream electronica lo-fi ost soundtrack im a story about witches, magic and friendship ilwag instrumental
BeatmapID:3621177
BeatmapSetID:1768974

[Difficulty]
HPDrainRate:7
CircleSize:6
OverallDifficulty:7
ApproachRate:5
SliderMultiplier:1.4
SliderTickRate:1

[Events]
//Background and Video events
0,0,"72787231.jpg",0,0
//Break Periods
//Storyboard Layer 0 (Background)
//Storyboard Layer 1 (Fail)
//Storyboard Layer 2 (Pass)
//Storyboard Layer 3 (Foreground)
//Storyboard Layer 4 (Overlay)
//Storyboard Sound Samples

[TimingPoints]
189,571.428571428571,4,2,1,70,1,0
39046,-100,4,2,1,50,0,0

[HitObjects]
298,192,189,5,0,0:0:0:0:
213,192,474,1,0,0:0:0:0:
384,192,760,1,0,0:0:0:0:
213,192,1331,1,0,0:0:0:0:
298,192,1617,1,0,0:0:0:0:
128,192,1903,1,0,0:0:0:0:
298,192,2474,1,0,0:0:0:0:
213,192,2760,1,0,0:0:0:0:
384,192,3046,1,0,0:0:0:0:
213,192,3617,1,0,0:0:0:0:
298,192,3903,1,0,0:0:0:0:
128,192,4188,1,0,0:0:0:0:
469,192,4760,1,0,0:0:0:0:
298,192,5046,1,0,0:0:0:0:
384,192,5331,1,0,0:0:0:0:
42,192,5903,1,0,0:0:0:0:
213,192,6188,1,0,0:0:0:0:
128,192,6474,1,0,0:0:0:0:
469,192,7046,1,0,0:0:0:0:
298,192,7331,1,0,0:0:0:0:
384,192,7617,1,0,0:0:0:0:
42,192,8188,1,0,0:0:0:0:
213,192,8474,1,0,0:0:0:0:
384,192,8760,1,0,0:0:0:0:
128,192,8760,1,8,0:0:0:0:
42,192,9331,1,2,0:0:0:0:
213,192,9331,1,0,0:0:0:0:
298,192,9617,1,2,0:0:0:0:
128,192,9903,1,8,0:0:0:0:
384,192,9903,1,0,0:0:0:0:
42,192,10760,1,2,0:0:0:0:
213,192,11046,1,8,0:0:0:0:
469,192,11046,1,0,0:0:0:0:
42,192,11617,1,2,0:0:0:0:
384,192,11617,1,0,0:0:0:0:
128,192,11903,1,0,0:0:0:0:
213,192,12188,1,8,0:0:0:0:
298,192,12188,1,0,0:0:0:0:
128,192,13046,1,2,0:0:0:0:
298,192,13331,1,8,0:0:0:0:
469,192,13331,1,0,0:0:0:0:
128,192,13903,1,2,0:0:0:0:
384,192,13903,1,0,0:0:0:0:
213,192,14188,1,2,0:0:0:0:
42,192,14474,1,8,0:0:0:0:
298,192,14474,1,0,0:0:0:0:
384,192,15331,1,2,0:0:0:0:
213,192,15617,1,0,0:0:0:0:
128,192,15617,1,8,0:0:0:0:
298,192,16188,1,2,0:0:0:0:
469,192,16188,1,0,0:0:0:0:
128,192,16474,1,0,0:0:0:0:
213,192,16760,1,8,0:0:0:0:
384,192,16760,1,0,0:0:0:0:
128,192,17617,1,2,0:0:0:0:
213,192,17903,1,8,0:0:0:0:
384,192,17903,1,0,0:0:0:0:
42,192,18474,128,2,18760:0:0:0:0:
298,192,18474,1,0,0:0:0:0:
384,192,18760,128,2,19046:0:0:0:0:
128,192,19046,128,8,19331:0:0:0:0:
213,192,19046,1,0,0:0:0:0:
298,192,19331,128,0,19617:0:0:0:0:
384,192,19903,1,2,0:0:0:0:
42,192,20188,1,8,0:0:0:0:
298,192,20188,1,0,0:0:0:0:
128,192,20760,1,2,0:0:0:0:
469,192,20760,1,0,0:0:0:0:
213,192,21046,1,0,0:0:0:0:
298,192,21331,1,8,0:0:0:0:
384,192,21331,1,0,0:0:0:0:
298,192,21903,1,0,0:0:0:0:
128,192,22188,1,2,0:0:0:0:
213,192,22474,1,8,0:0:0:0:
384,192,22474,1,0,0:0:0:0:
42,192,23046,128,2,23331:0:0:0:0:
469,192,23046,1,0,0:0:0:0:
298,192,23331,128,2,23617:0:0:0:0:
128,192,23617,1,8,0:0:0:0:
213,192,23617,128,0,23903:0:0:0:0:
469,192,23903,128,0,24188:0:0:0:0:
128,192,24474,1,2,0:0:0:0:
298,192,24760,1,0,0:0:0:0:
213,192,24760,1,8,0:0:0:0:
42,192,25331,1,2,0:0:0:0:
384,192,25331,1,0,0:0:0:0:
213,192,25617,1,0,0:0:0:0:
298,192,25903,1,8,0:0:0:0:
469,192,25903,1,0,0:0:0:0:
213,192,26474,1,0,0:0:0:0:
298,192,26760,1,2,0:0:0:0:
42,192,27046,1,8,0:0:0:0:
469,192,27046,1,0,0:0:0:0:
213,192,27617,1,2,0:0:0:0:
469,192,27617,128,0,27903:0:0:0:0:
128,192,27903,128,2,28188:0:0:0:0:
384,192,28188,1,0,0:0:0:0:
298,192,28188,128,8,28474:0:0:0:0:
213,192,28474,128,0,28760:0:0:0:0:
128,192,29046,1,2,0:0:0:0:
213,192,29331,1,8,0:0:0:0:
469,192,29331,1,0,0:0:0:0:
42,192,29903,1,2,0:0:0:0:
384,192,29903,1,0,0:0:0:0:
298,192,30188,1,0,0:0:0:0:
128,192,30474,1,8,0:0:0:0:
213,192,30474,1,0,0:0:0:0:
469,192,31046,1,0,0:0:0:0:
384,192,31331,1,2,0:0:0:0:
298,192,31617,1,0,0:0:0:0:
128,192,31617,1,8,0:0:0:0:
384,192,32188,1,2,0:0:0:0:
469,192,32188,128,0,32474:0:0:0:0:
213,192,32474,128,2,32760:0:0:0:0:
128,192,32760,1,8,0:0:0:0:
298,192,32760,128,0,33046:0:0:0:0:
42,192,33046,128,0,33331:0:0:0:0:
384,192,33617,1,2,0:0:0:0:
213,192,33903,1,8,0:0:0:0:
298,192,33903,1,0,0:0:0:0:
469,192,34474,1,0,0:0:0:0:
128,192,34474,1,2,0:0:0:0:
298,192,34760,1,0,0:0:0:0:
42,192,35046,1,8,0:0:0:0:
213,192,35046,1,0,0:0:0:0:
384,192,35617,1,0,0:0:0:0:
213,192,35903,1,2,0:0:0:0:
42,192,36188,1,8,0:0:0:0:
298,192,36188,1,0,0:0:0:0:
128,192,36760,1,2,0:0:0:0:
469,192,36760,1,0,0:0:0:0:
298,192,37046,1,0,0:0:0:0:
384,192,39046,1,0,0:0:0:0:
128,192,39046,128,2,39331:0:0:0:0:
213,192,39331,128,2,39617:0:0:0:0:
298,192,39617,128,8,39903:0:0:0:0:
469,192,39617,1,0,0:0:0:0:
42,192,39903,128,0,40188:0:0:0:0:
298,192,40474,1,2,0:0:0:0:
128,192,40760,1,8,0:0:0:0:
213,192,40760,1,0,0:0:0:0:
298,192,41331,1,2,0:0:0:0:
469,192,41331,1,0,0:0:0:0:
128,192,41617,1,0,0:0:0:0:
384,192,41903,1,0,0:0:0:0:
213,192,41903,1,8,0:0:0:0:
213,192,42760,1,2,0:0:0:0:
128,192,43046,1,8,0:0:0:0:
298,192,43046,1,0,0:0:0:0:
42,192,43617,128,2,43903:0:0:0:0:
384,192,43617,1,0,0:0:0:0:
298,192,43903,128,2,44188:0:0:0:0:
128,192,44188,1,8,0:0:0:0:
213,192,44188,128,0,44474:0:0:0:0:
469,192,44474,128,0,44760:0:0:0:0:
298,192,45046,1,2,0:0:0:0:
384,192,45331,1,0,0:0:0:0:
128,192,45331,1,8,0:0:0:0:
42,192,45903,1,2,0:0:0:0:
213,192,46188,1,0,0:0:0:0:
298,192,46474,1,8,0:0:0:0:
469,192,46474,1,0,0:0:0:0:
384,192,47331,1,2,0:0:0:0:
213,192,47617,1,8,0:0:0:0:
298,192,47617,1,0,0:0:0:0:
128,192,48188,128,2,48474:0:0:0:0:
469,192,48188,1,0,0:0:0:0:
213,192,48474,128,2,48760:0:0:0:0:
384,192,48760,1,0,0:0:0:0:
298,192,48760,128,8,49046:0:0:0:0:
42,192,49046,128,0,49331:0:0:0:0:
213,192,49617,1,2,0:0:0:0:
128,192,49903,1,8,0:0:0:0:
384,192,49903,1,0,0:0:0:0:
298,192,50474,1,2,0:0:0:0:
384,192,52188,1,0,0:0:0:0:
42,192,52760,128,0,53046:0:0:0:0:
384,192,53046,128,2,53331:0:0:0:0:
128,192,53331,1,8,0:0:0:0:
213,192,53331,128,0,53617:0:0:0:0:
469,192,53617,128,0,53903:0:0:0:0:
213,192,54188,1,2,0:0:0:0:
298,192,54474,1,8,0:0:0:0:
384,192,54474,1,0,0:0:0:0:
128,192,55046,1,2,0:0:0:0:
469,192,55331,1,0,0:0:0:0:
42,192,55617,1,8,0:0:0:0:
298,192,55617,1,0,0:0:0:0:
213,192,56474,1,2,0:0:0:0:
128,192,56760,1,8,0:0:0:0:
384,192,56760,1,0,0:0:0:0:
298,192,57046,1,4,0:0:0:0:
42,192,57331,1,2,0:0:0:0:
213,192,57331,1,0,0:0:0:0:
