osu file format v14

[General]
AudioFilename: audio.mp3
AudioLeadIn: 0
PreviewTime: 18331
Countdown: 0
SampleSet: Soft
StackLeniency: 0.7
Mode: 3
LetterboxInBreaks: 0
SpecialStyle: 0
WidescreenStoryboard: 1

[Editor]
DistanceSpacing: 2.4
BeatDivisor: 4
GridSize: 32
TimelineZoom: 2.3

[Metadata]
Title:am i a girl? am i a boy? do i really care? i'm hungry anyway
TitleUnicode:am i a girl? am i a boy? do i really care? i'm hungry anyway
Artist:in love with a ghost
ArtistUnicode:in love with a ghost
Creator:fvrex
Version:4k stepping into a food trance
Source:
Tags:osu! healing featured artist fa xtrippin hytex itzuaka guden mappers' guild mapper's mg mpg chillwave electronic ambient chillout downtempo dream electronica lo-fi ost soundtrack im a story about witches, magic and friendship ilwag instrumental
BeatmapID:3621175
BeatmapSetID:1768974

[Difficulty]
HPDrainRate:8
CircleSize:4
OverallDifficulty:8
ApproachRate:5
SliderMultiplier:1.4
SliderTickRate:1

[Events]
//Background and Video events
0,0,"72787231.jpg",0,0
//Break Periods
//Storyboard Layer 0 (Background)
//Storyboard Layer 1 (Fail)
//Storyboard Layer 2 (Pass)
//Storyboard Layer 3 (Foreground)
//Storyboard Layer 4 (Overlay)
//Storyboard Sound Samples

[TimingPoints]
189,571.428571428571,4,2,1,70,1,0
39046,-100,4,2,1,50,0,0

[HitObjects]
448,192,189,5,0,0:0:0:0:
448,192,474,1,0,0:0:0:0:
448,192,760,1,0,0:0:0:0:
448,192,1046,1,0,0:0:0:0:
192,192,1331,1,0,0:0:0:0:
192,192,1617,1,0,0:0:0:0:
192,192,1903,1,0,0:0:0:0:
192,192,2188,1,0,0:0:0:0:
448,192,2474,1,0,0:0:0:0:
448,192,2760,1,0,0:0:0:0:
448,192,3046,1,0,0:0:0:0:
448,192,3331,1,0,0:0:0:0:
192,192,3617,1,0,0:0:0:0:
192,192,3903,1,0,0:0:0:0:
192,192,4188,1,0,0:0:0:0:
192,192,4474,1,0,0:0:0:0:
320,192,4760,1,0,0:0:0:0:
320,192,5046,1,0,0:0:0:0:
320,192,5331,1,0,0:0:0:0:
320,192,5617,1,0,0:0:0:0:
64,192,5903,1,0,0:0:0:0:
64,192,6188,1,0,0:0:0:0:
64,192,6474,1,0,0:0:0:0:
64,192,6760,1,0,0:0:0:0:
320,192,7046,1,0,0:0:0:0:
320,192,7331,1,0,0:0:0:0:
320,192,7617,1,0,0:0:0:0:
320,192,7903,1,0,0:0:0:0:
64,192,8188,1,0,0:0:0:0:
64,192,8474,1,0,0:0:0:0:
64,192,8760,1,8,0:0:0:0:
448,192,8760,128,0,8903:0:0:0:0:
64,192,9046,128,4,9331:0:0:0:0:
320,192,9331,1,2,0:0:0:0:
448,192,9331,1,0,0:0:0:0:
192,192,9617,1,2,0:0:0:0:
448,192,9617,1,0,0:0:0:0:
448,192,9903,1,0,0:0:0:0:
64,192,9903,128,8,10046:0:0:0:0:
448,192,10188,1,0,0:0:0:0:
320,192,10379,1,0,0:0:0:0:
192,192,10474,1,0,0:0:0:0:
192,192,10760,1,2,0:0:0:0:
448,192,10760,1,0,0:0:0:0:
192,192,11046,1,8,0:0:0:0:
320,192,11046,128,0,11188:0:0:0:0:
192,192,11331,128,4,11617:0:0:0:0:
448,192,11617,1,0,0:0:0:0:
64,192,11617,1,2,0:0:0:0:
192,192,11903,1,0,0:0:0:0:
448,192,11903,1,0,0:0:0:0:
64,192,12188,128,8,12331:0:0:0:0:
448,192,12188,1,0,0:0:0:0:
448,192,12474,1,0,0:0:0:0:
320,192,12665,1,0,0:0:0:0:
192,192,12760,1,0,0:0:0:0:
192,192,13046,1,0,0:0:0:0:
64,192,13046,1,2,0:0:0:0:
192,192,13331,1,8,0:0:0:0:
448,192,13331,128,0,13474:0:0:0:0:
192,192,13617,128,4,13903:0:0:0:0:
64,192,13903,1,2,0:0:0:0:
320,192,13903,1,0,0:0:0:0:
320,192,14188,1,2,0:0:0:0:
448,192,14188,1,0,0:0:0:0:
320,192,14474,1,0,0:0:0:0:
192,192,14474,128,8,14617:0:0:0:0:
320,192,14760,1,0,0:0:0:0:
448,192,14950,1,0,0:0:0:0:
64,192,15046,1,0,0:0:0:0:
64,192,15331,1,2,0:0:0:0:
320,192,15331,1,0,0:0:0:0:
448,192,15617,128,0,15760:0:0:0:0:
64,192,15617,1,8,0:0:0:0:
64,192,15903,128,4,16188:0:0:0:0:
448,192,16188,1,0,0:0:0:0:
320,192,16188,1,2,0:0:0:0:
320,192,16474,1,0,0:0:0:0:
192,192,16760,128,8,16903:0:0:0:0:
320,192,16760,1,0,0:0:0:0:
320,192,17046,1,0,0:0:0:0:
192,192,17236,1,0,0:0:0:0:
64,192,17331,1,0,0:0:0:0:
64,192,17617,1,2,0:0:0:0:
448,192,17617,1,0,0:0:0:0:
320,192,17903,128,0,18046:0:0:0:0:
64,192,17903,1,8,0:0:0:0:
64,192,18188,128,4,18474:0:0:0:0:
320,192,18474,128,2,18617:0:0:0:0:
448,192,18474,1,0,0:0:0:0:
64,192,18760,128,2,18903:0:0:0:0:
448,192,18760,1,0,0:0:0:0:
192,192,19046,128,8,19188:0:0:0:0:
448,192,19046,128,0,19188:0:0:0:0:
448,192,19331,1,0,0:0:0:0:
320,192,19331,128,0,19474:0:0:0:0:
64,192,19522,1,0,0:0:0:0:
192,192,19617,1,0,0:0:0:0:
192,192,19903,1,2,0:0:0:0:
448,192,19903,1,0,0:0:0:0:
64,192,20188,128,8,20331:0:0:0:0:
192,192,20188,1,0,0:0:0:0:
192,192,20474,128,4,20760:0:0:0:0:
448,192,20760,1,0,0:0:0:0:
320,192,20760,128,2,20903:0:0:0:0:
448,192,21046,1,0,0:0:0:0:
192,192,21331,128,8,21474:0:0:0:0:
448,192,21331,1,0,0:0:0:0:
448,192,21617,1,0,0:0:0:0:
320,192,21808,1,0,0:0:0:0:
192,192,21903,1,0,0:0:0:0:
320,192,22188,1,0,0:0:0:0:
192,192,22188,1,2,0:0:0:0:
448,192,22474,128,0,22617:0:0:0:0:
192,192,22474,128,8,22617:0:0:0:0:
192,192,22760,128,4,23046:0:0:0:0:
64,192,23046,128,2,23188:0:0:0:0:
320,192,23046,128,0,23188:0:0:0:0:
192,192,23331,128,2,23474:0:0:0:0:
320,192,23331,1,0,0:0:0:0:
192,192,23617,128,8,23760:0:0:0:0:
320,192,23617,128,0,23760:0:0:0:0:
320,192,23903,1,0,0:0:0:0:
448,192,23903,128,0,24046:0:0:0:0:
192,192,24093,1,0,0:0:0:0:
64,192,24188,1,0,0:0:0:0:
64,192,24474,1,2,0:0:0:0:
320,192,24474,1,0,0:0:0:0:
64,192,24760,1,8,0:0:0:0:
448,192,24760,128,0,24903:0:0:0:0:
64,192,25046,128,4,25331:0:0:0:0:
320,192,25331,1,0,0:0:0:0:
192,192,25331,1,2,0:0:0:0:
320,192,25617,1,0,0:0:0:0:
64,192,25903,128,8,26046:0:0:0:0:
320,192,25903,128,0,26046:0:0:0:0:
320,192,26188,1,0,0:0:0:0:
192,192,26331,128,0,26474:0:0:0:0:
64,192,26474,1,0,0:0:0:0:
448,192,26617,128,0,26760:0:0:0:0:
192,192,26760,1,0,0:0:0:0:
64,192,26760,1,2,0:0:0:0:
64,192,27046,128,8,27188:0:0:0:0:
320,192,27046,128,0,27188:0:0:0:0:
64,192,27331,128,4,27617:0:0:0:0:
320,192,27617,128,2,27760:0:0:0:0:
448,192,27617,1,0,0:0:0:0:
192,192,27903,128,2,28046:0:0:0:0:
448,192,27903,1,0,0:0:0:0:
320,192,28188,128,8,28331:0:0:0:0:
448,192,28188,128,0,28331:0:0:0:0:
64,192,28474,128,0,28617:0:0:0:0:
448,192,28474,1,0,0:0:0:0:
320,192,28665,1,0,0:0:0:0:
192,192,28760,1,0,0:0:0:0:
192,192,29046,1,2,0:0:0:0:
448,192,29046,1,0,0:0:0:0:
192,192,29331,1,8,0:0:0:0:
320,192,29331,128,0,29474:0:0:0:0:
192,192,29617,128,4,29903:0:0:0:0:
320,192,29903,128,2,30046:0:0:0:0:
448,192,29903,1,0,0:0:0:0:
448,192,30188,1,0,0:0:0:0:
448,192,30474,1,0,0:0:0:0:
64,192,30474,128,8,30617:0:0:0:0:
448,192,30760,1,0,0:0:0:0:
64,192,30950,1,0,0:0:0:0:
192,192,31046,1,0,0:0:0:0:
64,192,31331,1,2,0:0:0:0:
192,192,31331,1,0,0:0:0:0:
192,192,31617,1,8,0:0:0:0:
448,192,31617,128,0,31760:0:0:0:0:
192,192,31903,128,4,32188:0:0:0:0:
320,192,32188,128,0,32331:0:0:0:0:
64,192,32188,128,2,32331:0:0:0:0:
192,192,32474,128,2,32617:0:0:0:0:
320,192,32474,1,0,0:0:0:0:
192,192,32760,128,8,32903:0:0:0:0:
320,192,32760,128,0,32903:0:0:0:0:
320,192,33046,1,0,0:0:0:0:
448,192,33046,128,0,33188:0:0:0:0:
192,192,33236,1,0,0:0:0:0:
320,192,33331,128,0,33474:0:0:0:0:
64,192,33331,1,0,0:0:0:0:
64,192,33617,1,2,0:0:0:0:
320,192,33617,128,0,33760:0:0:0:0:
64,192,33903,128,8,34046:0:0:0:0:
320,192,33903,128,0,34188:0:0:0:0:
64,192,34188,128,4,34474:0:0:0:0:
320,192,34474,1,2,0:0:0:0:
448,192,34474,1,0,0:0:0:0:
320,192,34760,1,0,0:0:0:0:
320,192,35046,1,0,0:0:0:0:
192,192,35046,128,8,35188:0:0:0:0:
320,192,35331,1,0,0:0:0:0:
448,192,35522,1,0,0:0:0:0:
64,192,35617,1,0,0:0:0:0:
64,192,35903,1,2,0:0:0:0:
320,192,35903,1,0,0:0:0:0:
64,192,36188,1,8,0:0:0:0:
448,192,36188,128,0,36331:0:0:0:0:
64,192,36474,128,4,36760:0:0:0:0:
448,192,36760,1,0,0:0:0:0:
320,192,36760,1,2,0:0:0:0:
448,192,37046,1,0,0:0:0:0:
64,192,39046,128,2,39188:0:0:0:0:
320,192,39046,1,0,0:0:0:0:
192,192,39331,128,2,39474:0:0:0:0:
320,192,39331,1,0,0:0:0:0:
64,192,39617,128,8,39760:0:0:0:0:
320,192,39617,1,0,0:0:0:0:
448,192,39903,128,0,40046:0:0:0:0:
320,192,39903,1,0,0:0:0:0:
192,192,40093,1,0,0:0:0:0:
64,192,40188,1,0,0:0:0:0:
64,192,40474,1,2,0:0:0:0:
192,192,40474,1,0,0:0:0:0:
64,192,40760,1,8,0:0:0:0:
448,192,40760,1,0,0:0:0:0:
64,192,41046,128,4,41331:0:0:0:0:
320,192,41331,1,0,0:0:0:0:
192,192,41331,128,2,41474:0:0:0:0:
320,192,41617,1,0,0:0:0:0:
64,192,41903,1,8,0:0:0:0:
320,192,41903,1,0,0:0:0:0:
320,192,42188,1,0,0:0:0:0:
448,192,42379,1,0,0:0:0:0:
64,192,42474,1,0,0:0:0:0:
320,192,42760,1,0,0:0:0:0:
64,192,42760,1,2,0:0:0:0:
448,192,43046,128,0,43188:0:0:0:0:
64,192,43046,1,8,0:0:0:0:
64,192,43331,128,4,43617:0:0:0:0:
192,192,43617,128,2,43760:0:0:0:0:
448,192,43617,128,0,43760:0:0:0:0:
64,192,43903,128,2,44046:0:0:0:0:
448,192,43903,1,0,0:0:0:0:
192,192,44188,128,8,44331:0:0:0:0:
448,192,44188,1,0,0:0:0:0:
448,192,44474,1,0,0:0:0:0:
320,192,44474,128,0,44617:0:0:0:0:
64,192,44665,1,0,0:0:0:0:
192,192,44760,1,0,0:0:0:0:
192,192,45046,1,2,0:0:0:0:
448,192,45046,1,0,0:0:0:0:
192,192,45331,1,8,0:0:0:0:
320,192,45331,1,0,0:0:0:0:
192,192,45617,128,4,45903:0:0:0:0:
64,192,45903,1,2,0:0:0:0:
448,192,45903,1,0,0:0:0:0:
448,192,46188,1,0,0:0:0:0:
320,192,46474,1,8,0:0:0:0:
448,192,46474,1,0,0:0:0:0:
448,192,46760,1,0,0:0:0:0:
64,192,46950,1,0,0:0:0:0:
192,192,47046,1,0,0:0:0:0:
192,192,47331,1,2,0:0:0:0:
448,192,47331,1,0,0:0:0:0:
192,192,47617,1,0,0:0:0:0:
64,192,47617,1,8,0:0:0:0:
192,192,47903,128,4,48188:0:0:0:0:
64,192,48188,128,2,48331:0:0:0:0:
320,192,48188,1,0,0:0:0:0:
192,192,48474,128,2,48617:0:0:0:0:
320,192,48474,1,0,0:0:0:0:
64,192,48760,128,8,48903:0:0:0:0:
320,192,48760,1,0,0:0:0:0:
320,192,49046,1,0,0:0:0:0:
448,192,49046,128,0,49188:0:0:0:0:
192,192,49236,1,0,0:0:0:0:
64,192,49331,1,0,0:0:0:0:
64,192,49617,1,2,0:0:0:0:
320,192,49617,1,0,0:0:0:0:
64,192,49903,1,8,0:0:0:0:
192,192,49903,1,0,0:0:0:0:
64,192,50188,128,4,50474:0:0:0:0:
320,192,50474,128,2,50617:0:0:0:0:
448,192,50474,1,0,0:0:0:0:
448,192,52188,128,0,52331:0:0:0:0:
64,192,52760,128,0,53046:0:0:0:0:
192,192,53046,128,2,53188:0:0:0:0:
448,192,53046,1,0,0:0:0:0:
64,192,53331,128,8,53474:0:0:0:0:
448,192,53331,1,0,0:0:0:0:
320,192,53617,128,0,53760:0:0:0:0:
448,192,53617,1,0,0:0:0:0:
64,192,53808,1,0,0:0:0:0:
192,192,53903,1,0,0:0:0:0:
320,192,54188,1,0,0:0:0:0:
192,192,54188,1,2,0:0:0:0:
64,192,54474,1,8,0:0:0:0:
192,192,54474,1,0,0:0:0:0:
192,192,54760,128,4,55046:0:0:0:0:
448,192,55046,1,2,0:0:0:0:
448,192,55331,1,0,0:0:0:0:
64,192,55617,1,8,0:0:0:0:
448,192,55617,1,0,0:0:0:0:
448,192,55903,1,0,0:0:0:0:
320,192,56093,1,0,0:0:0:0:
192,192,56188,1,0,0:0:0:0:
192,192,56474,1,2,0:0:0:0:
448,192,56474,1,0,0:0:0:0:
192,192,56760,1,8,0:0:0:0:
320,192,56760,1,0,0:0:0:0:
192,192,57046,128,4,57331:0:0:0:0:
64,192,57331,1,2,0:0:0:0:
320,192,57331,1,0,0:0:0:0:
