osu file format v14

[General]
AudioFilename: audio.mp3
AudioLeadIn: 0
PreviewTime: 18331
Countdown: 0
SampleSet: Soft
StackLeniency: 0.7
Mode: 3
LetterboxInBreaks: 0
SpecialStyle: 0
WidescreenStoryboard: 1

[Editor]
DistanceSpacing: 2.4
BeatDivisor: 4
GridSize: 32
TimelineZoom: 1.8

[Metadata]
Title:am i a girl? am i a boy? do i really care? i'm hungry anyway
TitleUnicode:am i a girl? am i a boy? do i really care? i'm hungry anyway
Artist:in love with a ghost
ArtistUnicode:in love with a ghost
Creator:fvrex
Version:4k hard
Source:
Tags:osu! healing featured artist fa xtrippin hytex itzuaka guden mappers' guild mapper's mg mpg chillwave electronic ambient chillout downtempo dream electronica lo-fi ost soundtrack im a story about witches, magic and friendship ilwag instrumental
BeatmapID:3621173
BeatmapSetID:1768974

[Difficulty]
HPDrainRate:7.5
CircleSize:4
OverallDifficulty:7.5
ApproachRate:5
SliderMultiplier:1.4
SliderTickRate:1

[Events]
//Background and Video events
0,0,"72787231.jpg",0,0
//Break Periods
//Storyboard Layer 0 (Background)
//Storyboard Layer 1 (Fail)
//Storyboard Layer 2 (Pass)
//Storyboard Layer 3 (Foreground)
//Storyboard Layer 4 (Overlay)
//Storyboard Sound Samples

[TimingPoints]
189,571.428571428571,4,2,1,70,1,0
39046,-100,4,2,1,50,0,0

[HitObjects]
320,192,189,1,0,0:0:0:0:
320,192,474,1,0,0:0:0:0:
192,192,760,1,0,0:0:0:0:
192,192,1046,1,0,0:0:0:0:
320,192,1331,1,0,0:0:0:0:
320,192,1617,1,0,0:0:0:0:
192,192,1903,1,0,0:0:0:0:
192,192,2188,1,0,0:0:0:0:
320,192,2474,1,0,0:0:0:0:
320,192,2760,1,0,0:0:0:0:
192,192,3046,1,0,0:0:0:0:
192,192,3331,1,0,0:0:0:0:
320,192,3617,1,0,0:0:0:0:
320,192,3903,1,0,0:0:0:0:
192,192,4188,1,0,0:0:0:0:
192,192,4474,1,0,0:0:0:0:
448,192,4760,1,0,0:0:0:0:
448,192,5046,1,0,0:0:0:0:
64,192,5331,1,0,0:0:0:0:
64,192,5617,1,0,0:0:0:0:
448,192,5903,1,0,0:0:0:0:
448,192,6188,1,0,0:0:0:0:
64,192,6474,1,0,0:0:0:0:
64,192,6760,1,0,0:0:0:0:
448,192,7046,1,0,0:0:0:0:
448,192,7331,1,0,0:0:0:0:
64,192,7617,1,0,0:0:0:0:
64,192,7903,1,0,0:0:0:0:
448,192,8188,1,0,0:0:0:0:
448,192,8474,1,0,0:0:0:0:
192,192,8760,1,0,0:0:0:0:
64,192,8760,1,8,0:0:0:0:
64,192,9046,1,4,0:0:0:0:
320,192,9331,1,2,0:0:0:0:
320,192,9617,1,2,0:0:0:0:
192,192,9903,1,8,0:0:0:0:
448,192,9903,1,0,0:0:0:0:
192,192,10188,1,0,0:0:0:0:
320,192,10474,1,0,0:0:0:0:
320,192,10760,1,2,0:0:0:0:
64,192,11046,1,8,0:0:0:0:
192,192,11046,1,0,0:0:0:0:
192,192,11331,1,4,0:0:0:0:
320,192,11617,1,2,0:0:0:0:
320,192,11903,1,0,0:0:0:0:
448,192,12188,1,0,0:0:0:0:
192,192,12188,1,8,0:0:0:0:
192,192,12474,1,0,0:0:0:0:
320,192,12760,1,0,0:0:0:0:
320,192,13046,1,2,0:0:0:0:
192,192,13331,1,8,0:0:0:0:
448,192,13331,1,0,0:0:0:0:
192,192,13617,1,4,0:0:0:0:
448,192,13903,1,2,0:0:0:0:
448,192,14188,1,2,0:0:0:0:
64,192,14474,1,8,0:0:0:0:
192,192,14474,1,0,0:0:0:0:
64,192,14760,1,0,0:0:0:0:
448,192,15046,1,0,0:0:0:0:
448,192,15331,1,2,0:0:0:0:
320,192,15617,1,0,0:0:0:0:
64,192,15617,1,8,0:0:0:0:
64,192,15903,1,4,0:0:0:0:
448,192,16188,1,2,0:0:0:0:
448,192,16474,1,0,0:0:0:0:
64,192,16760,1,8,0:0:0:0:
192,192,16760,1,0,0:0:0:0:
64,192,17046,1,0,0:0:0:0:
448,192,17331,1,0,0:0:0:0:
448,192,17617,1,2,0:0:0:0:
64,192,17903,1,8,0:0:0:0:
192,192,17903,1,0,0:0:0:0:
64,192,18188,1,4,0:0:0:0:
320,192,18474,1,2,0:0:0:0:
448,192,18474,1,0,0:0:0:0:
64,192,18760,1,2,0:0:0:0:
320,192,18760,1,0,0:0:0:0:
64,192,19046,1,8,0:0:0:0:
192,192,19046,1,0,0:0:0:0:
448,192,19331,1,0,0:0:0:0:
192,192,19331,1,0,0:0:0:0:
64,192,19474,1,0,0:0:0:0:
320,192,19617,1,0,0:0:0:0:
320,192,19903,1,2,0:0:0:0:
192,192,20188,1,8,0:0:0:0:
448,192,20188,1,0,0:0:0:0:
192,192,20474,1,4,0:0:0:0:
64,192,20760,1,2,0:0:0:0:
320,192,20760,1,0,0:0:0:0:
320,192,21046,1,0,0:0:0:0:
64,192,21331,1,8,0:0:0:0:
192,192,21331,1,0,0:0:0:0:
192,192,21617,1,0,0:0:0:0:
448,192,21760,1,0,0:0:0:0:
320,192,21903,1,0,0:0:0:0:
320,192,22188,1,2,0:0:0:0:
64,192,22474,1,8,0:0:0:0:
192,192,22474,1,0,0:0:0:0:
192,192,22760,1,4,0:0:0:0:
320,192,23046,1,2,0:0:0:0:
448,192,23046,1,0,0:0:0:0:
192,192,23331,1,2,0:0:0:0:
448,192,23331,1,0,0:0:0:0:
64,192,23617,1,8,0:0:0:0:
320,192,23617,1,0,0:0:0:0:
64,192,23903,1,0,0:0:0:0:
192,192,23903,1,0,0:0:0:0:
320,192,24046,1,0,0:0:0:0:
448,192,24188,1,0,0:0:0:0:
448,192,24474,1,2,0:0:0:0:
320,192,24760,1,0,0:0:0:0:
64,192,24760,1,8,0:0:0:0:
64,192,25046,1,4,0:0:0:0:
448,192,25331,1,2,0:0:0:0:
448,192,25617,1,0,0:0:0:0:
64,192,25903,1,8,0:0:0:0:
192,192,25903,1,0,0:0:0:0:
64,192,26188,1,0,0:0:0:0:
192,192,26331,1,0,0:0:0:0:
448,192,26474,1,0,0:0:0:0:
192,192,26617,1,0,0:0:0:0:
448,192,26760,1,2,0:0:0:0:
64,192,27046,1,8,0:0:0:0:
192,192,27046,1,0,0:0:0:0:
64,192,27331,1,4,0:0:0:0:
448,192,27617,1,0,0:0:0:0:
320,192,27617,1,2,0:0:0:0:
320,192,27903,1,0,0:0:0:0:
64,192,27903,1,2,0:0:0:0:
192,192,28188,1,8,0:0:0:0:
448,192,28188,1,0,0:0:0:0:
64,192,28474,1,0,0:0:0:0:
192,192,28474,1,0,0:0:0:0:
448,192,28617,1,0,0:0:0:0:
320,192,28760,1,0,0:0:0:0:
320,192,29046,1,2,0:0:0:0:
192,192,29331,1,8,0:0:0:0:
448,192,29331,1,0,0:0:0:0:
192,192,29617,1,4,0:0:0:0:
64,192,29903,1,2,0:0:0:0:
320,192,29903,1,0,0:0:0:0:
320,192,30188,1,0,0:0:0:0:
192,192,30474,1,0,0:0:0:0:
64,192,30474,1,8,0:0:0:0:
192,192,30760,1,0,0:0:0:0:
64,192,30903,1,0,0:0:0:0:
320,192,31046,1,0,0:0:0:0:
320,192,31331,1,2,0:0:0:0:
192,192,31617,1,8,0:0:0:0:
448,192,31617,1,0,0:0:0:0:
192,192,31903,1,4,0:0:0:0:
64,192,32188,1,2,0:0:0:0:
448,192,32188,1,0,0:0:0:0:
320,192,32474,1,2,0:0:0:0:
448,192,32474,1,0,0:0:0:0:
64,192,32760,1,8,0:0:0:0:
192,192,32760,1,0,0:0:0:0:
64,192,33046,1,0,0:0:0:0:
320,192,33046,1,0,0:0:0:0:
192,192,33188,1,0,0:0:0:0:
448,192,33331,1,0,0:0:0:0:
448,192,33617,1,2,0:0:0:0:
64,192,33903,1,8,0:0:0:0:
320,192,33903,1,0,0:0:0:0:
64,192,34188,1,4,0:0:0:0:
448,192,34474,1,2,0:0:0:0:
448,192,34760,1,0,0:0:0:0:
64,192,35046,1,8,0:0:0:0:
192,192,35046,1,0,0:0:0:0:
64,192,35331,1,0,0:0:0:0:
320,192,35474,1,0,0:0:0:0:
448,192,35617,1,0,0:0:0:0:
448,192,35903,1,2,0:0:0:0:
64,192,36188,1,8,0:0:0:0:
320,192,36188,1,0,0:0:0:0:
64,192,36474,1,4,0:0:0:0:
448,192,36760,1,2,0:0:0:0:
448,192,37046,1,0,0:0:0:0:
64,192,39046,1,2,0:0:0:0:
320,192,39046,1,0,0:0:0:0:
320,192,39331,1,2,0:0:0:0:
192,192,39617,1,8,0:0:0:0:
448,192,39617,1,0,0:0:0:0:
192,192,39903,1,0,0:0:0:0:
320,192,40188,1,0,0:0:0:0:
320,192,40474,1,2,0:0:0:0:
64,192,40760,1,8,0:0:0:0:
192,192,40760,1,0,0:0:0:0:
192,192,41046,1,4,0:0:0:0:
320,192,41331,1,2,0:0:0:0:
448,192,41331,1,0,0:0:0:0:
320,192,41617,1,0,0:0:0:0:
192,192,41903,1,8,0:0:0:0:
448,192,41903,1,0,0:0:0:0:
192,192,42188,1,0,0:0:0:0:
320,192,42474,1,0,0:0:0:0:
320,192,42760,1,2,0:0:0:0:
64,192,43046,1,8,0:0:0:0:
192,192,43046,1,0,0:0:0:0:
192,192,43331,1,4,0:0:0:0:
320,192,43617,1,2,0:0:0:0:
448,192,43617,1,0,0:0:0:0:
448,192,43903,1,2,0:0:0:0:
64,192,44188,1,8,0:0:0:0:
320,192,44188,1,0,0:0:0:0:
64,192,44474,1,0,0:0:0:0:
448,192,44760,1,0,0:0:0:0:
448,192,45046,1,2,0:0:0:0:
64,192,45331,1,8,0:0:0:0:
320,192,45331,1,0,0:0:0:0:
64,192,45617,1,4,0:0:0:0:
448,192,45903,1,2,0:0:0:0:
448,192,46188,1,0,0:0:0:0:
64,192,46474,1,8,0:0:0:0:
192,192,46474,1,0,0:0:0:0:
64,192,46760,1,0,0:0:0:0:
448,192,47046,1,0,0:0:0:0:
448,192,47331,1,2,0:0:0:0:
64,192,47617,1,8,0:0:0:0:
320,192,47617,1,0,0:0:0:0:
64,192,47903,1,4,0:0:0:0:
320,192,48188,1,2,0:0:0:0:
320,192,48474,1,2,0:0:0:0:
448,192,48760,1,0,0:0:0:0:
192,192,48760,1,8,0:0:0:0:
192,192,49046,1,0,0:0:0:0:
320,192,49331,1,0,0:0:0:0:
320,192,49617,1,2,0:0:0:0:
192,192,49903,1,8,0:0:0:0:
448,192,49903,1,0,0:0:0:0:
192,192,50188,1,4,0:0:0:0:
320,192,50474,1,2,0:0:0:0:
64,192,52188,1,0,0:0:0:0:
448,192,52760,1,0,0:0:0:0:
448,192,53046,1,2,0:0:0:0:
64,192,53331,1,8,0:0:0:0:
192,192,53331,1,0,0:0:0:0:
64,192,53617,1,0,0:0:0:0:
448,192,53903,1,0,0:0:0:0:
448,192,54188,1,2,0:0:0:0:
64,192,54474,1,8,0:0:0:0:
320,192,54474,1,0,0:0:0:0:
64,192,54760,1,4,0:0:0:0:
448,192,55046,1,2,0:0:0:0:
448,192,55331,1,0,0:0:0:0:
64,192,55617,1,8,0:0:0:0:
192,192,55617,1,0,0:0:0:0:
64,192,55903,1,0,0:0:0:0:
448,192,56188,1,0,0:0:0:0:
448,192,56474,1,2,0:0:0:0:
64,192,56760,1,8,0:0:0:0:
320,192,56760,1,0,0:0:0:0:
64,192,57046,1,4,0:0:0:0:
192,192,57331,1,2,0:0:0:0:
448,192,57331,1,0,0:0:0:0:
