osu file format v14

[General]
AudioFilename: audio.mp3
AudioLeadIn: 0
PreviewTime: 181836
Countdown: 0
SampleSet: Soft
StackLeniency: 0.3
Mode: 0
LetterboxInBreaks: 0
WidescreenStoryboard: 1

[Editor]
DistanceSpacing: 1
BeatDivisor: 4
GridSize: 8
TimelineZoom: 1.1

[Metadata]
Title:We can go now!
TitleUnicode:We can go now!
Artist:illumination STARS
ArtistUnicode:イルミネーションスターズ
Creator:Ducky-
Version:Stormi's Hard
Source:アイドルマスター シャイニーカラーズ
Tags:櫻木真乃 Sakuragi Mano 風野灯織 Kazano Hiori 八宮めぐる Hachimiya Meguru 関根瞳 Sekine Hitomi 近藤玲奈 Kondo Reina 峯田茉優 Mineda Mayu THE iDOLM@STER SHINY COLORS FR@GMENT WING 02 im@s imas japanese jpop j-pop hikan stormiverse
BeatmapID:2736442
BeatmapSetID:1314009

[Difficulty]
HPDrainRate:4
CircleSize:4
OverallDifficulty:7
ApproachRate:8
SliderMultiplier:1.7
SliderTickRate:1

[Events]
//Background and Video events
0,0,"heyheyitslikelikepopcorn.jpg",0,0
//Break Periods
2,143301,147998
2,171536,181351
//Storyboard Layer 0 (Background)
//Storyboard Layer 1 (Fail)
//Storyboard Layer 2 (Pass)
//Storyboard Layer 3 (Foreground)
//Storyboard Layer 4 (Overlay)
//Storyboard Sound Samples

[TimingPoints]
513,352.941176470588,4,2,1,50,1,0
513,-111.111111111111,4,2,1,50,0,0
1218,-111.111111111111,4,2,1,45,0,0
1483,-111.111111111111,4,2,1,55,0,0
1571,-111.111111111111,4,2,1,65,0,0
1924,-100,4,2,1,80,0,0
13218,-105.263157894737,4,2,1,55,0,0
15512,-105.263157894737,4,2,1,55,0,0
16042,-111.111111111111,4,2,1,60,0,0
27336,-100,4,2,1,70,0,0
38101,-100,4,2,1,70,0,0
38630,-111.111111111111,4,2,2,60,0,0
47101,-111.111111111111,4,2,1,60,0,0
47454,-111.111111111111,4,2,2,60,0,0
48160,-111.111111111111,4,2,2,65,0,0
48336,-111.111111111111,4,2,2,70,0,0
48424,-111.111111111111,4,2,1,80,0,0
49218,-111.111111111111,4,2,1,70,0,0
49924,-90.9090909090909,4,2,1,90,0,1
72512,-100,4,2,1,80,0,0
83807,-105.263157894737,4,2,1,55,0,0
86101,-105.263157894737,4,2,1,55,0,0
86630,-100,4,2,1,65,0,0
96512,-111.111111111111,4,2,1,65,0,0
97395,-111.111111111111,4,2,1,70,0,0
97571,-111.111111111111,4,2,1,70,0,0
97924,-100,4,2,1,75,0,0
109218,-111.111111111111,4,2,2,65,0,0
117689,-111.111111111111,4,2,1,65,0,0
117865,-111.111111111111,4,2,1,70,0,0
118042,-111.111111111111,4,2,2,65,0,0
118748,-111.111111111111,4,2,2,75,0,0
118924,-111.111111111111,4,2,2,85,0,0
119012,-111.111111111111,4,2,1,85,0,0
120512,-90.9090909090908,4,2,1,95,0,1
143101,-100,4,2,1,65,0,0
148748,-100,4,2,2,65,0,0
154395,-100,4,2,1,65,0,0
157218,-100,4,2,1,75,0,0
157924,-100,4,2,1,85,0,0
158454,-100,4,2,1,80,0,0
160042,-90.9090909090909,4,2,1,90,0,0
171336,-111.111111111111,4,2,1,90,0,0
182101,-111.111111111111,4,2,1,95,0,0
182630,-90.9090909090909,4,2,1,95,0,1
205218,-100,4,2,1,80,0,0
222160,-100,4,2,1,20,0,0

[Colours]
Combo1 : 205,248,126
Combo2 : 105,204,241
Combo3 : 145,251,240
Combo4 : 248,139,183
Combo5 : 250,177,230
Combo6 : 218,240,89

[HitObjects]
196,24,513,6,0,L|259:29,3,38.2499988327027,0|0|2|2,3:0|3:0|3:0|0:3,0:0:0:0:
261,0,865,2,0,P|250:61|258:80,1,76.4999976654053,8|8,0:3|0:3,0:0:0:0:
308,127,1218,2,0,L|371:121,3,38.2499988327027,8|0|0|2,0:3|3:0|3:0|0:3,0:0:0:0:
373,96,1571,2,0,B|435:90|418:133|479:128,1,114.749996498108,0|0,3:0|0:0,0:0:0:0:
509,98,1924,5,4,3:2:0:0:
361,183,2277,1,10,0:0:0:0:
361,183,2454,2,0,P|321:197|279:204,1,85,2|0,3:2|0:0,0:0:0:0:
219,265,2807,1,2,3:2:0:0:
219,265,2983,2,0,P|179:250|137:243,1,85,10|0,0:0|0:0,0:0:0:0:
52,243,3336,5,0,3:0:0:0:
104,81,3689,1,10,0:2:0:0:
104,81,3865,2,0,P|115:149|106:170,1,85,2|0,3:2|0:0,0:0:0:0:
137,243,4218,1,2,3:2:0:0:
137,243,4395,2,0,P|130:284|143:324,1,85,10|0,0:0|0:0,0:0:0:0:
204,384,4748,5,0,3:0:0:0:
300,243,5101,1,10,0:2:0:0:
300,243,5277,2,0,P|260:228|218:221,1,85,2|0,3:2|0:0,0:0:0:0:
192,140,5630,1,2,3:2:0:0:
192,140,5807,2,0,P|150:147|110:161,1,85,10|0,0:0|0:0,0:0:0:0:
50,222,6160,6,0,L|64:389,1,85,2|0,3:2|0:0,0:0:0:0:
141,275,6512,2,0,L|126:442,1,85,10|0,0:2|3:0,0:0:0:0:
218,221,6865,2,0,L|232:388,1,85,2|0,0:2|3:0,0:0:0:0:
309,274,7218,2,0,L|294:441,1,85,10|0,0:0|0:0,0:0:0:0:
394,305,7571,5,0,3:0:0:0:
310,156,7924,1,10,0:0:0:0:
310,156,8101,2,0,P|295:116|288:74,1,85,2|0,3:2|0:0,0:0:0:0:
202,74,8454,1,2,3:2:0:0:
202,74,8630,2,0,P|194:115|180:155,1,85,10|0,0:0|0:0,0:0:0:0:
120,215,8983,5,0,3:0:0:0:
260,313,9336,1,10,0:0:0:0:
260,313,9512,2,0,P|328:324|349:315,1,85,2|0,3:2|0:0,0:0:0:0:
349,235,9865,1,2,3:2:0:0:
349,235,10042,2,0,P|280:223|259:232,1,85,10|0,0:0|0:0,0:0:0:0:
190,264,10395,5,0,3:0:0:0:
303,137,10748,1,10,0:0:0:0:
303,137,10924,2,0,P|317:97|324:55,1,85,2|0,3:2|0:0,0:0:0:0:
411,55,11277,1,2,3:2:0:0:
411,55,11454,2,0,P|418:96|432:136,1,85,10|0,0:0|0:0,0:0:0:0:
492,196,11807,6,0,B|407:188|407:188|325:210,1,170,2|10,3:2|0:2,0:0:0:0:
286,286,12336,1,0,3:2:0:0:
456,279,12689,1,0,3:0:0:0:
456,279,12865,2,0,B|413:275|413:275|372:286,1,85,10|2,0:2|0:2,0:0:0:0:
421,361,13218,5,4,3:2:0:0:
421,361,15512,1,8,0:0:0:0:
413,280,15689,1,8,0:0:0:0:
352,228,15865,1,8,0:0:0:0:
275,235,16042,6,0,L|87:251,1,152.999995330811,4|0,3:2|0:0,0:0:0:0:
129,324,16571,2,0,L|316:307,1,152.999995330811,0|2,3:0|0:0,0:0:0:0:
358,304,17101,1,4,0:3:0:0:
287,169,17454,2,0,P|219:139|159:180,1,152.999995330811,0|0,3:0|0:0,0:0:0:0:
122,248,17983,2,0,B|129:165|71:187|78:106,1,152.999995330811,0|2,3:0|0:2,0:0:0:0:
84,29,18512,1,4,0:3:0:0:
199,131,18865,6,0,P|270:157|345:170,1,152.999995330811,0|0,3:0|0:0,0:0:0:0:
343,247,19395,2,0,P|267:260|195:286,1,152.999995330811,0|2,3:0|0:0,0:0:0:0:
129,324,19924,1,4,0:3:0:0:
25,210,20277,2,0,B|59:193|59:193|197:205,1,152.999995330811,0|0,3:0|0:0,0:0:0:0:
199,131,20807,1,0,3:0:0:0:
199,131,20983,2,0,L|290:122,1,76.4999976654053,0|4,0:0|0:3,0:0:0:0:
329,70,21336,1,4,0:3:0:0:
437,178,21689,6,0,P|466:245|425:305,1,152.999995330811,0|0,3:0|0:0,0:0:0:0:
381,369,22218,1,0,3:0:0:0:
381,369,22395,2,0,P|345:355|307:349,1,76.4999976654053,2|2,0:0|0:0,0:0:0:0:
230,349,22748,1,4,0:3:0:0:
121,240,23101,2,0,P|91:172|132:112,1,152.999995330811,2|0,3:2|0:0,0:0:0:0:
178,50,23630,1,0,3:0:0:0:
178,50,23807,2,0,P|213:63|251:69,1,76.4999976654053,0|4,0:0|0:3,0:0:0:0:
329,70,24160,1,4,0:3:0:0:
332,223,24512,6,0,B|249:230|271:172|190:179,1,152.999995330811,0|0,3:0|0:0,0:0:0:0:
113,185,25042,1,0,3:0:0:0:
113,185,25218,2,0,P|126:149|132:111,1,76.4999976654053,2|2,0:0|0:0,0:0:0:0:
133,34,25571,1,4,0:3:0:0:
265,112,25924,2,0,B|347:119|325:61|406:68,1,152.999995330811,2|2,3:2|0:2,0:0:0:0:
484,74,26454,1,0,3:0:0:0:
407,206,26807,1,2,1:3:0:0:
407,206,26983,1,8,1:2:0:0:
265,112,27336,6,0,P|225:97|183:90,1,85,4|2,3:2|0:0,0:0:0:0:
123,29,27689,2,0,P|96:62|76:100,1,85,10|2,0:0|3:2,0:0:0:0:
0,138,28042,2,0,P|23:173|53:203,1,85,2|4,0:0|3:3,0:0:0:0:
66,288,28395,1,10,0:0:0:0:
66,288,28748,6,0,B|148:266|148:266|234:272,1,170,2|10,3:2|0:2,0:0:0:0:
293,332,29277,1,0,3:0:0:0:
293,332,29454,2,0,B|336:335|336:335|377:324,1,85,2|2,0:0|0:2,0:0:0:0:
436,263,29807,1,10,0:0:0:0:
315,142,30160,5,0,3:0:0:0:
315,142,30336,2,0,P|275:127|233:120,1,85,2|8,0:0|0:0,0:0:0:0:
173,59,30689,1,2,3:2:0:0:
173,59,30865,2,0,P|133:74|91:81,1,85,2|4,0:0|0:3,0:0:0:0:
6,80,31218,1,10,0:0:0:0:
56,243,31571,6,0,B|80:207|80:207|92:69,1,170,2|10,3:2|0:2,0:0:0:0:
161,31,32101,1,0,3:0:0:0:
161,31,32277,2,0,B|170:72|170:72|167:114,1,85,2|4,0:0|0:3,0:0:0:0:
227,174,32630,1,10,0:0:0:0:
227,174,32807,1,2,0:0:0:0:
286,114,32983,6,0,P|361:82|429:126,1,170,2|10,3:2|0:0,0:0:0:0:
489,66,33512,2,0,P|459:145|445:229,1,170,0|4,3:0|0:3,0:0:0:0:
445,314,34042,1,10,0:2:0:0:
445,314,34218,1,2,0:2:0:0:
384,374,34395,6,0,B|292:382|317:318|226:326,1,170,2|10,3:2|0:2,0:0:0:0:
149,332,34924,1,0,3:0:0:0:
149,332,35101,2,0,P|164:292|171:250,1,85,2|4,0:2|0:3,0:0:0:0:
149,167,35454,1,10,0:2:0:0:
3,255,35807,6,0,B|59:259|59:259|114:245|114:245|181:251,1,170,2|10,3:2|0:2,0:0:0:0:
230,189,36336,1,0,3:0:0:0:
230,189,36512,2,0,B|190:171|190:171|148:167,1,85,2|2,0:0|0:2,0:0:0:0:
88,106,36865,1,10,0:0:0:0:
171,250,37218,6,0,B|227:254|227:254|282:240|282:240|349:246,1,170,2|10,3:2|0:0,0:0:0:0:
291,327,37748,1,0,3:0:0:0:
291,156,38101,1,2,1:3:0:0:
291,156,38277,1,8,1:2:0:0:
171,250,38630,6,0,L|187:66,1,152.999995330811,6|10,3:2|0:0,0:0:0:0:
179,15,39160,1,0,3:0:0:0:
47,90,39512,1,0,3:0:0:0:
47,90,39689,1,10,0:0:0:0:
46,242,40042,1,2,3:2:0:0:
177,318,40395,1,10,0:0:0:0:
177,318,40571,1,8,3:2:0:0:
309,243,40924,1,0,3:0:0:0:
309,243,41101,2,0,P|362:224|419:214,1,114.749996498108,14|0,0:2|0:0,0:0:0:0:
446,241,41454,6,0,B|453:158|395:181|402:99,1,152.999995330811,6|10,3:2|0:0,0:0:0:0:
410,23,41983,1,0,3:0:0:0:
504,143,42336,1,0,3:0:0:0:
504,143,42512,1,10,0:0:0:0:
447,284,42865,1,2,3:2:0:0:
296,305,43218,1,10,0:0:0:0:
296,305,43395,1,8,3:2:0:0:
202,185,43748,1,2,3:2:0:0:
239,119,43924,2,0,P|251:83|257:45,1,76.4999976654053,10|0,0:0|0:0,0:0:0:0:
332,30,44277,6,0,P|308:101|237:118,1,152.999995330811,6|10,3:2|0:0,0:0:0:0:
173,82,44807,1,0,3:0:0:0:
96,213,45160,1,2,3:2:0:0:
96,213,45336,1,10,0:0:0:0:
172,344,45689,1,2,3:2:0:0:
325,344,46042,1,10,0:2:0:0:
325,344,46218,1,8,3:2:0:0:
401,212,46571,1,0,3:0:0:0:
401,212,46748,2,0,P|420:159|430:102,1,114.749996498108,14|0,0:0|0:0,0:0:0:0:
430,62,47101,6,0,P|394:74|356:80,1,76.4999976654053,6|0,3:2|0:0,0:0:0:0:
301,134,47454,2,0,P|263:128|227:116,1,76.4999976654053,2|0,3:2|3:0,0:0:0:0:
172,61,47807,1,2,3:2:0:0:
118,114,47983,1,2,3:2:0:0:
172,168,48160,1,2,3:2:0:0:
118,221,48336,1,2,3:2:0:0:
118,221,48424,1,0,3:0:0:0:
118,221,48512,1,10,0:2:0:0:
118,221,49924,5,6,3:2:0:0:
118,221,50101,1,2,0:0:0:0:
183,287,50277,2,0,P|265:322|340:273,1,187.000005706787,10|4,0:0|0:3,0:0:0:0:
434,274,50807,1,2,3:2:0:0:
434,274,50983,2,0,P|417:230|409:184,1,93.5000028533936,10|0,0:0|0:0,0:0:0:0:
418,91,51336,5,2,3:2:0:0:
418,91,51512,1,2,0:0:0:0:
492,148,51689,2,0,P|409:183|334:134,1,187.000005706787,10|4,0:0|0:3,0:0:0:0:
240,134,52218,1,2,3:2:0:0:
240,134,52395,2,0,P|256:90|264:44,1,93.5000028533936,10|2,0:0|0:2,0:0:0:0:
162,80,52748,6,0,B|263:71|236:142|335:133,2,187.000005706787,2|8|2,3:2|0:0|0:2,0:0:0:0:
68,80,53630,1,0,3:0:0:0:
68,80,53807,2,0,P|84:123|92:169,1,93.5000028533936,8|0,0:0|0:0,0:0:0:0:
185,169,54160,6,0,B|153:231|148:303|148:303|213:348,1,187.000005706787,2|8,3:2|0:0,0:0:0:0:
264,383,54689,1,0,3:0:0:0:
359,222,55042,1,2,3:2:0:0:
359,222,55218,2,0,P|342:178|334:132,1,93.5000028533936,10|0,0:2|0:0,0:0:0:0:
381,51,55571,6,0,B|428:46|428:46|473:58,1,93.5000028533936,6|0,3:2|0:0,0:0:0:0:
512,144,55924,2,0,B|464:148|464:148|419:136,1,93.5000028533936,10|0,0:2|3:0,0:0:0:0:
359,222,56277,2,0,B|406:217|406:217|451:229,1,93.5000028533936,4|0,0:3|3:0,0:0:0:0:
490,315,56630,2,0,B|442:319|442:319|397:307,1,93.5000028533936,10|0,0:0|0:0,0:0:0:0:
304,307,56983,6,0,L|326:51,1,187.000005706787,2|10,3:2|0:0,0:0:0:0:
235,159,57512,1,0,3:0:0:0:
235,159,57689,2,0,L|223:286,1,93.5000028533936,4|0,0:3|3:0,0:0:0:0:
149,199,58042,1,10,0:0:0:0:
320,120,58395,6,0,B|332:75|332:75|328:28,1,93.5000028533936,2|0,3:2|0:0,0:0:0:0:
242,66,58748,2,0,B|230:111|230:111|235:159,1,93.5000028533936,10|0,0:0|3:0,0:0:0:0:
155,91,59101,2,0,B|167:46|167:46|163:-1,1,93.5000028533936,4|0,0:3|3:0,0:0:0:0:
77,37,59454,2,0,B|53:127|53:127|63:223,1,187.000005706787,10|0,0:0|3:0,0:0:0:0:
71,312,59983,5,2,0:0:0:0:
4,378,60160,1,8,0:0:0:0:
4,378,60336,1,2,0:3:0:0:
148,259,60689,1,2,1:3:0:0:
201,336,60865,1,10,1:2:0:0:
95,182,61218,5,6,3:2:0:0:
95,182,61395,1,2,0:0:0:0:
188,174,61571,2,0,B|289:165|262:236|361:227,1,187.000005706787,10|4,0:0|0:3,0:0:0:0:
427,160,62101,1,2,3:2:0:0:
427,160,62277,2,0,P|435:205|451:249,1,93.5000028533936,10|0,0:0|0:0,0:0:0:0:
489,336,62630,5,2,3:2:0:0:
489,336,62807,1,2,0:0:0:0:
400,368,62983,2,0,B|299:377|326:306|227:315,1,187.000005706787,10|4,0:0|0:3,0:0:0:0:
161,382,63513,1,2,3:2:0:0:
161,382,63689,2,0,P|153:337|137:293,1,93.5000028533936,10|2,0:0|0:0,0:0:0:0:
70,225,64042,6,0,P|156:201|224:260,2,187.000005706787,2|8|0,3:2|0:0|0:0,0:0:0:0:
89,133,64924,1,0,3:0:0:0:
89,133,65101,2,0,P|97:87|113:43,1,93.5000028533936,8|0,0:0|0:0,0:0:0:0:
20,45,65454,6,0,P|36:136|69:223,1,187.000005706787,2|8,3:2|0:0,0:0:0:0:
115,304,65983,1,0,3:0:0:0:
275,203,66336,1,2,3:2:0:0:
275,203,66512,2,0,P|319:186|365:178,1,93.5000028533936,10|2,0:2|0:0,0:0:0:0:
458,178,66865,6,0,L|446:50,1,93.5000028533936,6|0,3:2|0:0,0:0:0:0:
368,21,67218,2,0,L|356:148,1,93.5000028533936,10|0,0:0|3:0,0:0:0:0:
275,203,67571,2,0,L|263:75,1,93.5000028533936,4|0,0:3|3:0,0:0:0:0:
185,46,67924,2,0,L|173:173,1,93.5000028533936,10|0,0:0|0:0,0:0:0:0:
91,187,68277,6,0,B|185:179|185:179|275:203,1,187.000005706787,2|10,3:2|0:0,0:0:0:0:
223,286,68807,1,0,3:0:0:0:
223,286,68983,2,0,B|177:273|177:273|130:278,1,93.5000028533936,4|2,0:3|3:2,0:0:0:0:
170,368,69336,1,10,0:0:0:0:
170,368,69512,1,2,0:0:0:0:
261,364,69689,6,0,L|389:375,1,93.5000028533936,2|0,3:2|0:0,0:0:0:0:
316,277,70042,2,0,L|188:288,1,93.5000028533936,10|0,0:0|0:0,0:0:0:0:
261,190,70395,2,0,L|389:201,1,93.5000028533936,4|0,0:3|3:0,0:0:0:0:
316,103,70748,2,0,L|188:114,1,93.5000028533936,10|0,0:0|0:0,0:0:0:0:
261,16,71101,6,0,L|517:38,1,187.000005706787,0|8,3:0|0:0,0:0:0:0:
503,107,71630,1,2,3:2:0:0:
316,103,71983,1,2,1:3:0:0:
316,103,72160,2,0,L|444:114,1,93.5000028533936,10|0,1:2|3:0,0:0:0:0:
431,212,72512,5,4,3:2:0:0:
260,212,72865,1,10,0:0:0:0:
260,212,73042,2,0,P|218:218|178:232,1,85,2|0,3:2|0:0,0:0:0:0:
157,151,73395,1,2,3:2:0:0:
157,151,73571,2,0,P|171:191|177:232,1,85,10|0,0:2|0:0,0:0:0:0:
177,317,73924,5,0,3:0:0:0:
347,317,74277,1,10,0:0:0:0:
347,317,74454,2,0,P|388:310|428:296,1,85,2|0,3:2|0:0,0:0:0:0:
450,378,74807,1,2,3:2:0:0:
450,378,74983,2,0,P|435:337|429:296,1,85,10|0,0:0|0:0,0:0:0:0:
430,212,75336,5,0,3:0:0:0:
310,331,75689,1,10,0:0:0:0:
310,331,75865,2,0,L|214:322,1,85,2|0,3:2|0:0,0:0:0:0:
232,238,76218,1,2,3:2:0:0:
232,238,76395,2,0,L|223:333,1,85,10|0,0:0|0:0,0:0:0:0:
154,371,76748,6,0,B|143:330|143:330|147:287,1,85,2|0,3:2|0:0,0:0:0:0:
64,308,77101,2,0,B|67:265|67:265|86:226,1,85,10|0,0:2|3:0,0:0:0:0:
146,166,77454,2,0,B|164:126|164:126|168:84,1,85,2|0,0:0|3:0,0:0:0:0:
85,105,77807,2,0,B|89:62|89:62|78:21,1,85,10|0,0:0|0:0,0:0:0:0:
8,70,78160,5,0,3:0:0:0:
168,85,78512,1,10,0:0:0:0:
168,85,78689,2,0,P|209:91|249:105,1,85,2|0,3:2|0:0,0:0:0:0:
228,187,79042,1,2,3:2:0:0:
228,187,79218,2,0,P|242:146|248:105,1,85,10|0,0:2|0:0,0:0:0:0:
248,20,79571,5,0,3:0:0:0:
368,140,79924,1,10,0:2:0:0:
368,140,80101,2,0,P|409:133|449:119,1,85,2|0,3:2|0:0,0:0:0:0:
428,38,80454,1,2,3:2:0:0:
428,38,80630,2,0,P|442:78|448:119,1,85,10|0,0:0|0:0,0:0:0:0:
448,205,80983,5,0,3:0:0:0:
327,84,81336,1,10,0:2:0:0:
327,84,81512,2,0,B|284:80|284:80|243:91,1,85,2|0,3:2|0:0,0:0:0:0:
250,174,81865,1,2,3:2:0:0:
250,174,82042,2,0,B|254:131|254:131|243:90,1,85,10|0,0:0|0:0,0:0:0:0:
174,140,82395,6,0,L|157:331,1,170,2|10,3:2|0:2,0:0:0:0:
81,345,82924,1,2,3:2:0:0:
86,175,83277,1,0,3:0:0:0:
86,175,83454,2,0,L|78:259,1,85,10|2,0:2|0:0,0:0:0:0:
0,210,83807,5,4,3:2:0:0:
0,210,86101,1,8,0:0:0:0:
0,130,86277,1,8,0:0:0:0:
69,90,86454,1,8,0:0:0:0:
138,130,86630,6,0,P|178:145|220:152,1,85,4|0,3:2|0:0,0:0:0:0:
279,212,86983,2,0,P|319:197|361:190,1,85,10|2,0:0|3:2,0:0:0:0:
420,250,87336,2,0,P|460:265|502:272,2,85,0|4|8,0:0|0:3|0:0,0:0:0:0:
420,250,88042,6,0,P|445:190|360:105,1,170,0|10,3:0|0:2,0:0:0:0:
329,51,88571,1,2,3:2:0:0:
329,51,88748,2,0,P|289:66|247:73,1,85,0|4,0:0|0:3,0:0:0:0:
162,73,89101,1,8,0:0:0:0:
282,193,89454,5,0,3:0:0:0:
282,193,89630,2,0,P|267:233|260:275,1,85,0|10,0:0|0:2,0:0:0:0:
175,274,89983,1,2,3:2:0:0:
175,274,90160,2,0,P|167:232|153:192,1,85,0|4,0:0|0:3,0:0:0:0:
93,132,90512,1,8,0:0:0:0:
93,132,90865,6,0,B|177:137|177:137|259:115,1,170,0|10,3:0|0:0,0:0:0:0:
320,176,91395,1,2,3:2:0:0:
320,176,91571,2,0,B|360:165|360:165|403:168,1,85,0|4,0:0|0:3,0:0:0:0:
463,107,91924,1,8,0:0:0:0:
463,107,92277,6,0,P|493:187|507:271,1,170,0|10,3:0|0:2,0:0:0:0:
424,293,92807,2,0,P|394:213|380:129,1,170,2|4,3:2|0:3,0:0:0:0:
404,48,93336,1,8,0:0:0:0:
404,48,93689,6,0,B|312:40|337:104|246:96,1,170,0|10,3:0|0:0,0:0:0:0:
186,156,94218,1,2,3:2:0:0:
186,156,94395,2,0,P|146:141|104:134,1,85,0|4,0:0|0:3,0:0:0:0:
19,135,94748,1,8,0:0:0:0:
19,135,95101,6,0,L|34:310,1,170,0|10,3:0|0:2,0:0:0:0:
104,352,95630,1,2,3:2:0:0:
104,352,95807,2,0,B|114:312|114:312|111:268,1,85,0|4,0:0|0:3,0:0:0:0:
171,208,96160,1,8,0:0:0:0:
278,315,96512,5,0,3:0:0:0:
278,315,97395,1,2,1:3:0:0:
278,315,97571,1,8,1:2:0:0:
448,315,97924,6,0,L|438:211,1,85,4|2,3:2|0:2,0:0:0:0:
500,170,98277,2,0,L|420:103,1,85,10|2,0:0|3:2,0:0:0:0:
434,30,98630,2,0,L|330:39,1,85,2|4,0:2|0:3,0:0:0:0:
289,97,98983,1,10,0:0:0:0:
289,97,99336,6,0,P|220:52|145:84,1,170,2|10,3:2|0:2,0:0:0:0:
60,84,99865,1,0,3:0:0:0:
60,84,100042,2,0,P|74:124|80:165,1,85,2|4,0:0|0:3,0:0:0:0:
80,251,100395,1,10,0:0:0:0:
200,371,100748,5,0,3:0:0:0:
200,371,100924,2,0,P|241:378|281:364,1,85,2|10,0:0|0:0,0:0:0:0:
341,304,101277,1,2,3:2:0:0:
341,304,101454,2,0,P|382:296|422:310,1,85,2|4,0:0|0:3,0:0:0:0:
482,370,101807,1,10,0:0:0:0:
420,218,102160,6,0,P|390:298|376:382,1,170,2|10,3:2|0:0,0:0:0:0:
290,381,102689,1,0,3:0:0:0:
290,381,102865,2,0,P|284:339|270:299,1,85,2|2,0:0|0:0,0:0:0:0:
226,223,103218,1,10,0:0:0:0:
226,223,103395,1,2,0:0:0:0:
301,180,103571,6,0,B|340:197|340:197|467:185,1,170,2|10,3:2|0:0,0:0:0:0:
475,272,104101,2,0,B|347:282|347:282|312:306,1,170,0|4,3:0|0:3,0:0:0:0:
252,366,104630,1,10,0:0:0:0:
252,366,104807,1,2,0:2:0:0:
192,306,104983,6,0,P|162:226|148:142,1,170,2|10,3:2|0:2,0:0:0:0:
62,142,105512,1,0,3:0:0:0:
62,142,105689,2,0,P|69:100|83:60,1,85,2|2,0:0|3:2,0:0:0:0:
143,0,106042,1,10,0:0:0:0:
263,120,106395,6,0,P|295:194|251:263,1,170,2|10,3:2|0:0,0:0:0:0:
191,323,106924,1,0,3:0:0:0:
191,323,107101,2,0,P|151:308|109:301,1,85,2|4,0:0|0:3,0:0:0:0:
24,301,107454,1,10,0:0:0:0:
13,109,107807,6,0,P|97:97|182:103,1,170,2|10,3:2|0:0,0:0:0:0:
263,120,108336,1,0,3:0:0:0:
131,12,108689,1,2,1:3:0:0:
131,12,108865,1,8,1:2:0:0:
13,109,109218,6,0,B|17:159|17:159|5:208|5:208|10:269,1,152.999995330811,6|10,3:2|0:0,0:0:0:0:
16,336,109748,1,0,3:0:0:0:
134,236,110101,1,0,3:0:0:0:
134,236,110277,1,10,0:0:0:0:
252,336,110630,1,2,3:2:0:0:
370,236,110983,1,10,0:0:0:0:
370,236,111160,1,8,3:2:0:0:
488,336,111512,1,0,3:0:0:0:
488,336,111689,2,0,P|438:360|384:345,1,114.749996498108,14|0,0:0|0:0,0:0:0:0:
345,345,112042,6,0,P|372:273|385:197,1,152.999995330811,6|10,3:2|0:0,0:0:0:0:
385,121,112571,1,0,3:0:0:0:
494,229,112924,1,0,3:0:0:0:
494,229,113101,1,10,0:0:0:0:
386,337,113454,1,2,3:2:0:0:
278,228,113807,1,10,0:0:0:0:
278,228,113983,1,8,3:2:0:0:
170,336,114336,1,2,3:2:0:0:
104,299,114512,2,0,P|68:287|30:281,1,76.4999976654053,10|0,0:0|0:0,0:0:0:0:
15,205,114865,6,0,P|84:227|103:298,1,152.999995330811,6|10,3:2|0:0,0:0:0:0:
96,375,115395,1,0,3:0:0:0:
207,270,115748,1,0,3:0:0:0:
207,270,115924,1,10,0:0:0:0:
102,159,116277,1,2,3:2:0:0:
213,54,116630,1,10,0:0:0:0:
213,54,116807,1,8,3:2:0:0:
322,162,117160,1,0,3:0:0:0:
322,162,117336,2,0,P|347:212|332:266,1,114.749996498108,14|0,0:0|0:0,0:0:0:0:
332,305,117689,6,0,P|296:293|258:287,1,76.4999976654053,6|0,3:2|0:0,0:0:0:0:
204,232,118042,2,0,P|168:244|131:249,1,76.4999976654053,2|0,3:2|3:0,0:0:0:0:
54,249,118395,1,2,3:2:0:0:
54,172,118571,1,2,3:2:0:0:
109,117,118748,1,2,3:2:0:0:
109,40,118924,1,2,3:2:0:0:
109,40,119012,1,0,3:0:0:0:
109,40,119101,1,10,0:2:0:0:
109,40,120512,5,6,3:2:0:0:
109,40,120689,1,2,0:0:0:0:
175,105,120865,2,0,B|276:114|249:43|348:52,1,187.000005706787,10|2,0:0|0:2,0:0:0:0:
434,15,121395,1,2,3:2:0:0:
434,15,121571,2,0,P|442:60|426:104,1,93.5000028533936,10|0,0:0|0:0,0:0:0:0:
374,183,121924,5,2,3:2:0:0:
374,183,122101,1,2,0:0:0:0:
282,170,122277,2,0,B|181:179|208:108|109:117,1,187.000005706787,10|2,0:0|0:2,0:0:0:0:
23,80,122807,1,0,3:0:0:0:
23,80,122983,2,0,P|16:125|32:169,1,93.5000028533936,10|2,0:0|0:0,0:0:0:0:
25,264,123336,6,0,B|109:224|109:224|203:218,2,187.000005706787,2|8|2,3:2|0:0|0:0,0:0:0:0:
92,336,124218,1,0,3:0:0:0:
92,336,124395,2,0,B|134:316|134:316|181:313,1,93.5000028533936,8|0,0:0|0:0,0:0:0:0:
281,310,124748,6,0,P|232:235|267:152,1,187.000005706787,2|8,3:2|0:0,0:0:0:0:
345,101,125277,1,0,3:0:0:0:
371,287,125630,1,2,3:2:0:0:
371,286,125807,2,0,P|325:295|281:311,1,93.5000028533936,10|2,0:0|0:2,0:0:0:0:
203,363,126160,6,0,P|188:320|195:274,1,93.5000028533936,6|0,3:2|0:0,0:0:0:0:
103,256,126512,2,0,P|123:215|161:187,1,93.5000028533936,10|0,0:0|3:0,0:0:0:0:
107,109,126865,2,0,P|151:94|197:101,1,93.5000028533936,4|0,0:3|3:0,0:0:0:0:
214,10,127218,2,0,P|256:30|284:68,1,93.5000028533936,10|0,0:0|0:0,0:0:0:0:
283,160,127571,6,0,B|221:156|221:156|160:171|160:171|87:165,1,187.000005706787,2|10,3:2|0:0,0:0:0:0:
3,163,128101,1,0,3:0:0:0:
168,73,128454,1,2,3:2:0:0:
168,73,128630,2,0,B|213:61|213:61|260:66,1,93.5000028533936,10|2,0:0|0:0,0:0:0:0:
283,160,128983,6,0,P|299:204|308:250,1,93.5000028533936,2|0,3:2|0:0,0:0:0:0:
189,340,129336,2,0,P|205:297|214:251,1,93.5000028533936,10|0,0:0|3:0,0:0:0:0:
95,160,129689,2,0,P|111:204|120:250,1,93.5000028533936,4|0,0:3|3:0,0:0:0:0:
44,339,130042,2,0,P|76:252|94:160,1,187.000005706787,10|0,0:0|3:0,0:0:0:0:
94,65,130571,5,2,0:0:0:0:
0,65,130748,1,8,0:0:0:0:
0,65,130924,1,0,3:0:0:0:
176,112,131277,1,2,1:3:0:0:
135,196,131454,1,10,1:2:0:0:
216,27,131807,5,6,3:2:0:0:
216,27,131983,1,2,0:0:0:0:
269,104,132160,2,0,B|307:130|307:130|491:146,1,187.000005706787,10|2,0:0|0:2,0:0:0:0:
500,220,132689,1,2,3:2:0:0:
500,220,132865,2,0,B|454:231|454:231|407:226,1,93.5000028533936,10|0,0:0|0:0,0:0:0:0:
330,281,133218,5,2,3:2:0:0:
330,281,133395,1,2,0:0:0:0:
259,222,133571,2,0,B|220:194|220:194|36:178,1,187.000005706787,10|4,0:0|0:3,0:0:0:0:
16,250,134101,1,2,3:2:0:0:
16,250,134277,2,0,B|58:269|58:269|105:272,1,93.5000028533936,10|2,0:0|0:0,0:0:0:0:
198,272,134630,6,0,P|165:184|147:92,2,187.000005706787,2|8|2,3:2|0:0|0:0,0:0:0:0:
291,272,135512,1,0,3:0:0:0:
291,272,135689,2,0,P|308:228|316:182,1,93.5000028533936,8|0,0:0|0:0,0:0:0:0:
407,163,136042,6,0,P|377:248|291:272,1,187.000005706787,2|8,3:2|0:0,0:0:0:0:
198,272,136571,1,0,3:3:0:0:
198,84,136924,1,2,3:2:0:0:
198,84,137101,2,0,P|244:74|288:58,1,93.5000028533936,10|2,0:0|0:0,0:0:0:0:
366,7,137454,6,0,P|381:50|374:96,1,93.5000028533936,6|0,3:2|0:0,0:0:0:0:
466,114,137807,2,0,P|446:155|408:183,1,93.5000028533936,10|0,0:0|3:0,0:0:0:0:
462,261,138160,2,0,P|418:276|372:269,1,93.5000028533936,4|0,0:3|3:0,0:0:0:0:
355,361,138512,2,0,P|313:341|285:303,1,93.5000028533936,10|0,0:0|0:0,0:0:0:0:
194,325,138865,6,0,B|185:224|256:251|247:152,1,187.000005706787,2|10,3:2|0:0,0:0:0:0:
240,58,139395,1,2,3:2:0:0:
329,223,139748,1,2,3:2:0:0:
329,223,139924,2,0,P|372:238|418:231,1,93.5000028533936,10|2,0:2|0:2,0:0:0:0:
485,164,140277,6,0,P|495:209|511:253,1,93.5000028533936,2|0,3:2|0:0,0:0:0:0:
394,320,140630,2,0,P|411:276|420:230,1,93.5000028533936,10|0,0:2|3:0,0:0:0:0:
303,164,140983,2,0,P|313:209|329:253,1,93.5000028533936,4|0,0:3|3:0,0:0:0:0:
212,320,141336,2,0,P|229:276|238:230,1,93.5000028533936,10|0,0:0|0:0,0:0:0:0:
121,164,141689,6,0,B|126:212|146:254|146:254|107:280|79:319,1,187.000005706787,0|8,3:0|0:0,0:0:0:0:
147,384,142218,1,2,3:2:0:0:
247,226,142571,1,2,1:3:0:0:
247,226,142748,2,0,P|256:271|272:315,1,93.5000028533936,10|0,1:2|0:0,0:0:0:0:
333,375,143101,5,6,3:2:0:0:
333,375,148748,6,0,P|377:306|345:231,1,170,0|8,3:0|0:0,0:0:0:0:
175,216,149454,2,0,P|130:284|162:359,1,170,8|8,0:0|0:0,0:0:0:0:
162,359,151571,6,0,P|202:344|244:337,1,85,0|0,3:0|0:0,0:0:0:0:
303,276,151924,2,0,P|343:291|385:298,1,85,8|8,0:0|0:0,0:0:0:0:
469,297,152277,2,0,B|457:170|457:170|475:131,1,170,0|8,3:0|0:0,0:0:0:0:
476,131,154395,6,0,B|384:123|409:187|318:179,1,170,2|10,3:2|1:2,0:0:0:0:
339,96,154924,1,0,1:3:0:0:
339,96,155101,2,0,B|247:88|272:152|181:144,1,170,4|10,0:3|0:0,0:0:0:0:
182,144,157218,6,0,P|189:185|175:225,1,85,10|2,0:2|3:2,0:0:0:0:
91,219,157571,2,0,P|83:177|97:137,1,85,10|2,0:2|3:2,0:0:0:0:
145,67,157924,5,10,1:2:0:0:
229,74,158101,1,10,1:2:0:0:
278,5,158277,1,8,1:2:0:0:
363,12,158454,1,10,1:2:0:0:
363,12,160042,6,0,P|319:28|273:36,1,93.5000028533936,6|2,3:2|0:0,0:0:0:0:
226,35,160307,1,2,0:0:0:0:
226,35,160395,1,10,0:0:0:0:
160,100,160571,2,0,P|192:188|208:280,1,187.000005706787,2|2,3:2|3:2,0:0:0:0:
207,374,161101,1,8,0:0:0:0:
207,374,161454,6,0,B|162:362|162:362|115:366,1,93.5000028533936,0|2,3:2|0:2,0:0:0:0:
50,298,161807,1,10,0:2:0:0:
50,298,161983,2,0,B|92:278|92:278|139:274,1,93.5000028533936,2|0,3:2|0:0,0:0:0:0:
231,265,162336,1,0,3:0:0:0:
231,265,162512,1,8,0:0:0:0:
98,132,162865,5,0,3:2:0:0:
98,132,163218,2,0,P|142:148|188:156,1,93.5000028533936,10|2,0:0|3:2,0:0:0:0:
187,249,163571,2,0,P|229:229|267:202,1,93.5000028533936,2|2,0:0|3:2,0:0:0:0:
333,268,163924,1,10,0:0:0:0:
333,268,164101,2,0,P|349:224|357:178,1,93.5000028533936,2|0,0:2|3:2,0:0:0:0:
450,179,164454,2,0,P|430:136|403:98,2,93.5000028533936,2|10|2,0:0|0:0|3:2,0:0:0:0:
498,359,165160,1,0,3:0:0:0:
498,359,165336,1,8,0:0:0:0:
365,226,165689,6,0,B|320:214|320:214|273:218,1,93.5000028533936,2|2,3:2|0:0,0:0:0:0:
226,222,165954,1,2,0:0:0:0:
226,222,166042,1,10,0:0:0:0:
183,306,166218,2,0,P|133:230|168:147,1,187.000005706787,2|2,3:2|3:2,0:0:0:0:
169,53,166748,1,8,0:0:0:0:
169,53,167101,6,0,P|213:69|259:77,1,93.5000028533936,0|2,3:2|0:0,0:0:0:0:
325,143,167454,1,10,0:0:0:0:
325,143,167630,2,0,P|369:127|415:119,1,93.5000028533936,2|0,3:2|0:0,0:0:0:0:
508,119,167983,1,0,3:0:0:0:
508,119,168160,1,8,0:0:0:0:
375,251,168512,5,0,3:2:0:0:
375,251,168865,2,0,L|247:239,1,93.5000028533936,10|2,0:0|3:2,0:0:0:0:
215,309,169218,2,0,L|87:320,1,93.5000028533936,2|2,0:0|3:2,0:0:0:0:
55,250,169571,1,10,0:0:0:0:
55,250,169748,1,2,3:2:0:0:
120,184,169924,6,0,P|136:140|144:94,1,93.5000028533936,8|2,0:0|3:2,0:0:0:0:
237,94,170277,2,0,P|245:139|260:183,1,93.5000028533936,10|2,0:2|3:2,0:0:0:0:
307,265,170630,1,10,1:2:0:0:
400,265,170807,1,8,1:2:0:0:
446,184,170983,1,10,1:2:0:0:
400,103,171160,1,8,1:2:0:0:
446,22,171336,5,6,3:2:0:0:
446,22,182101,5,8,1:2:0:0:
407,89,182277,1,8,1:2:0:0:
446,156,182454,1,8,1:2:0:0:
407,223,182630,5,6,3:2:0:0:
407,223,182807,1,2,0:0:0:0:
314,215,182983,2,0,B|213:206|240:277|141:268,1,187.000005706787,10|2,0:0|0:2,0:0:0:0:
47,268,183512,1,2,3:2:0:0:
47,268,183689,2,0,P|64:224|72:178,1,93.5000028533936,10|0,0:0|0:0,0:0:0:0:
71,84,184042,5,2,3:2:0:0:
71,84,184218,1,2,0:0:0:0:
156,45,184395,2,0,P|149:134|72:178,1,187.000005706787,10|2,0:0|0:2,0:0:0:0:
70,272,184924,1,2,3:2:0:0:
70,272,185101,2,0,P|115:280|159:295,1,93.5000028533936,10|2,0:0|0:0,0:0:0:0:
226,362,185454,6,0,B|202:272|202:272|212:178,2,187.000005706787,2|8|4,3:2|0:0|0:3,0:0:0:0:
304,310,186336,1,0,3:0:0:0:
304,310,186512,2,0,B|292:265|292:265|297:218,1,93.5000028533936,8|0,0:0|0:0,0:0:0:0:
211,178,186865,6,0,B|201:83|201:83|65:96,1,187.000005706787,2|8,3:2|0:0,0:0:0:0:
14,98,187395,1,0,3:3:0:0:
39,282,187748,1,2,3:2:0:0:
39,282,187924,2,0,P|22:238|14:192,1,93.5000028533936,10|0,0:0|0:0,0:0:0:0:
14,98,188277,6,0,L|125:108,1,93.5000028533936,6|0,3:2|0:0,0:0:0:0:
123,198,188630,2,0,L|234:188,1,93.5000028533936,10|0,0:0|3:0,0:0:0:0:
232,98,188983,2,0,L|343:108,1,93.5000028533936,4|0,0:3|3:0,0:0:0:0:
341,198,189336,2,0,L|452:188,1,93.5000028533936,10|0,0:0|0:0,0:0:0:0:
500,123,189689,6,0,B|496:185|496:185|511:246|511:246|505:319,1,187.000005706787,2|10,3:2|0:0,0:0:0:0:
429,361,190218,1,0,3:0:0:0:
429,361,190395,2,0,B|417:316|417:316|421:269,1,93.5000028533936,4|2,0:3|3:2,0:0:0:0:
463,185,190748,1,10,0:0:0:0:
463,185,190924,1,2,0:0:0:0:
369,183,191101,6,0,L|257:173,1,93.5000028533936,2|0,3:2|0:0,0:0:0:0:
251,84,191454,2,0,L|165:155,1,93.5000028533936,10|0,0:0|3:0,0:0:0:0:
97,97,191807,2,0,L|87:208,1,93.5000028533936,2|0,0:2|3:0,0:0:0:0:
0,215,192160,2,0,L|71:300,1,93.5000028533936,10|0,0:0|0:0,0:0:0:0:
124,352,192512,5,8,0:0:0:0:
124,352,192689,1,0,3:0:0:0:
189,286,192865,1,8,0:2:0:0:
189,286,193042,1,0,3:2:0:0:
269,331,193218,5,10,1:2:0:0:
349,284,193395,1,8,1:2:0:0:
347,191,193571,1,10,1:2:0:0:
267,145,193748,1,8,1:2:0:0:
266,53,193924,5,6,3:2:0:0:
266,53,194101,1,2,0:0:0:0:
187,99,194277,2,0,P|99:131|7:147,1,187.000005706787,10|4,0:0|0:3,0:0:0:0:
7,241,194807,1,2,3:2:0:0:
7,241,194983,2,0,P|52:249|96:265,1,93.5000028533936,10|0,0:0|0:0,0:0:0:0:
163,331,195336,5,2,3:2:0:0:
163,331,195512,1,2,0:0:0:0:
243,285,195689,2,0,B|344:276|317:347|416:338,1,187.000005706787,10|4,0:0|0:3,0:0:0:0:
509,342,196218,1,2,3:2:0:0:
509,342,196395,2,0,P|492:298|483:252,1,93.5000028533936,10|2,0:0|0:0,0:0:0:0:
483,153,196748,6,0,P|407:202|324:167,2,187.000005706787,2|8|2,3:2|0:0|3:2,0:0:0:0:
462,62,197630,1,0,3:2:0:0:
462,62,197807,2,0,P|418:79|372:87,1,93.5000028533936,8|0,0:0|0:0,0:0:0:0:
325,168,198160,6,0,P|237:134|145:118,1,187.000005706787,2|8,3:2|0:0,0:0:0:0:
52,118,198689,1,0,3:3:0:0:
114,294,199042,1,2,3:2:0:0:
114,294,199218,2,0,L|105:191,1,93.5000028533936,10|2,0:0|0:2,0:0:0:0:
52,118,199571,6,0,B|98:122|98:122|143:109,1,93.5000028533936,6|0,3:2|0:0,0:0:0:0:
203,36,199924,2,0,B|238:65|238:65|282:82,1,93.5000028533936,10|0,0:0|3:0,0:0:0:0:
373,55,200277,2,0,B|385:99|385:99|412:138,1,93.5000028533936,4|0,0:3|3:0,0:0:0:0:
501,168,200630,2,0,B|485:211|485:211|485:258,1,93.5000028533936,10|0,0:0|0:0,0:0:0:0:
485,352,200983,6,0,L|229:374,1,187.000005706787,2|10,3:2|0:0,0:0:0:0:
298,275,201512,1,0,3:0:0:0:
298,275,201689,2,0,L|425:263,1,93.5000028533936,4|2,0:3|3:2,0:0:0:0:
485,258,202042,1,10,0:2:0:0:
485,258,202218,1,0,0:0:0:0:
433,180,202395,6,0,B|421:135|421:135|425:88,1,93.5000028533936,2|0,3:2|0:0,0:0:0:0:
335,162,202748,2,0,B|347:207|347:207|342:254,1,93.5000028533936,10|0,0:0|3:0,0:0:0:0:
257,215,203101,2,0,B|245:172|245:172|249:124,1,93.5000028533936,4|0,0:3|3:0,0:0:0:0:
159,197,203454,2,0,B|171:242|171:242|166:289,1,93.5000028533936,10|0,0:0|0:0,0:0:0:0:
81,250,203807,6,0,B|69:207|69:207|77:112|77:112|105:52,1,187.000005706787,0|8,3:0|0:0,0:0:0:0:
162,2,204336,1,2,3:2:0:0:
172,189,204689,1,2,1:3:0:0:
172,189,204865,2,0,B|187:173|187:173|230:152|230:152|263:149,1,93.5000028533936,10|8,1:2|0:0,0:0:0:0:
339,143,205218,5,4,3:2:0:0:
218,23,205571,1,10,0:0:0:0:
218,23,205748,2,0,P|178:9|136:2,1,85,2|0,3:2|0:0,0:0:0:0:
61,46,206101,1,2,3:2:0:0:
61,46,206277,2,0,P|46:86|39:128,1,85,10|0,0:0|0:0,0:0:0:0:
39,213,206630,5,0,3:0:0:0:
159,92,206983,1,10,0:0:0:0:
159,92,207160,2,0,P|201:91|237:112,1,85,2|0,3:2|0:0,0:0:0:0:
286,181,207512,1,2,3:2:0:0:
286,181,207689,2,0,P|286:223|265:259,1,85,10|0,0:0|0:0,0:0:0:0:
195,308,208042,5,0,3:0:0:0:
365,308,208395,1,10,0:0:0:0:
365,308,208571,2,0,P|406:301|446:287,1,85,2|0,3:2|0:0,0:0:0:0:
491,211,208924,1,2,3:2:0:0:
491,211,209101,2,0,P|484:170|470:130,1,85,10|0,0:0|0:0,0:0:0:0:
409,69,209454,6,0,L|242:83,1,85,2|0,3:2|0:0,0:0:0:0:
290,155,209807,2,0,L|457:169,1,85,10|0,0:2|3:0,0:0:0:0:
340,241,210160,2,0,L|173:255,1,85,2|0,0:0|3:0,0:0:0:0:
221,327,210512,2,0,L|388:341,1,85,10|0,0:2|0:0,0:0:0:0:
391,332,210865,5,0,3:0:0:0:
375,162,211218,1,10,0:0:0:0:
375,162,211395,2,0,B|364:203|364:203|368:246,1,85,2|0,3:2|0:0,0:0:0:0:
307,306,211748,1,2,3:2:0:0:
307,306,211924,2,0,B|266:295|266:295|223:299,1,85,10|0,0:0|0:0,0:0:0:0:
138,307,212277,5,0,3:0:0:0:
258,187,212630,1,10,0:2:0:0:
258,187,212807,2,0,L|247:68,1,85,2|0,3:2|0:0,0:0:0:0:
190,43,213160,1,2,3:2:0:0:
190,43,213336,2,0,L|70:54,1,85,10|0,0:0|0:0,0:0:0:0:
21,58,213689,5,0,3:0:0:0:
141,179,214042,1,10,0:0:0:0:
141,179,214218,2,0,B|152:220|152:220|148:263,1,85,2|0,3:2|0:0,0:0:0:0:
208,323,214571,1,2,3:2:0:0:
208,323,214748,2,0,B|249:312|249:312|292:316,1,85,10|0,0:2|0:0,0:0:0:0:
351,256,215101,6,0,B|329:174|329:174|337:89,1,170,2|10,3:2|0:2,0:0:0:0:
406,39,215630,1,2,3:2:0:0:
422,208,215983,1,2,3:2:0:0:
422,208,216160,2,0,B|411:167|411:167|415:124,1,85,10|2,0:2|0:2,0:0:0:0:
493,160,216512,5,6,3:2:0:0:
256,192,216601,12,0,222160,0:0:0:0:
