osu file format v14

[General]
AudioFilename: audio.mp3
AudioLeadIn: 0
PreviewTime: 181836
Countdown: 0
SampleSet: Soft
StackLeniency: 0.4
Mode: 0
LetterboxInBreaks: 0
WidescreenStoryboard: 1

[Editor]
DistanceSpacing: 1.6
BeatDivisor: 4
GridSize: 32
TimelineZoom: 2

[Metadata]
Title:We can go now!
TitleUnicode:We can go now!
Artist:illumination STARS
ArtistUnicode:イルミネーションスターズ
Creator:Ducky-
Version:Insane
Source:アイドルマスター シャイニーカラーズ
Tags:櫻木真乃 Sakuragi Mano 風野灯織 Kazano Hiori 八宮めぐる Hachimiya Meguru 関根瞳 Sekine Hitomi 近藤玲奈 Kondo Reina 峯田茉優 Mineda Mayu THE iDOLM@STER SHINY COLORS FR@GMENT WING 02 im@s imas japanese jpop j-pop hikan stormiverse
BeatmapID:2723389
BeatmapSetID:1314009

[Difficulty]
HPDrainRate:5
CircleSize:4.3
OverallDifficulty:8
ApproachRate:9
SliderMultiplier:2
SliderTickRate:1

[Events]
//Background and Video events
0,0,"heyheyitslikelikepopcorn.jpg",0,0
//Break Periods
2,143301,148148
//Storyboard Layer 0 (Background)
//Storyboard Layer 1 (Fail)
//Storyboard Layer 2 (Pass)
//Storyboard Layer 3 (Foreground)
//Storyboard Layer 4 (Overlay)
//Storyboard Sound Samples

[TimingPoints]
513,352.941176470588,4,2,1,50,1,0
1218,-100,4,2,1,45,0,0
1483,-100,4,2,1,55,0,0
1571,-100,4,2,1,65,0,0
1924,-100,4,2,1,80,0,0
13218,-100,4,2,1,55,0,0
13924,-133.333333333333,4,2,1,55,0,0
15513,-133.333333333333,4,2,1,55,0,0
16042,-133.333333333333,4,2,1,60,0,0
18865,-285.714285714284,4,2,1,60,0,0
19395,-133.333333333333,4,2,1,60,0,0
26807,-79.9999999999999,4,2,1,60,0,0
27336,-100,4,2,1,70,0,0
38630,-125,4,2,2,60,0,0
41454,-100,4,2,2,60,0,0
42160,-125,4,2,2,60,0,0
47101,-100,4,2,1,60,0,0
47454,-100,4,2,2,60,0,0
48160,-100,4,2,2,65,0,0
48336,-100,4,2,2,75,0,0
48513,-100,4,2,1,85,0,0
49218,-200,4,2,1,70,0,0
49924,-200,4,2,1,90,0,1
50277,-66.6666666666667,4,2,1,90,0,1
52748,-83.3333333333333,4,2,1,90,0,1
55571,-83.3333333333333,4,2,1,90,0,0
61218,-83.3333333333333,4,2,1,90,0,1
61571,-66.6666666666667,4,2,1,90,0,1
64042,-83.3333333333333,4,2,1,90,0,1
66865,-83.3333333333333,4,2,1,90,0,0
72513,-100,4,2,1,80,0,0
83807,-100,4,2,1,55,0,0
86101,-66.6666666666667,4,2,1,55,0,0
86630,-66.6666666666667,4,2,1,65,0,0
86983,-133.333333333333,4,2,1,65,0,0
97395,-66.6666666666667,4,2,1,70,0,0
97924,-100,4,2,1,75,0,0
106836,-100,4,2,1,75,0,0
106924,-100,4,2,1,75,0,0
109218,-125,4,2,2,65,0,0
110453,-125,4,2,2,65,0,0
110630,-125,4,2,2,65,0,0
117689,-100,4,2,1,65,0,0
118748,-100,4,2,2,75,0,0
118924,-100,4,2,2,85,0,0
119101,-100,4,2,2,95,0,0
119807,-200,4,2,1,80,0,0
120512,-200,4,2,1,95,0,1
120865,-66.6666666666667,4,2,1,95,0,1
123336,-83.3333333333333,4,2,1,95,0,1
126160,-83.3333333333333,4,2,1,95,0,0
131807,-83.3333333333333,4,2,1,95,0,1
132160,-66.6666666666667,4,2,1,95,0,1
134630,-83.3333333333333,4,2,1,95,0,1
137454,-83.3333333333333,4,2,1,95,0,0
143101,-83.3333333333333,4,2,1,65,0,0
148748,-76.9230769230769,4,2,2,65,0,0
154395,-76.9230769230769,4,2,1,65,0,0
155454,-222.222222222221,4,2,1,65,0,0
157218,-222.222222222221,4,2,1,75,0,0
157924,-222.222222222221,4,2,1,85,0,0
158454,-222.222222222221,4,2,1,80,0,0
160042,-100,4,2,1,90,0,0
171336,-333.333333333333,4,2,1,90,0,0
171424,-333.333333333333,4,2,1,65,0,0
173983,-333.333333333333,4,2,1,65,0,0
179806,-333.333333333333,4,2,1,80,0,0
181924,-333.333333333333,4,2,1,90,0,0
182101,-66.6666666666667,4,2,1,95,0,0
182630,-66.6666666666667,4,2,1,95,0,1
185454,-83.3333333333333,4,2,1,95,0,1
188277,-83.3333333333333,4,2,1,95,0,0
193924,-83.3333333333333,4,2,1,95,0,1
194277,-66.6666666666667,4,2,1,95,0,1
196748,-83.3333333333333,4,2,1,95,0,1
199571,-83.3333333333333,4,2,1,95,0,0
205218,-100,4,2,1,80,0,0
222160,-100,4,2,1,20,0,0

[Colours]
Combo1 : 205,248,126
Combo2 : 105,204,241
Combo3 : 145,251,240
Combo4 : 248,139,183
Combo5 : 250,177,230
Combo6 : 218,240,89

[HitObjects]
54,167,513,5,0,3:0:0:0:
73,161,601,1,0,3:0:0:0:
92,155,689,1,2,3:0:0:0:
111,149,777,1,2,2:3:0:0:
130,143,865,2,0,L|119:196,1,50,8|0,2:3|2:0,2:0:0:0:
146,68,1042,2,0,L|156:19,1,50,8|0,2:3|2:0,2:0:0:0:
248,81,1218,5,8,2:3:0:0:
253,100,1307,1,0,3:0:0:0:
247,119,1395,1,0,3:0:0:0:
230,130,1483,1,2,2:3:0:0:
212,120,1571,2,0,P|268:130|264:180,1,100,0|0,3:0|2:0,2:0:0:0:
102,355,1924,6,0,P|188:331|283:315,1,150,4|0,3:2|2:0,2:0:0:0:
318,361,2277,2,0,P|305:381|282:379,1,50,10|0,2:0|2:0,2:0:0:0:
316,287,2454,1,2,3:2:0:0:
316,287,2807,6,0,L|331:214,1,50,2|0,3:2|2:0,2:0:0:0:
290,164,2983,1,10,2:0:0:0:
290,164,3160,1,2,2:0:0:0:
434,143,3336,6,0,P|384:210|311:240,1,150,0|0,3:0|2:0,2:0:0:0:
263,189,3689,2,0,B|263:167|263:167|290:164,1,50,10|0,2:0|2:0,2:0:0:0:
325,237,3865,1,2,3:2:0:0:
325,237,4218,6,0,P|350:247|373:274,1,50,2|0,3:2|2:0,2:0:0:0:
408,331,4395,1,10,2:0:0:0:
408,331,4571,1,2,2:0:0:0:
480,274,4748,6,0,P|464:171|390:125,1,150,0|0,3:0|2:0,2:0:0:0:
344,122,5101,2,0,B|335:146|335:146|352:132|365:137,1,50,10|0,2:0|2:0,2:0:0:0:
406,71,5277,1,2,3:2:0:0:
406,71,5630,6,0,P|400:46|376:29,1,50,2|0,3:2|2:0,2:0:0:0:
306,48,5807,1,10,2:0:0:0:
306,48,5983,1,2,2:0:0:0:
168,41,6160,6,0,B|264:53|189:114|305:128,1,150,2|0,3:2|2:0,2:0:0:0:
311,201,6513,2,0,P|269:230|253:193,2,100,10|0|2,2:0|3:0|2:0,2:0:0:0:
282,124,7042,6,0,L|292:69,1,50,0|0,3:0|2:0,2:0:0:0:
151,129,7218,2,0,L|160:178,1,50,10|0,2:0|2:0,2:0:0:0:
22,290,7571,6,0,P|102:307|164:378,1,150,0|0,3:0|2:0,2:0:0:0:
225,383,7924,2,0,P|237:356|212:336,1,50,10|0,2:0|2:0,2:0:0:0:
186,277,8101,1,2,3:2:0:0:
186,277,8454,2,0,L|259:269,1,50,2|0,3:2|2:0,2:0:0:0:
324,303,8630,1,10,2:0:0:0:
324,303,8807,1,2,2:0:0:0:
344,199,8983,6,0,P|273:208|235:288,1,150,0|0,3:0|2:0,2:0:0:0:
324,303,9336,2,0,P|302:330|277:321,1,50,10|0,2:0|2:0,2:0:0:0:
219,347,9513,1,2,3:2:0:0:
219,347,9865,6,0,L|154:336,1,50,2|0,3:2|2:0,2:0:0:0:
97,368,10042,1,10,2:0:0:0:
97,368,10218,1,2,2:0:0:0:
56,246,10395,6,0,P|119:278|171:341,1,150,0|0,3:0|2:0,2:0:0:0:
234,270,10748,2,0,P|244:254|224:259,1,50,10|0,2:0|2:0,2:0:0:0:
158,218,10924,1,2,3:2:0:0:
158,218,11277,6,0,P|154:182|149:162,1,50,2|0,3:2|2:0,2:0:0:0:
101,119,11454,1,10,2:0:0:0:
101,119,11630,1,2,2:0:0:0:
176,96,11807,6,0,P|179:41|92:65,1,150,2|0,3:2|2:0,2:0:0:0:
2,137,12160,2,0,P|55:126|121:116,2,100,10|0|2,2:0|3:2|2:0,2:0:0:0:
93,201,12689,6,0,P|117:209|122:237,1,50,0|0,3:0|2:0,2:0:0:0:
112,359,12865,2,0,P|106:335|122:317,1,50,10|0,2:0|2:0,2:0:0:0:
240,262,13042,2,0,P|222:279|198:274,1,50,2|0,2:0|2:0,2:0:0:0:
194,192,13218,5,4,3:2:0:0:
275,177,13571,1,2,2:3:0:0:
356,162,13924,2,0,L|368:88,2,75.0000000000002,2|2|2,2:3|2:0|2:3,2:0:0:0:
437,147,14454,1,2,2:0:0:0:
437,147,14630,5,2,2:3:0:0:
466,233,14807,1,2,2:0:0:0:
466,233,14983,1,2,2:3:0:0:
495,319,15160,1,2,2:0:0:0:
495,319,15336,1,2,2:3:0:0:
421,368,15513,6,0,L|374:359,1,37.5000000000001,8|0,2:0|2:0,2:0:0:0:
329,308,15689,2,0,L|282:299,1,37.5000000000001,8|0,2:0|2:0,2:0:0:0:
222,330,15865,2,0,L|175:321,1,37.5000000000001,8|0,2:0|2:0,2:0:0:0:
147,259,16042,6,0,L|-6:229,1,150,4|0,3:2|2:0,2:0:0:0:
0,230,16571,1,0,3:0:0:0:
24,157,16748,2,0,P|66:179|73:206,2,75.0000000000002,2|2|4,2:0|2:0|2:3,2:0:0:0:
336,126,17454,6,0,L|160:158,1,150,0|0,3:0|2:0,2:0:0:0:
188,152,17983,1,0,3:0:0:0:
267,213,18160,2,0,L|255:261,1,37.5000000000001,2|0,2:0|2:0,2:0:0:0:
108,165,18336,2,0,L|98:128,1,37.5000000000001,2|0,2:0|2:0,2:0:0:0:
217,6,18513,6,0,P|212:62|199:136,1,112.500004291535,4|0,2:3|0:0,2:0:0:0:
188,152,18865,6,0,L|267:135,1,69.9999978637696,0|0,3:0|0:0,0:0:0:0:
284,205,19395,2,0,L|331:191,1,37.5000000000001,0|0,3:0|2:0,2:0:0:0:
387,237,19571,1,2,2:0:0:0:
387,237,19748,1,2,2:0:0:0:
272,308,19924,2,0,P|216:282|157:271,1,112.5,4|0,2:3|2:0,2:0:0:0:
87,299,20277,6,0,P|134:274|122:183,1,150,0|0,3:0|2:0,2:0:0:0:
53,182,20807,1,0,3:0:0:0:
32,83,20983,2,0,P|51:82|87:135,1,75.0000000000002,2|4,2:0|2:3,2:0:0:0:
127,187,21336,2,0,P|147:100|173:63,1,112.5,4|0,2:3|2:0,2:0:0:0:
232,33,21689,6,0,P|283:42|394:92,1,150,0|0,3:0|2:0,2:0:0:0:
373,79,22218,1,0,3:0:0:0:
456,67,22395,2,0,P|444:25|410:12,2,75.0000000000002,2|2|4,2:0|2:0|2:3,2:0:0:0:
235,37,23101,6,0,P|286:46|397:96,1,150,2|0,3:2|2:0,2:0:0:0:
377,83,23630,1,0,3:0:0:0:
459,71,23807,2,0,P|447:29|413:16,2,75.0000000000002,0|4|4,2:0|2:3|2:3,2:0:0:0:
238,44,24513,6,0,P|289:53|400:103,1,150,0|0,3:0|2:0,2:0:0:0:
380,90,25042,1,0,3:0:0:0:
462,78,25218,2,0,P|450:36|416:23,2,75.0000000000002,2|2|4,2:0|2:0|2:3,2:0:0:0:
242,53,25924,6,0,P|293:62|404:112,1,150,2|2,3:2|2:0,2:0:0:0:
384,99,26454,1,0,3:0:0:0:
384,99,26630,1,2,2:0:0:0:
473,139,26807,6,0,P|467:101|459:70,1,62.5000000000001,2|0,1:3|2:0,2:0:0:0:
321,159,26983,6,0,P|316:128|309:97,1,62.5000000000001,8|0,1:2|2:0,2:0:0:0:
453,243,27336,6,0,B|373:256|429:320|329:336,1,150,4|0,3:2|2:0,2:0:0:0:
259,329,27689,2,0,P|264:276|329:277,2,100,10|2|2,2:0|3:2|2:0,2:0:0:0:
428,373,28218,1,4,2:3:0:0:
437,382,28395,2,0,P|420:303|405:209,1,150,10|0,2:0|2:0,2:0:0:0:
375,169,28748,6,0,B|290:140|290:140|258:150|269:190,1,150,2|2,3:2|2:0,2:0:0:0:
301,261,29101,2,0,P|266:229|217:233,1,100,10|0,2:0|3:0,2:0:0:0:
215,250,29365,1,2,2:0:0:0:
216,260,29454,1,2,2:0:0:0:
251,330,29630,1,2,2:0:0:0:
95,384,29807,2,0,B|113:327|142:220,1,150,10|0,2:0|2:0,2:0:0:0:
136,220,30160,5,0,3:0:0:0:
136,220,30336,1,2,2:0:0:0:
209,156,30513,2,0,P|204:123|196:86,1,50,8|0,2:0|2:0,2:0:0:0:
172,35,30689,1,2,3:2:0:0:
102,124,30865,6,0,P|157:113|203:106,1,100,2|4,2:0|2:3,2:0:0:0:
350,0,31218,2,0,P|282:5|282:83,1,150,10|0,2:0|2:0,2:0:0:0:
363,179,31571,6,0,B|381:205|326:210|315:151|367:66,1,150,2|0,3:2|2:0,2:0:0:0:
492,0,31924,2,0,P|480:45|433:54,1,100,10|0,2:0|3:0,2:0:0:0:
422,34,32189,1,2,2:0:0:0:
422,34,32277,1,2,2:0:0:0:
506,138,32454,6,0,P|488:159|456:147,1,50,4|0,2:3|2:0,2:0:0:0:
363,179,32630,2,0,P|389:183|395:215,1,50,10|0,2:0|2:0,2:0:0:0:
471,282,32807,2,0,P|460:255|486:234,1,50,2|0,2:0|2:0,2:0:0:0:
385,277,32983,6,0,B|303:298|303:298|293:339|250:346,1,150,2|0,3:2|2:0,2:0:0:0:
218,242,33336,1,10,2:0:0:0:
252,170,33513,2,0,B|288:193|288:193|312:253|253:355,1,200,0|4,3:0|2:3,2:0:0:0:
174,307,34042,6,0,L|118:317,1,50,10|0,2:0|2:0,2:0:0:0:
56,370,34218,2,0,L|6:361,1,50,2|0,2:0|2:0,2:0:0:0:
0,217,34395,6,0,P|54:181|67:251,1,150,2|0,3:2|2:0,2:0:0:0:
26,298,34748,1,10,2:0:0:0:
181,225,34924,1,0,3:0:0:0:
181,225,35101,2,0,P|165:192|164:159,1,50,2|0,2:0|2:0,2:0:0:0:
65,105,35277,2,0,P|59:129|47:151,1,50,4|0,2:3|2:0,2:0:0:0:
74,242,35454,2,0,P|86:159|122:83,1,150,10|0,2:0|2:0,2:0:0:0:
312,22,35807,6,0,B|220:36|279:91|184:106,1,150,2|0,3:2|2:0,2:0:0:0:
163,179,36160,1,10,2:0:0:0:
193,277,36336,2,0,P|195:214|178:172,1,100,0|2,3:0|2:0,2:0:0:0:
47,139,36689,2,0,L|111:124,1,50,2|0,2:0|2:0,2:0:0:0:
163,179,36865,2,0,P|122:133|150:43,1,150,10|0,2:0|2:0,2:0:0:0:
312,22,37218,6,0,B|220:36|279:91|184:106,1,150,2|0,3:2|2:0,2:0:0:0:
163,179,37571,1,10,2:0:0:0:
193,277,37748,2,0,P|195:214|178:172,1,100,0|0,3:0|2:0,2:0:0:0:
41,133,38101,2,0,L|105:118,1,50,2|0,1:3|2:0,2:0:0:0:
168,54,38277,2,0,L|104:39,1,50,8|0,1:2|2:0,2:0:0:0:
472,51,38630,6,0,P|485:135|491:191,1,120,6|0,3:2|2:0,2:0:0:0:
426,213,38983,2,0,P|376:198|371:161,1,80,10|0,2:0|3:0,2:0:0:0:
482,36,39336,2,0,P|466:83|367:78,1,160,2|10,2:0|2:0,2:0:0:0:
369,81,40042,5,2,3:2:0:0:
194,213,40395,6,0,L|266:201,1,40,10|0,2:0|2:0,2:0:0:0:
275,142,40571,2,0,L|347:130,1,40,8|0,3:2|2:0,2:0:0:0:
382,179,40748,6,0,B|411:252|344:240|372:312,1,120,2|0,2:0|2:0,2:0:0:0:
453,359,41101,2,0,P|432:314|349:318,1,120,14|0,2:0|2:0,2:0:0:0:
294,367,41454,6,0,L|174:345,1,100,6|0,3:2|2:0,2:0:0:0:
102,336,41807,1,10,2:0:0:0:
102,336,41983,1,0,3:0:0:0:
172,190,42160,6,0,P|183:248|196:370,2,160,2|10|2,2:0|2:0|3:2,2:0:0:0:
172,190,43218,6,0,P|189:169|186:153,1,40,10|0,2:0|2:0,2:0:0:0:
120,135,43395,2,0,P|103:156|106:172,1,40,8|0,3:2|2:0,2:0:0:0:
119,241,43571,1,2,2:0:0:0:
266,138,43748,6,0,P|258:111|256:82,1,40,2|0,3:2|2:0,2:0:0:0:
339,45,43924,2,0,P|295:78|215:48,1,120,10|0,2:0|2:0,2:0:0:0:
100,17,44277,6,0,P|111:59|120:145,1,120,6|0,3:2|2:0,2:0:0:0:
172,190,44630,2,0,P|126:199|138:230,1,80,10|0,2:0|3:0,2:0:0:0:
301,316,44983,2,0,P|283:264|200:295,1,160,2|10,2:0|2:0,2:0:0:0:
201,290,45689,5,2,3:2:0:0:
367,190,46042,6,0,L|380:136,1,40,10|0,2:0|2:0,2:0:0:0:
321,100,46218,2,0,L|308:46,1,40,8|0,3:2|2:0,2:0:0:0:
367,4,46395,6,0,B|441:20|383:61|469:81,1,120,2|0,2:0|2:0,2:0:0:0:
512,35,46748,2,0,P|478:91|491:161,1,120,14|0,2:0|2:0,2:0:0:0:
419,212,47101,6,0,P|295:232|245:240,1,150,6|0,3:2|2:0,2:0:0:0:
179,251,47454,2,0,P|248:256|268:338,1,150,2|0,3:2|2:0,2:0:0:0:
218,377,47807,5,2,3:2:0:0:
345,292,47983,1,2,3:2:0:0:
208,384,48160,1,2,3:2:0:0:
416,342,48336,1,2,3:2:0:0:
291,210,48513,1,10,2:0:0:0:
291,210,49218,6,0,L|311:109,1,100,2|2,2:0|2:0,2:0:0:0:
310,111,49924,5,6,3:2:0:0:
310,111,50101,1,2,2:0:0:0:
411,45,50277,2,0,L|243:16,1,150,10|0,2:0|2:0,2:0:0:0:
218,157,50630,5,4,2:3:0:0:
218,157,50807,1,2,3:2:0:0:
284,258,50983,2,0,L|313:90,1,150,10|0,2:0|2:0,2:0:0:0:
171,65,51336,5,2,3:2:0:0:
171,65,51513,1,2,2:0:0:0:
70,131,51689,2,0,L|238:160,1,150,10|0,2:0|2:0,2:0:0:0:
217,156,52042,5,4,2:3:0:0:
217,156,52218,1,2,3:2:0:0:
149,245,52395,6,0,L|135:167,1,75,10|0,2:0|2:0,2:0:0:0:
249,76,52571,2,0,L|235:149,1,75,2|0,2:0|2:0,2:0:0:0:
249,238,52748,6,0,B|318:244|354:302|354:302|331:324|344:366,1,180,2|0,3:2|2:0,2:0:0:0:
413,376,53101,2,0,P|430:360|409:364,1,60,8|0,2:0|2:0,2:0:0:0:
340,350,53277,2,0,P|357:279|379:221,1,120,0|2,3:0|2:0,2:0:0:0:
512,164,53630,2,0,P|507:148|457:134,1,60,0|0,3:0|2:0,2:0:0:0:
414,174,53807,2,0,P|455:86|385:48,1,180,8|0,2:0|2:0,2:0:0:0:
278,68,54160,6,0,P|349:57|391:21,2,120,2|0|8,3:2|2:0|2:0,2:0:0:0:
148,28,54689,2,0,P|192:82|150:204,1,180,0|0,3:0|2:0,2:0:0:0:
172,184,55042,1,2,3:2:0:0:
276,245,55218,6,0,P|272:212|259:185,1,60,10|0,2:0|2:0,2:0:0:0:
306,132,55395,1,0,2:0:0:0:
193,275,55571,6,0,L|38:245,1,120,6|0,3:2|2:0,2:0:0:0:
143,369,55924,2,0,L|298:339,1,120,10|0,2:0|3:0,2:0:0:0:
371,278,56277,6,0,P|395:278|402:313,1,60,4|0,2:3|2:0,2:0:0:0:
340,345,56454,1,0,3:0:0:0:
291,266,56630,2,0,P|303:197|361:69,1,180,10|0,2:0|2:0,2:0:0:0:
397,19,56983,6,0,P|440:57|421:132,1,120,2|0,3:2|2:0,2:0:0:0:
346,176,57336,1,10,2:0:0:0:
429,201,57513,1,0,3:0:0:0:
354,184,57689,1,4,2:3:0:0:
415,284,57865,6,0,P|442:271|488:274,1,60,0|0,3:0|2:0,2:0:0:0:
512,337,58042,2,0,P|505:258|491:152,1,180,10|0,2:0|2:0,2:0:0:0:
420,87,58395,6,0,L|263:117,1,120,2|0,3:2|2:0,2:0:0:0:
200,0,58748,2,0,L|357:30,1,120,10|0,2:0|3:0,2:0:0:0:
420,87,59101,6,0,P|393:92|384:136,1,60,4|0,2:3|2:0,2:0:0:0:
443,161,59277,1,0,3:0:0:0:
242,200,59454,2,0,P|327:184|388:246,1,180,10|0,2:0|2:0,2:0:0:0:
321,303,59807,6,0,P|309:248|329:188,2,120,0|2|8,3:0|2:0|2:0,2:0:0:0:
382,368,60336,1,2,2:3:0:0:
414,263,60513,1,4,2:3:0:0:
321,303,60689,2,0,L|262:288,1,60,2|0,1:3|2:0,2:0:0:0:
174,382,60865,2,0,L|233:369,1,60,10|0,1:2|2:0,2:0:0:0:
22,175,61218,5,6,3:2:0:0:
22,175,61395,1,2,2:0:0:0:
78,274,61571,2,0,P|107:191|107:112,1,150,10|0,2:0|2:0,2:0:0:0:
208,73,61924,5,4,2:3:0:0:
208,73,62101,1,2,3:2:0:0:
109,129,62277,2,0,P|192:158|271:158,1,150,10|0,2:0|2:0,2:0:0:0:
340,114,62630,5,2,3:2:0:0:
340,114,62807,1,2,2:0:0:0:
284,15,62983,2,0,P|255:98|255:177,1,150,10|0,2:0|2:0,2:0:0:0:
252,159,63336,5,4,2:3:0:0:
252,159,63513,1,2,3:2:0:0:
353,255,63689,2,0,P|358:225|326:186,1,75,10|0,2:0|2:0,2:0:0:0:
190,169,63865,2,0,P|213:188|263:180,1,75,2|0,2:0|2:0,2:0:0:0:
325,113,64042,6,0,B|408:98|424:160|424:160|432:196|471:193,1,180,2|0,3:2|2:0,2:0:0:0:
506,134,64395,2,0,P|516:125|503:134,1,60,8|0,2:0|2:0,2:0:0:0:
463,193,64571,2,0,P|478:263|493:334,1,120,0|2,3:0|2:0,2:0:0:0:
377,384,64924,6,0,P|366:363|329:349,1,60,0|0,3:0|2:0,2:0:0:0:
253,353,65101,2,0,P|313:344|297:230,1,180,8|0,2:0|2:0,2:0:0:0:
259,119,65454,6,0,B|281:205|226:175|240:242,2,120,2|0|8,3:2|2:0|2:0,2:0:0:0:
167,45,65983,2,0,P|181:119|70:118,1,180,0|0,3:0|2:0,2:0:0:0:
96,145,66336,1,2,3:2:0:0:
0,233,66513,6,0,P|45:225|89:218,1,60,10|0,2:0|2:0,2:0:0:0:
103,281,66689,1,2,2:0:0:0:
198,205,66865,6,0,P|265:221|321:231,1,120,6|0,3:2|2:0,2:0:0:0:
416,151,67218,2,0,P|357:140|298:125,1,120,10|0,2:0|3:0,2:0:0:0:
231,48,67571,6,0,P|244:20|276:27,1,60,4|0,2:3|2:0,2:0:0:0:
291,96,67748,1,0,3:0:0:0:
394,18,67924,2,0,P|378:93|354:229,1,180,10|0,2:0|2:0,2:0:0:0:
391,284,68277,6,0,P|449:296|508:308,1,120,2|0,3:2|2:0,2:0:0:0:
426,377,68630,1,10,2:0:0:0:
512,295,68807,1,0,3:0:0:0:
415,384,68983,1,4,2:3:0:0:
391,284,69160,6,0,P|386:257|380:212,1,60,2|0,3:2|2:0,2:0:0:0:
288,168,69336,2,0,P|283:197|278:227,1,60,10|0,2:0|2:0,2:0:0:0:
312,308,69513,1,2,2:0:0:0:
235,368,69689,6,0,L|101:387,1,120,2|0,3:2|2:0,2:0:0:0:
59,278,70042,2,0,L|193:297,1,120,10|0,2:0|2:0,2:0:0:0:
304,301,70395,6,0,P|320:276|306:249,1,60,4|0,2:3|2:0,2:0:0:0:
235,244,70571,1,0,3:0:0:0:
186,187,70748,2,0,B|182:86|274:138|256:25,1,180,10|0,2:0|2:0,2:0:0:0:
180,50,71101,6,0,P|233:100|302:104,2,120,0|0|8,3:0|2:0|2:0,2:0:0:0:
16,21,71630,5,2,3:2:0:0:
16,21,71807,1,4,2:3:0:0:
88,109,71983,2,0,P|100:78|83:45,1,60,2|0,1:3|2:0,2:0:0:0:
3,150,72160,2,0,P|23:175|60:177,1,60,10|0,1:2|2:0,2:0:0:0:
279,251,72513,6,0,L|180:264,1,100,4|0,3:2|2:0,2:0:0:0:
359,349,72865,1,10,2:0:0:0:
359,349,73042,2,0,P|299:318|343:244,1,150,2|0,3:2|2:0,2:0:0:0:
389,226,73395,2,0,P|408:222|389:220,1,50,2|0,3:2|2:0,2:0:0:0:
296,186,73571,2,0,B|220:198|268:265|178:265,1,150,10|0,2:0|2:0,2:0:0:0:
137,203,73924,6,0,L|157:87,1,100,0|0,3:0|2:0,2:0:0:0:
213,41,74277,1,10,2:0:0:0:
213,41,74454,2,0,B|268:55|268:55|285:86|285:86|353:107,1,150,2|0,3:2|2:0,2:0:0:0:
406,64,74807,2,0,L|396:-1,1,50,2|0,3:2|2:0,2:0:0:0:
340,103,74983,2,0,P|370:167|429:140,1,150,10|0,2:0|2:0,2:0:0:0:
491,185,75336,6,0,B|510:239|457:221|481:283,1,100,0|0,3:0|2:0,2:0:0:0:
408,373,75689,1,10,2:0:0:0:
408,373,75865,2,0,P|445:330|362:306,1,150,2|0,3:2|2:0,2:0:0:0:
315,323,76218,2,0,B|294:329|294:329|309:305,1,50,2|0,3:2|2:0,2:0:0:0:
383,287,76395,2,0,B|400:246|392:190|392:190|383:128,1,150,10|0,2:0|2:0,2:0:0:0:
327,89,76748,6,0,B|281:81|248:105|248:105|240:148|186:164,1,150,2|0,3:2|2:0,2:0:0:0:
184,167,77101,2,0,P|170:115|128:118,2,100,10|0|2,2:0|3:0|2:0,2:0:0:0:
117,199,77630,6,0,L|59:186,1,50,0|0,3:0|2:0,2:0:0:0:
172,262,77807,2,0,L|230:249,1,50,10|0,2:0|2:0,2:0:0:0:
406,384,78160,6,0,L|424:269,1,100,0|0,3:0|2:0,2:0:0:0:
485,226,78513,1,10,2:0:0:0:
485,226,78689,2,0,B|462:256|462:256|324:233,1,150,2|0,3:2|2:0,2:0:0:0:
291,180,79042,2,0,P|280:165|295:174,1,50,2|0,3:2|2:0,2:0:0:0:
394,94,79218,2,0,P|369:176|344:259,1,150,10|0,2:0|2:0,2:0:0:0:
276,310,79571,6,0,P|204:326|160:343,1,100,0|0,3:0|2:0,2:0:0:0:
102,376,79924,1,10,2:0:0:0:
102,376,80101,2,0,P|140:340|143:223,1,150,2|0,3:2|2:0,2:0:0:0:
97,190,80454,2,0,B|72:190|72:190|83:212,1,50,2|0,3:2|2:0,2:0:0:0:
153,246,80630,2,0,B|248:237|221:296|310:276,1,150,10|0,2:0|2:0,2:0:0:0:
340,166,80983,6,0,P|296:154|281:201,1,100,0|0,3:0|2:0,2:0:0:0:
404,256,81336,1,10,2:0:0:0:
404,256,81513,2,0,B|375:224|375:224|401:109,1,150,2|0,3:2|2:0,2:0:0:0:
474,98,81865,2,0,P|485:82|468:50,1,50,2|0,3:2|2:0,2:0:0:0:
404,43,82042,1,10,2:0:0:0:
404,43,82218,1,2,2:0:0:0:
304,99,82395,6,0,P|239:126|175:203,1,150,2|0,3:2|2:0,2:0:0:0:
185,183,82748,1,10,2:0:0:0:
262,296,82924,2,0,P|272:264|287:242,1,50,2|0,3:2|2:0,2:0:0:0:
352,238,83101,1,2,2:0:0:0:
262,296,83277,6,0,L|204:313,1,50,0|0,3:0|2:0,2:0:0:0:
352,238,83454,2,0,L|399:223,1,50,10|0,2:0|2:0,2:0:0:0:
302,177,83630,1,2,2:0:0:0:
237,384,83807,1,4,3:2:0:0:
195,137,86101,6,0,P|227:106|275:100,1,75,8|0,2:0|2:0,2:0:0:0:
236,273,86277,2,0,P|193:259|165:224,1,75,8|0,2:0|2:0,2:0:0:0:
334,169,86454,2,0,P|343:212|327:253,1,75,8|0,2:0|2:0,2:0:0:0:
256,192,86630,5,4,3:2:0:0:
256,192,86807,1,0,2:0:0:0:
334,241,86983,2,0,L|400:255,1,37.5000000000001,10|0,2:0|2:0,2:0:0:0:
421,301,87160,2,0,P|405:245|477:180,1,150,2|4,3:2|2:3,2:0:0:0:
406,96,87689,1,8,2:0:0:0:
406,96,88042,6,0,L|419:12,1,75.0000000000002,0|0,3:0|2:0,2:0:0:0:
318,107,88395,2,0,L|322:144,1,37.5000000000001,10|0,2:0|2:0,2:0:0:0:
379,196,88571,2,0,B|366:227|366:227|228:198,1,150,2|4,3:2|2:3,2:0:0:0:
184,260,89101,1,8,2:0:0:0:
184,260,89454,6,0,L|210:383,1,112.5,0|0,3:0|2:0,2:0:0:0:
277,384,89807,2,0,P|292:373|296:355,1,37.5000000000001,10|0,2:0|2:0,2:0:0:0:
342,293,89983,2,0,P|422:309|491:333,1,150,2|4,3:2|2:3,2:0:0:0:
512,244,90513,1,8,2:0:0:0:
512,244,90865,6,0,L|492:158,1,75.0000000000002,0|0,3:0|2:0,2:0:0:0:
434,118,91218,2,0,L|424:75,1,37.5000000000001,10|0,2:0|2:0,2:0:0:0:
456,16,91395,2,0,P|438:42|318:34,1,150,2|4,3:2|2:3,2:0:0:0:
261,106,91924,1,8,2:0:0:0:
122,156,92277,6,0,B|211:135|175:216|292:193,1,150,0|10,3:0|2:0,2:0:0:0:
365,175,92807,1,2,3:2:0:0:
365,175,92983,2,0,P|294:189|300:237,1,112.5,0|0,2:0|2:0,2:0:0:0:
356,264,93336,1,8,2:0:0:0:
115,163,93689,6,0,B|204:142|168:223|285:200,1,150,0|10,3:0|2:0,2:0:0:0:
358,182,94218,1,2,3:2:0:0:
358,182,94395,2,0,P|287:196|293:244,1,112.5,0|0,2:0|2:0,2:0:0:0:
349,271,94748,1,8,2:0:0:0:
110,168,95101,6,0,B|199:147|163:228|280:205,1,150,0|10,3:0|2:0,2:0:0:0:
353,187,95630,1,2,3:2:0:0:
353,187,95807,2,0,P|282:201|288:249,1,112.5,0|0,2:0|2:0,2:0:0:0:
344,276,96160,1,8,2:0:0:0:
105,173,96513,6,0,B|194:152|158:233|275:210,1,150,0|2,3:0|2:0,2:0:0:0:
286,138,97042,2,0,P|277:86|274:51,1,75.0000000000002,2|0,2:0|2:0,2:0:0:0:
335,0,97395,6,0,B|363:8|363:8|372:20|372:20|423:35,1,75,2|0,1:3|2:0,2:0:0:0:
274,63,97571,2,0,B|245:71|245:71|237:83|237:83|186:98,1,75,8|0,1:2|2:0,2:0:0:0:
18,20,97924,6,0,P|58:67|81:165,1,150,4|0,3:2|2:0,2:0:0:0:
119,215,98277,2,0,P|170:192|146:157,2,100,10|2|2,2:0|3:2|2:0,2:0:0:0:
20,287,98807,1,4,2:3:0:0:
20,287,98983,2,0,L|192:318,1,150,10|0,2:0|2:0,2:0:0:0:
204,380,99336,6,0,B|187:309|254:325|219:223,1,150,2|0,3:2|2:0,2:0:0:0:
198,219,99689,1,10,2:0:0:0:
198,219,99865,1,0,3:0:0:0:
284,153,100042,2,0,L|348:164,1,50,2|0,2:0|2:0,2:0:0:0:
387,220,100218,1,4,2:3:0:0:
387,220,100395,6,0,P|353:160|384:89,1,150,10|0,2:0|2:0,2:0:0:0:
456,69,100748,5,0,3:0:0:0:
456,69,100924,1,2,2:0:0:0:
311,2,101101,2,0,L|320:58,1,50,10|0,2:0|2:0,2:0:0:0:
382,90,101277,1,2,3:2:0:0:
284,153,101454,2,0,P|234:137|175:122,1,100,2|4,2:0|2:3,2:0:0:0:
73,108,101807,2,0,P|67:174|147:160,1,150,10|0,2:0|2:0,2:0:0:0:
188,124,102160,6,0,B|212:158|212:158|181:276,1,150,2|0,3:2|2:0,2:0:0:0:
91,286,102513,2,0,P|157:276|174:314,1,100,10|0,2:0|3:0,2:0:0:0:
253,384,102865,1,2,2:0:0:0:
253,384,103042,6,0,P|266:355|292:349,1,50,2|0,2:0|2:0,2:0:0:0:
287,268,103218,2,0,P|264:273|243:260,1,50,10|0,2:0|2:0,2:0:0:0:
171,296,103395,2,0,P|187:313|187:338,1,50,2|0,2:0|2:0,2:0:0:0:
62,384,103571,6,0,P|51:333|88:234,1,150,2|0,3:2|2:0,2:0:0:0:
152,209,103924,1,10,2:0:0:0:
16,193,104101,2,0,P|96:201|146:97,1,200,0|4,3:0|2:3,2:0:0:0:
220,20,104630,6,0,L|282:32,1,50,10|0,2:0|2:0,2:0:0:0:
328,85,104807,2,0,L|377:75,1,50,2|0,2:0|2:0,2:0:0:0:
445,15,104983,6,0,B|470:28|470:28|483:81|444:154,1,150,2|0,3:2|2:0,2:0:0:0:
501,200,105336,1,10,2:0:0:0:
373,182,105513,2,0,P|406:140|458:153,1,100,0|2,3:0|2:0,2:0:0:0:
501,318,105865,2,0,P|480:323|424:331,1,50,2|0,3:2|2:0,2:0:0:0:
378,358,106042,2,0,P|420:315|430:205,1,150,10|0,2:0|2:0,2:0:0:0:
373,182,106395,6,0,B|290:189|348:270|234:274,1,150,2|0,3:2|2:0,2:0:0:0:
207,205,106748,2,0,L|157:199,1,50,10|0,2:0|2:0,2:0:0:0:
109,252,106924,1,0,3:0:0:0:
201,384,107101,2,0,L|186:251,2,100,2|4|10,2:0|2:3|2:0,2:0:0:0:
262,270,107630,1,4,2:3:0:0:
373,182,107807,6,0,B|290:189|348:270|234:274,1,150,2|0,3:2|2:0,2:0:0:0:
207,205,108160,2,0,L|157:199,1,50,10|0,2:0|2:0,2:0:0:0:
109,252,108336,1,0,3:0:0:0:
109,252,108513,1,2,2:0:0:0:
59,167,108689,6,0,L|67:118,1,50,2|0,1:3|2:0,2:0:0:0:
121,7,108865,2,0,L|129:57,1,50,8|0,1:2|2:0,2:0:0:0:
477,316,109218,6,0,P|409:293|342:281,1,120,6|0,3:2|2:0,2:0:0:0:
307,338,109571,1,10,2:0:0:0:
307,338,109748,1,0,3:0:0:0:
361,283,109924,2,0,P|386:187|389:152,1,120,2|0,2:0|2:0,2:0:0:0:
420,94,110277,2,0,P|466:116|457:141,1,80,10|0,2:0|2:0,2:0:0:0:
270,219,110630,6,0,B|223:232|223:232|212:251|212:251|150:272,1,120,2|0,3:2|2:0,2:0:0:0:
100,229,110983,2,0,P|101:210|119:203,1,40,10|0,2:0|2:0,2:0:0:0:
200,148,111160,2,0,P|182:156|167:145,1,40,8|0,3:2|2:0,2:0:0:0:
131,82,111336,1,2,2:0:0:0:
131,82,111513,1,0,3:0:0:0:
217,12,111689,2,0,P|265:21|321:38,1,80,14|0,2:0|2:0,2:0:0:0:
362,111,112042,6,0,P|327:120|312:162,1,80,6|0,3:2|2:0,2:0:0:0:
399,222,112395,1,10,2:0:0:0:
399,222,112571,1,0,3:0:0:0:
337,383,112748,6,0,P|314:319|327:212,2,160,2|10|2,2:0|2:0|3:2,2:0:0:0:
512,307,113807,6,0,P|519:289|505:276,1,40,10|0,2:0|2:0,2:0:0:0:
436,288,113983,2,0,P|428:305|442:318,1,40,8|0,3:2|2:0,2:0:0:0:
489,382,114160,1,2,2:0:0:0:
360,255,114336,6,0,P|366:225|374:203,1,40,2|0,3:2|2:0,2:0:0:0:
424,158,114513,2,0,P|412:125|325:114,1,120,10|0,2:0|2:0,2:0:0:0:
249,172,114865,6,0,P|185:148|159:144,1,80,6|0,3:2|2:0,2:0:0:0:
91,183,115218,1,10,2:0:0:0:
91,183,115395,1,0,3:0:0:0:
166,229,115571,6,0,B|176:323|112:277|116:379,2,160,2|10|2,2:0|2:0|3:2,2:0:0:0:
91,183,116630,6,0,P|86:160|67:140,1,40,10|0,2:0|2:0,2:0:0:0:
4,164,116807,1,8,3:2:0:0:
81,30,116983,2,0,P|149:44|174:109,1,120,2|0,2:0|2:0,2:0:0:0:
166,157,117336,2,0,B|188:118|188:118|293:133,1,120,14|0,2:0|2:0,2:0:0:0:
415,168,117689,6,0,B|325:172|393:245|293:250,1,150,6|0,3:2|2:0,2:0:0:0:
225,303,118042,2,0,P|267:266|292:342,1,150,2|0,3:2|2:0,2:0:0:0:
367,370,118395,5,2,3:2:0:0:
427,252,118571,1,2,3:2:0:0:
362,384,118748,1,2,3:2:0:0:
290,177,118924,1,2,3:2:0:0:
497,194,119101,1,10,2:0:0:0:
497,194,119807,6,0,P|449:181|445:131,1,100,2|2,2:0|2:0,2:0:0:0:
442,136,120513,5,6,3:2:0:0:
442,136,120689,1,2,2:0:0:0:
373,91,120865,2,0,L|213:117,1,150,10|0,2:0|2:0,2:0:0:0:
352,308,121218,5,2,2:0:0:0:
352,308,121395,1,2,3:2:0:0:
397,239,121571,2,0,L|371:79,1,150,10|0,2:0|2:0,2:0:0:0:
179,218,121924,5,2,3:2:0:0:
179,218,122101,1,2,2:0:0:0:
247,262,122277,2,0,L|407:236,1,150,10|0,2:0|2:0,2:0:0:0:
396,238,122630,5,2,2:0:0:0:
396,238,122807,1,0,3:0:0:0:
512,294,122983,6,0,P|521:329|485:352,1,75,10|0,2:0|2:0,2:0:0:0:
420,329,123160,2,0,P|411:294|447:271,1,75,2|0,2:0|2:0,2:0:0:0:
497,206,123336,6,0,B|478:138|402:136|402:136|428:147|429:183,1,180,2|0,3:2|2:0,2:0:0:0:
369,239,123689,2,0,P|350:203|384:196,1,60,8|0,2:0|2:0,2:0:0:0:
301,144,123865,2,0,P|210:179|156:183,1,120,0|2,3:0|2:0,2:0:0:0:
40,81,124218,6,0,P|72:91|70:118,1,60,0|0,3:0|2:0,2:0:0:0:
2,164,124395,2,0,P|10:71|58:-2,1,180,8|0,2:0|2:0,2:0:0:0:
139,38,124748,6,0,P|111:106|47:103,2,120,2|0|8,3:2|2:0|2:0,2:0:0:0:
231,21,125277,2,0,B|217:59|217:59|361:40,1,180,0|0,3:0|2:0,2:0:0:0:
355,40,125630,1,2,3:2:0:0:
435,107,125807,6,0,P|445:131|436:168,1,60,10|0,2:0|2:0,2:0:0:0:
373,198,125983,1,2,2:0:0:0:
393,300,126160,6,0,L|539:333,1,120,6|0,3:2|2:0,2:0:0:0:
324,369,126513,2,0,L|206:342,1,120,10|0,2:0|3:0,2:0:0:0:
148,248,126865,6,0,P|187:252|181:278,1,60,0|0,2:0|2:0,2:0:0:0:
137,323,127042,1,0,3:0:0:0:
54,242,127218,2,0,P|47:163|36:51,1,180,10|0,2:0|2:0,2:0:0:0:
103,16,127571,6,0,P|168:45|138:81,1,120,2|0,3:2|2:0,2:0:0:0:
53,135,127924,5,10,2:0:0:0:
161,88,128101,1,0,3:0:0:0:
28,158,128277,1,4,2:3:0:0:
123,160,128454,6,0,L|185:170,1,60,2|0,3:2|2:0,2:0:0:0:
211,239,128630,1,10,2:0:0:0:
211,239,128807,1,2,2:0:0:0:
300,192,128983,6,0,P|319:124|341:53,1,120,2|0,3:2|2:0,2:0:0:0:
211,239,129336,2,0,P|228:296|244:354,1,120,10|0,2:0|3:0,2:0:0:0:
334,380,129689,6,0,P|354:368|329:321,1,60,4|0,2:3|2:0,2:0:0:0:
302,284,129865,1,0,3:0:0:0:
244,354,130042,2,0,B|220:373|220:373|144:346|144:346|119:257,1,180,10|0,2:0|2:0,2:0:0:0:
125,201,130395,6,0,P|108:278|96:365,2,120,0|0|8,3:0|2:0|2:0,2:0:0:0:
192,143,130924,1,0,3:0:0:0:
155,47,131101,1,4,2:3:0:0:
97,117,131277,6,0,L|38:129,1,60,2|0,1:3|2:0,2:0:0:0:
192,143,131454,2,0,L|257:129,1,60,10|0,1:2|2:0,2:0:0:0:
510,74,131807,5,6,3:2:0:0:
510,74,131983,1,2,2:0:0:0:
436,123,132160,2,0,P|432:182|474:296,1,150,10|0,2:0|2:0,2:0:0:0:
315,20,132513,5,2,2:0:0:0:
315,20,132689,1,2,3:2:0:0:
364,94,132865,2,0,P|423:98|537:56,1,150,10|0,2:0|2:0,2:0:0:0:
261,214,133218,5,2,3:2:0:0:
261,214,133395,1,2,2:0:0:0:
335,165,133571,2,0,P|339:106|297:-8,1,150,10|0,2:0|2:0,2:0:0:0:
314,19,133924,5,4,2:3:0:0:
314,19,134101,1,2,3:2:0:0:
180,105,134277,6,0,B|154:113|154:113|190:54,1,75,10|0,2:0|2:0,2:0:0:0:
249,95,134454,1,2,2:0:0:0:
131,192,134630,6,0,B|89:182|89:182|72:104|13:60,1,180,2|0,3:2|2:0,2:0:0:0:
104,0,134983,2,0,B|119:22|119:22|106:41|106:82,1,60,8|0,2:0|2:0,2:0:0:0:
20,66,135160,2,0,P|88:80|89:132,1,120,0|2,3:0|2:0,2:0:0:0:
43,350,135513,6,0,L|61:273,1,60,0|0,3:0|2:0,2:0:0:0:
19,224,135689,2,0,B|-17:241|-17:241|135:271,1,180,8|0,2:0|2:0,2:0:0:0:
185,225,136042,6,0,B|175:181|175:181|178:175|178:175|162:93,2,120,2|0|8,3:2|2:0|2:0,2:0:0:0:
259,366,136571,2,0,P|313:313|256:245,1,180,0|0,3:0|2:0,2:0:0:0:
257,245,136924,1,2,3:2:0:0:
354,184,137101,6,0,P|361:150|368:111,1,60,10|0,2:0|2:0,2:0:0:0:
421,83,137277,1,2,2:0:0:0:
349,21,137454,6,0,B|280:27|333:86|254:94,1,120,6|0,3:2|2:0,2:0:0:0:
134,92,137807,2,0,B|202:98|149:157|228:165,1,120,10|0,2:0|3:0,2:0:0:0:
354,184,138160,6,0,B|336:195|336:195|346:249,1,60,4|0,2:3|2:0,2:0:0:0:
405,276,138336,1,0,3:0:0:0:
336,354,138513,2,0,P|253:337|130:322,1,180,10|0,2:0|2:0,2:0:0:0:
66,188,138865,6,0,P|119:203|110:276,1,120,2|0,3:2|2:0,2:0:0:0:
53,317,139218,5,10,2:0:0:0:
180,315,139395,1,2,3:2:0:0:
36,332,139571,1,4,2:3:0:0:
123,260,139748,6,0,L|138:201,1,60,2|0,3:2|2:0,2:0:0:0:
206,165,139924,1,10,2:0:0:0:
206,165,140101,1,2,2:0:0:0:
163,92,140277,6,0,B|91:88|130:29|66:35,1,120,2|0,3:2|2:0,2:0:0:0:
0,204,140630,2,0,B|71:200|32:141|96:147,1,120,10|0,2:0|3:0,2:0:0:0:
206,165,140983,6,0,L|192:247,1,60,4|0,2:3|2:0,2:0:0:0:
244,281,141160,1,0,3:0:0:0:
199,381,141336,2,0,P|250:317|364:326,1,180,10|0,2:0|2:0,2:0:0:0:
390,372,141689,2,0,B|369:336|369:336|411:264,2,120,0|0|8,3:0|2:0|2:0,2:0:0:0:
490,341,142218,5,2,3:2:0:0:
490,341,142395,1,0,3:0:0:0:
408,268,142571,2,0,L|392:187,1,60,2|0,1:3|2:0,2:0:0:0:
339,157,142748,2,0,L|355:76,1,60,10|0,1:2|2:0,2:0:0:0:
410,48,142924,1,2,2:0:0:0:
410,48,143101,1,6,3:2:0:0:
12,253,148748,6,0,P|159:205|255:199,1,195,4|0,3:2|2:0,2:0:0:0:
268,236,149101,2,0,P|260:274|181:272,2,130,8|8|0,2:0|2:0|2:0,2:0:0:0:
282,62,149630,1,0,3:0:0:0:
282,62,149807,2,0,B|219:-2|219:-2|269:177,1,259.999988098145,8|0,2:0|2:0,2:0:0:0:
26,128,151571,6,0,P|88:144|145:175,2,130,0|0|8,3:0|2:0|2:0,2:0:0:0:
220,150,152101,2,0,P|236:171|212:210,1,65,8|0,2:0|2:0,2:0:0:0:
176,274,152277,6,0,P|167:175|98:4,1,260,0|8,3:0|2:0,2:0:0:0:
145,115,154395,6,0,P|292:163|388:169,1,195,2|0,3:2|2:0,2:0:0:0:
401,133,154748,2,0,P|393:95|314:97,2,130,10|0|4,1:2|1:3|2:3,2:0:0:0:
417,310,155277,1,0,3:0:0:0:
417,310,155454,2,0,B|370:335|370:335|397:211,1,180.000000000001,10|8,2:0|2:0,2:0:0:0:
24,73,157218,5,10,2:0:0:0:
24,73,157395,1,2,3:2:0:0:
119,112,157571,5,10,2:0:0:0:
119,112,157748,1,2,3:2:0:0:
214,151,157924,5,10,1:2:0:0:
218,162,158101,1,10,1:2:0:0:
222,173,158277,1,8,1:2:0:0:
226,184,158454,1,10,1:2:0:0:
231,176,160042,6,0,L|352:197,1,100,6|2,3:2|2:0,2:0:0:0:
358,222,160307,1,2,2:0:0:0:
353,230,160395,1,10,2:0:0:0:
468,200,160571,2,0,P|490:147|394:177,1,200,2|2,3:2|3:2,2:0:0:0:
353,230,161101,5,8,2:0:0:0:
353,230,161277,2,0,L|373:336,1,100,2|0,2:0|3:2,2:0:0:0:
285,371,161630,1,2,2:0:0:0:
218,306,161807,1,10,2:0:0:0:
143,354,161983,2,0,P|64:333|7:331,1,100,2|0,3:2|2:0,2:0:0:0:
10,217,162336,2,0,P|20:195|46:214,1,50,0|0,3:0|2:0,2:0:0:0:
81,261,162513,2,0,P|82:175|66:135,1,100,8|0,2:0|2:0,2:0:0:0:
17,53,162865,5,0,3:2:0:0:
17,53,163042,2,0,P|52:53|83:63,1,50,2|0,2:0|2:0,2:0:0:0:
149,32,163218,2,0,P|94:56|94:113,2,100,10|2|2,2:0|3:2|2:0,2:0:0:0:
192,111,163748,1,2,3:2:0:0:
192,111,163924,1,10,2:0:0:0:
266,51,164101,2,0,P|325:56|390:65,1,100,2|0,2:0|3:2,2:0:0:0:
430,149,164454,5,2,2:0:0:0:
430,149,164630,1,10,2:0:0:0:
365,203,164807,2,0,P|345:144|391:31,1,150,2|0,3:2|2:0,2:0:0:0:
436,20,165160,6,0,B|458:26|458:26|424:49,1,50,0|0,3:0|2:0,2:0:0:0:
365,60,165336,2,0,P|287:73|239:88,1,100,8|0,2:0|2:0,2:0:0:0:
144,130,165689,6,0,P|77:86|48:85,1,100,2|2,3:2|2:0,2:0:0:0:
43,102,165954,1,2,2:0:0:0:
48,111,166042,1,10,2:0:0:0:
46,214,166218,2,0,L|258:151,1,200,2|2,3:2|3:2,2:0:0:0:
327,207,166748,1,8,2:0:0:0:
327,207,166924,6,0,P|318:140|346:100,1,100,2|0,2:0|3:2,2:0:0:0:
400,64,167277,1,2,2:0:0:0:
472,121,167454,1,10,2:0:0:0:
425,192,167630,2,0,P|349:200|309:213,1,100,2|0,3:2|2:0,2:0:0:0:
243,265,167983,2,0,P|231:248|252:221,1,50,0|0,3:0|2:0,2:0:0:0:
313,289,168160,2,0,P|252:308|232:341,1,100,8|0,2:0|2:0,2:0:0:0:
94,383,168513,5,0,3:2:0:0:
94,383,168689,2,0,P|90:343|75:319,1,50,2|0,2:0|2:0,2:0:0:0:
16,316,168865,2,0,P|66:305|86:256,2,100,10|2|2,2:0|3:2|2:0,2:0:0:0:
12,214,169395,5,2,3:2:0:0:
12,214,169571,1,10,2:0:0:0:
86,264,169748,2,0,L|165:248,1,50,2|0,3:2|2:0,2:0:0:0:
193,305,169924,5,8,2:0:0:0:
193,305,170101,1,2,3:2:0:0:
273,226,170277,1,10,2:0:0:0:
273,226,170454,1,2,3:2:0:0:
188,161,170630,6,0,L|170:93,1,50,10|0,1:2|2:0,2:0:0:0:
326,76,170807,2,0,L|313:124,1,50,8|0,1:2|2:0,2:0:0:0:
177,169,170983,6,0,L|159:101,1,50,10|0,1:2|2:0,2:0:0:0:
315,84,171160,2,0,L|302:132,1,50,8|0,1:2|2:0,2:0:0:0:
273,226,171336,6,0,B|385:232|303:299|448:369|448:369|408:335|412:294|412:294|321:322|319:382,1,450,6|2,3:2|2:0,2:0:0:0:
95,383,174160,6,0,B|82:255|205:234|126:129|126:129|189:107|212:67|212:67|160:85|134:73,1,450,4|2,2:3|2:0,2:0:0:0:
317,0,176983,6,0,B|468:37|347:90|507:130,3,240,4|4|4|4,2:3|2:3|2:3|2:3,2:0:0:0:
310,180,181924,5,8,1:2:0:0:
310,180,182101,2,0,P|296:140|291:87,1,75,8|0,1:2|2:0,2:0:0:0:
239,244,182277,2,0,P|277:250|329:274,1,75,8|0,1:2|2:0,2:0:0:0:
218,151,182454,2,0,P|196:183|147:214,1,75,8|0,1:2|2:0,2:0:0:0:
103,145,182630,5,6,3:2:0:0:
103,145,182807,1,2,2:0:0:0:
187,56,182983,2,0,L|163:238,1,150,10|0,2:0|2:0,2:0:0:0:
256,288,183336,5,2,2:0:0:0:
256,288,183513,1,2,3:2:0:0:
167,204,183689,2,0,L|349:228,1,150,10|0,2:0|2:0,2:0:0:0:
399,134,184042,5,2,3:2:0:0:
399,134,184218,1,2,2:0:0:0:
315,223,184395,2,0,L|339:41,1,150,10|0,2:0|2:0,2:0:0:0:
334,74,184748,5,2,2:0:0:0:
334,74,184924,1,2,3:2:0:0:
414,8,185101,6,0,P|447:15|462:67,1,75,10|0,2:0|2:0,2:0:0:0:
404,173,185277,2,0,P|393:140|431:101,1,75,2|0,2:0|2:0,2:0:0:0:
512,184,185454,6,0,P|427:204|373:311,1,180,2|0,3:2|2:0,2:0:0:0:
406,351,185807,2,0,B|435:357|435:357|424:338|433:312,1,60,8|0,2:0|2:0,2:0:0:0:
376,276,185983,2,0,B|315:283|315:283|300:320|256:323,1,120,0|4,3:0|2:3,2:0:0:0:
153,199,186336,6,0,P|199:178|228:205,1,60,0|0,3:0|2:0,2:0:0:0:
239,249,186513,2,0,P|235:184|216:39,1,180,8|0,2:0|2:0,2:0:0:0:
182,0,186865,6,0,B|111:16|164:68|86:80,2,120,2|2|8,3:2|2:0|2:0,2:0:0:0:
221,69,187395,2,0,L|32:39,1,180,0|0,3:0|2:0,2:0:0:0:
43,40,187748,1,2,3:2:0:0:
95,122,187924,6,0,P|87:154|72:204,1,60,10|0,2:0|2:0,2:0:0:0:
125,242,188101,1,0,2:0:0:0:
53,370,188277,6,0,P|31:307|3:236,1,120,6|0,3:2|2:0,2:0:0:0:
177,199,188630,2,0,P|160:256|145:314,1,120,10|0,2:0|3:0,2:0:0:0:
287,384,188983,6,0,P|300:362|288:327,1,60,4|0,2:3|2:0,2:0:0:0:
219,338,189160,1,0,3:0:0:0:
177,199,189336,2,0,P|259:236|377:236,1,180,10|0,2:0|2:0,2:0:0:0:
386,171,189689,6,0,P|399:120|448:142,1,120,2|0,3:2|2:0,2:0:0:0:
501,301,190042,5,10,2:0:0:0:
360,245,190218,1,0,3:0:0:0:
511,310,190395,1,4,2:3:0:0:
417,384,190571,6,0,L|407:318,1,60,2|0,3:2|2:0,2:0:0:0:
438,259,190748,1,10,2:0:0:0:
438,259,190924,1,2,2:0:0:0:
386,171,191101,6,0,P|304:188|227:187,1,120,2|0,3:2|2:0,2:0:0:0:
125,278,191454,2,0,P|207:295|284:294,1,120,10|0,2:0|3:0,2:0:0:0:
390,359,191807,6,0,P|377:321|351:307,1,60,2|0,2:0|2:0,2:0:0:0:
312,367,191983,1,0,3:0:0:0:
243,296,192160,2,0,P|261:213|331:128,1,180,10|0,2:0|2:0,2:0:0:0:
337,143,192513,5,8,2:0:0:0:
337,143,192689,1,0,3:0:0:0:
208,54,192865,1,8,2:0:0:0:
208,54,193042,1,0,3:2:0:0:
371,45,193218,6,0,L|289:64,1,60,10|0,1:2|2:0,2:0:0:0:
175,178,193395,2,0,L|233:164,1,60,8|0,1:2|2:0,2:0:0:0:
424,212,193571,6,0,L|342:231,1,60,10|0,1:2|2:0,2:0:0:0:
193,192,193748,2,0,L|251:178,1,60,8|0,1:2|2:0,2:0:0:0:
337,143,193924,5,6,3:2:0:0:
337,143,194101,1,2,2:0:0:0:
454,68,194277,2,0,P|427:137|426:223,1,150,10|0,2:0|2:0,2:0:0:0:
355,299,194630,5,4,2:3:0:0:
355,299,194807,1,2,3:2:0:0:
280,182,194983,2,0,P|349:209|435:210,1,150,10|0,2:0|2:0,2:0:0:0:
512,282,195336,5,2,3:2:0:0:
512,282,195513,1,2,2:0:0:0:
395,357,195689,2,0,P|422:288|423:202,1,150,10|0,2:0|2:0,2:0:0:0:
424,212,196042,5,4,2:3:0:0:
424,212,196218,1,2,3:2:0:0:
332,134,196395,6,0,P|278:143|244:149,1,75,10|0,2:0|2:0,2:0:0:0:
214,203,196571,2,0,P|177:196|140:190,1,75,2|0,2:0|2:0,2:0:0:0:
85,126,196748,6,0,B|27:102|27:102|56:221,1,180,2|0,3:2|2:0,2:0:0:0:
39,313,197101,2,0,P|65:320|68:282,1,60,8|0,2:0|2:0,2:0:0:0:
55,215,197277,2,0,P|139:233|161:292,1,120,0|2,3:0|2:0,2:0:0:0:
231,363,197630,6,0,P|257:349|306:344,1,60,0|0,3:2|2:0,2:0:0:0:
385,364,197807,2,0,P|271:303|174:280,1,180,8|0,2:0|2:0,2:0:0:0:
154,257,198160,6,0,P|163:193|177:130,2,120,2|2|8,3:2|2:0|2:0,2:0:0:0:
87,332,198689,6,0,B|55:373|55:373|193:340,1,180,0|0,3:0|2:0,2:0:0:0:
179,343,199042,1,2,3:2:0:0:
256,282,199218,2,0,L|247:213,1,60,10|0,2:0|2:0,2:0:0:0:
295,153,199395,1,2,2:0:0:0:
368,218,199571,6,0,P|425:201|483:185,1,120,6|0,3:2|2:0,2:0:0:0:
505,80,199924,2,0,P|447:95|389:113,1,120,10|0,2:0|3:0,2:0:0:0:
205,40,200277,6,0,P|215:12|247:15,1,60,4|0,2:3|2:0,2:0:0:0:
324,18,200454,1,0,3:0:0:0:
293,183,200630,2,0,P|281:124|235:-5,1,180,10|0,2:0|2:0,2:0:0:0:
166,65,200983,6,0,P|113:62|102:-2,1,120,2|0,3:2|2:0,2:0:0:0:
19,51,201336,1,10,2:0:0:0:
58,168,201513,1,0,3:0:0:0:
16,63,201689,1,4,2:3:0:0:
149,142,201865,6,0,P|141:162|129:202,1,60,2|0,3:2|2:0,2:0:0:0:
187,254,202042,1,10,2:0:0:0:
187,254,202218,1,0,2:0:0:0:
100,311,202395,6,0,P|32:293|-29:284,1,120,2|0,3:2|2:0,2:0:0:0:
145,384,202748,2,0,P|213:366|274:357,1,120,10|0,2:0|3:0,2:0:0:0:
321,278,203101,2,0,P|322:246|342:204,1,60,4|0,2:3|2:0,2:0:0:0:
397,192,203277,1,0,3:0:0:0:
321,123,203454,2,0,P|229:145|127:165,1,180,10|0,2:0|2:0,2:0:0:0:
79,220,203807,6,0,P|106:160|100:91,2,120,0|0|8,3:0|2:0|2:0,2:0:0:0:
2,168,204336,1,2,3:2:0:0:
2,168,204513,1,2,2:3:0:0:
38,81,204689,6,0,L|104:95,1,60,2|0,1:3|2:0,2:0:0:0:
142,36,204865,2,0,L|200:23,1,60,10|0,1:2|2:0,2:0:0:0:
272,52,205042,1,2,2:0:0:0:
272,52,205218,6,0,P|259:115|248:173,1,100,4|0,3:2|2:0,2:0:0:0:
267,256,205571,1,10,2:0:0:0:
267,256,205748,2,0,P|255:197|149:189,1,150,2|0,3:2|2:0,2:0:0:0:
101,206,206101,2,0,B|78:203|78:203|110:186,1,50,2|0,3:2|2:0,2:0:0:0:
176,172,206277,2,0,B|202:203|202:203|180:321,1,150,10|0,2:0|2:0,2:0:0:0:
141,372,206630,6,0,P|77:351|27:351,1,100,0|0,3:0|2:0,2:0:0:0:
17,272,206983,1,10,2:0:0:0:
17,272,207160,2,0,P|92:253|92:174,1,150,2|0,3:2|2:0,2:0:0:0:
40,139,207513,2,0,P|27:126|42:137,1,50,2|0,3:2|2:0,2:0:0:0:
101,189,207689,2,0,P|164:182|201:104,1,150,10|0,2:0|2:0,2:0:0:0:
240,42,208042,6,0,P|293:58|321:121,1,100,0|0,3:0|2:0,2:0:0:0:
382,57,208395,1,10,2:0:0:0:
382,57,208571,2,0,B|344:86|344:86|370:194,1,150,2|0,3:2|2:0,2:0:0:0:
455,260,208924,2,0,P|448:250|402:262,1,50,2|0,3:2|2:0,2:0:0:0:
354,295,209101,2,0,L|186:264,1,150,10|0,2:0|2:0,2:0:0:0:
147,383,209454,6,0,B|177:302|100:329|129:230,1,150,2|0,3:2|2:0,2:0:0:0:
98,150,209807,2,0,P|124:205|178:203,2,100,10|0|2,2:0|3:0|2:0,2:0:0:0:
173,75,210336,6,0,L|179:132,1,50,0|0,3:0|2:0,2:0:0:0:
86,49,210513,2,0,L|91:0,1,50,10|0,2:0|2:0,2:0:0:0:
325,171,210865,6,0,L|437:157,1,100,0|0,3:0|2:0,2:0:0:0:
501,224,211218,1,10,2:0:0:0:
501,224,211395,2,0,P|464:157|501:67,1,150,2|0,3:2|2:0,2:0:0:0:
503,17,211748,2,0,P|520:9|505:20,1,50,2|0,3:2|2:0,2:0:0:0:
426,35,211924,2,0,B|385:24|385:24|259:86,1,150,10|0,2:0|2:0,2:0:0:0:
229,135,212277,6,0,L|268:264,1,100,0|0,3:0|2:0,2:0:0:0:
218,299,212630,1,10,2:0:0:0:
218,299,212807,2,0,B|192:287|184:268|184:268|69:298,1,150,2|0,3:2|2:0,2:0:0:0:
9,349,213160,2,0,B|6:369|6:369|45:352,1,50,2|0,3:2|2:0,2:0:0:0:
17,278,213336,2,0,P|13:208|30:101,1,150,10|0,2:0|2:0,2:0:0:0:
62,61,213689,6,0,P|109:74|104:145,1,100,0|0,3:0|2:0,2:0:0:0:
231,176,214042,1,10,2:0:0:0:
231,176,214218,2,0,P|161:186|51:221,1,150,2|0,3:2|2:0,2:0:0:0:
17,278,214571,2,0,B|3:266|3:266|19:270|37:263,1,50,2|0,3:2|2:0,2:0:0:0:
101,305,214748,1,10,2:0:0:0:
101,305,214924,1,0,2:0:0:0:
204,371,215101,6,0,B|228:288|147:323|182:212,1,150,2|0,3:2|2:0,2:0:0:0:
239,195,215454,1,10,2:0:0:0:
173,98,215630,2,0,L|188:45,1,50,2|0,3:2|2:0,2:0:0:0:
247,11,215807,1,2,2:0:0:0:
95,78,215983,6,0,L|46:64,1,50,2|0,3:2|2:0,2:0:0:0:
173,98,216160,2,0,L|221:111,1,50,10|0,2:0|2:0,2:0:0:0:
310,140,216336,1,2,2:0:0:0:
310,140,216513,1,6,3:2:0:0:
256,192,216601,12,0,222160,2:0:0:0:
