osu file format v14

[General]
AudioFilename: audio.mp3
AudioLeadIn: 0
PreviewTime:66027
Countdown: 0
SampleSet: Soft
StackLeniency: 0.7
Mode: 0
LetterboxInBreaks: 0
WidescreenStoryboard: 1

[Editor]
DistanceSpacing: 1.2
BeatDivisor: 4
GridSize: 32
TimelineZoom: 1.1

[Metadata]
Title:Hikari no destination
TitleUnicode:ヒカリのdestination
Artist:illumination STARS
ArtistUnicode:イルミネーションスターズ
Creator:Acylica
Version:Shizuku's Advanced
Source:アイドルマスター シャイニーカラーズ
Tags:THE IDOLM@STER SHINY COLORS im@s imas アイマス シャニマス Shanimas BRILLI@NT WING 02 ヒカリのdestination 櫻木真乃 Sakuragi Mano 風野灯織 Kazano Hiori 八宮めぐる Hachimiya Meguru 峯田 茉優 Mineda Mayu 関根 瞳 Sekine Hitomi 近藤玲奈 Kondou Reina ioexception shizuku- niva senseabel heilia neoskylove affirmation af japanese female vocal idol video game pop jpop j-pop acyl
BeatmapID:2274387
BeatmapSetID:1062292

[Difficulty]
HPDrainRate:5
CircleSize:3.5
OverallDifficulty:5
ApproachRate:6.5
SliderMultiplier:1.4
SliderTickRate:1

[Events]
//Background and Video events
0,0,"stickbug.jpg"
//Break Periods
//Storyboard Layer 0 (Background)
//Storyboard Layer 1 (Fail)
//Storyboard Layer 2 (Pass)
//Storyboard Layer 3 (Foreground)
//Storyboard Layer 4 (Overlay)
//Storyboard Sound Samples

[TimingPoints]
469,352.941176470588,4,2,1,35,1,0
7527,-100,4,2,1,45,0,0
10704,-100,4,2,1,46,0,0
10880,-100,4,2,1,47,0,0
11057,-100,4,2,1,48,0,0
11233,-100,4,2,1,49,0,0
11410,-100,4,2,1,50,0,0
11586,-100,4,2,1,55,0,0
15998,-100,4,2,1,60,0,0
26586,-100,4,2,1,58,0,0
26939,-100,4,2,1,55,0,0
27292,-100,4,2,1,45,0,0
38586,-100,4,2,1,58,0,0
49880,-100,4,2,1,55,0,0
55527,-100,4,2,1,50,0,0
58704,-100,4,2,1,45,0,0
59057,-100,4,2,1,55,0,0
66821,-100,4,2,1,80,0,0
86586,-100,4,2,1,80,0,0
91174,-100,4,2,1,80,0,0
93998,-100,4,2,1,60,0,0
95057,-100,4,2,1,60,0,0
107410,-100,4,2,1,58,0,0
107763,-100,4,2,1,55,0,0
111998,-166.666666666667,4,2,1,55,0,0

[Colours]
Combo1 : 255,206,238
Combo2 : 200,244,183
Combo3 : 250,193,167

[HitObjects]
281,339,1174,6,0,P|312:323|347:321,1,70,2|0,0:2|0:0,0:0:0:0:
412,375,1527,2,0,P|427:344|429:309,1,70,0|0,0:2|0:0,0:0:0:0:
478,240,1880,6,0,P|446:179|381:157,1,140,6|2,0:2|0:0,0:0:0:0:
314,208,2410,2,0,B|263:220|263:220|228:206|228:206|179:217,1,140,2|2,0:2|0:0,0:0:0:0:
48,323,3116,6,0,P|11:264|14:195,1,140,2|0,0:2|0:0,0:0:0:0:
62,125,3645,2,0,L|52:55,1,70,2|0,0:2|0:0,0:0:0:0:
134,36,3998,2,0,L|153:173,1,140,2|2,0:2|0:2,0:0:0:0:
132,256,4527,1,0,0:0:0:0:
132,256,4704,6,0,P|184:299|252:290,1,140,2|2,0:2|0:0,0:0:0:0:
316,343,5233,2,0,P|346:326|380:323,1,70,2|0,0:2|0:0,0:0:0:0:
454,363,5586,1,2,0:2:0:0:
482,197,5939,6,0,B|442:228|442:228|356:206,1,140,2|2,0:2|0:2,0:0:0:0:
302,147,6468,1,2,0:0:0:0:
302,147,6645,2,0,P|233:146|184:194,1,140,2|0,0:2|0:0,0:0:0:0:
209,274,7174,2,0,L|193:342,1,70,2|2,0:2|0:0,0:0:0:0:
115,373,7527,6,0,B|58:337|58:337|92:198,1,210,6|2,3:2|0:2,0:0:0:0:
40,38,8410,1,2,0:2:0:0:
40,38,8586,2,0,L|108:52,1,70,0|2,3:0|3:2,0:0:0:0:
187,22,8939,6,0,B|310:3|310:3|328:42|377:48,1,210,6|2,3:2|0:2,0:0:0:0:
469,195,9821,1,2,0:2:0:0:
469,195,9998,2,0,P|438:211|418:239,1,70,0|2,3:0|3:2,0:0:0:0:
358,299,10351,6,0,P|295:271|264:210,1,140,6|0,3:2|3:0,0:0:0:0:
293,130,10880,2,0,L|277:61,1,70,0|0,3:0|3:0,0:0:0:0:
208,12,11233,1,0,3:0:0:0:
128,41,11410,1,0,3:0:0:0:
144,123,11586,6,0,L|112:261,1,140,12|12,0:2|0:2,0:0:0:0:
93,341,12116,1,12,0:2:0:0:
93,341,13174,6,0,B|162:320|157:375|228:347,1,140,4|0,3:2|3:0,0:0:0:0:
219,267,13704,1,8,0:3:0:0:
219,267,13880,2,0,L|230:198,1,70,8|4,0:3|0:3,0:0:0:0:
176,133,14233,2,0,L|187:64,1,70,8|0,0:3|3:0,0:0:0:0:
254,12,14586,6,0,P|302:59|370:55,1,140,4|2,3:2|3:0,0:0:0:0:
450,22,15116,1,2,3:0:0:0:
450,22,15292,2,0,P|461:54|453:88,1,70,4|4,0:3|0:3,0:0:0:0:
391,145,15645,2,0,P|379:177|387:211,1,70,8|8,0:3|0:3,0:0:0:0:
329,272,15998,6,0,P|396:263|454:300,1,140,6|10,3:2|0:2,0:0:0:0:
307,380,16704,1,2,3:2:0:0:
307,380,16880,2,0,L|238:367,1,70,2|8,3:2|0:2,0:0:0:0:
172,312,17233,2,0,P|154:246|175:180,1,140,6|2,3:2|3:2,0:0:0:0:
268,39,17939,2,0,B|229:65|229:65|138:43,1,140,2|2,0:2|3:2,0:0:0:0:
64,2,18468,2,0,P|49:33|50:68,1,70,10|2,0:2|0:2,0:0:0:0:
82,146,18821,6,0,B|67:199|67:199|40:219|40:219|26:268,2,140,4|10|2,3:2|0:2|3:2,0:0:0:0:
50,68,19704,2,0,P|83:60|118:65,1,70,2|8,3:2|0:2,0:0:0:0:
187,16,20057,2,0,L|210:154,1,140,6|2,3:2|3:2,0:0:0:0:
167,317,20763,2,0,B|255:300|255:300|270:320|297:325,1,140,2|2,0:2|3:2,0:0:0:0:
370,366,21292,2,0,P|379:332|374:298,1,70,10|2,0:2|3:2,0:0:0:0:
312,241,21645,6,0,L|301:172,1,70,6|2,3:2|0:2,0:0:0:0:
270,98,21998,1,2,3:2:0:0:
270,98,22174,1,14,0:2:0:0:
430,47,22527,2,0,L|443:115,1,70,2|10,3:2|0:2,0:0:0:0:
512,164,22880,1,2,0:2:0:0:
504,246,23057,2,0,L|436:233,1,70,6|2,3:2|0:2,0:0:0:0:
356,220,23410,1,2,3:2:0:0:
356,220,23586,2,0,B|383:253|383:253|398:281|388:321|353:334,1,140,14|2,0:2|3:2,0:0:0:0:
273,305,24116,2,0,P|238:304|206:319,1,70,14|2,0:2|3:2,0:0:0:0:
140,371,24468,6,0,B|172:328|172:328|156:243,1,140,12|12,0:2|0:2,0:0:0:0:
9,160,25174,2,0,B|21:91,1,70,8|4,0:3|0:3,0:0:0:0:
81,32,25527,1,0,3:0:0:0:
157,68,25704,2,0,B|295:44,1,140,4|8,3:2|0:3,0:0:0:0:
367,1,26233,2,0,P|382:31|380:66,1,70,8|8,0:3|0:2,0:0:0:0:
441,124,26586,2,0,P|369:125|317:166,1,140,4|4,3:2|3:2,0:0:0:0:
260,323,27292,6,0,B|208:348|208:348|127:332,2,140,6|2|2,3:2|3:2|3:2,0:0:0:0:
329,370,28174,1,2,0:0:0:0:
328,370,28351,2,0,P|359:354|394:356,1,70,2|2,3:2|0:0,0:0:0:0:
476,370,28704,2,0,P|493:303|467:239,1,140,2|2,3:2|3:2,0:0:0:0:
393,196,29233,2,0,P|462:198|512:151,1,140,2|2,0:0|0:0,0:0:0:0:
451,93,29763,2,0,P|416:94|387:113,1,70,4|2,0:3|3:2,0:0:0:0:
393,196,30116,6,0,B|356:183|356:183|301:207|301:207|261:196,1,140,8|2,3:0|3:2,0:0:0:0:
184,46,30821,2,0,L|114:57,1,70,2|2,3:2|0:0,0:0:0:0:
36,26,31174,2,0,P|26:59|35:92,1,70,2|2,3:2|0:0,0:0:0:0:
96,151,31527,2,0,B|83:204|83:204|99:244|99:244|89:285,1,140,2|2,3:2|3:2,0:0:0:0:
137,355,32057,2,0,P|204:354|249:303,1,140,2|2,0:0|3:2,0:0:0:0:
215,227,32586,1,8,0:3:0:0:
242,61,32939,6,0,P|298:21|366:28,1,140,10|2,3:0|3:2,0:0:0:0:
450,6,33468,1,0,0:0:0:0:
450,6,33645,2,0,B|440:53|440:53|460:90|460:90|451:139,1,140,2|2,3:2|3:2,0:0:0:0:
500,299,34351,6,0,P|453:349|386:342,1,140,2|0,3:2|3:0,0:0:0:0:
326,283,34880,2,0,L|304:145,1,140,2|2,0:0|0:0,0:0:0:0:
328,63,35410,1,4,0:3:0:0:
259,15,35586,1,2,3:2:0:0:
184,55,35763,6,0,L|46:33,2,140,2|2|2,3:2|3:2|3:2,0:0:0:0:
89,194,36821,2,0,L|101:262,1,70,2|0,3:2|0:0,0:0:0:0:
50,329,37174,2,0,P|115:345|171:305,1,140,2|0,3:2|3:0,0:0:0:0:
228,244,37704,1,2,0:2:0:0:
228,244,37880,2,0,L|215:175,1,70,8|2,0:3|3:2,0:0:0:0:
167,105,38233,1,8,0:3:0:0:
305,9,38586,6,0,B|401:1|401:1|432:32,2,140,4|10|2,3:2|0:2|3:2,0:0:0:0:
342,89,39468,1,2,3:2:0:0:
342,89,39645,2,0,L|327:157,1,70,10|2,0:2|0:2,0:0:0:0:
356,236,39998,6,0,P|413:199|482:206,1,140,2|10,3:2|0:2,0:0:0:0:
504,287,40527,2,0,P|446:323|377:316,1,140,2|2,0:0|3:2,0:0:0:0:
297,294,41057,2,0,L|285:363,1,70,8|2,0:2|3:2,0:0:0:0:
201,368,41410,6,0,L|224:229,1,140,2|10,3:2|0:2,0:0:0:0:
125,94,42115,2,0,L|55:105,1,70,2|2,3:2|3:2,0:0:0:0:
65,188,42468,2,0,L|135:177,1,70,10|2,0:2|0:0,0:0:0:0:
202,127,42821,6,0,B|249:119|249:119|289:139|289:139|336:130,1,140,2|10,3:2|0:2,0:0:0:0:
393,68,43351,2,0,P|422:130|396:193,1,140,2|2,0:0|3:2,0:0:0:0:
440,265,43880,2,0,L|425:334,1,70,8|2,0:2|0:0,0:0:0:0:
351,373,44233,6,0,P|295:333|227:340,1,140,4|10,3:2|0:2,0:0:0:0:
149,372,44763,1,0,0:0:0:0:
149,372,44939,2,0,L|138:302,1,70,2|2,3:2|3:2,0:0:0:0:
185,232,45292,2,0,L|174:162,1,70,10|0,0:2|0:0,0:0:0:0:
207,85,45645,6,0,P|164:32|96:25,1,140,2|8,3:2|0:2,0:0:0:0:
29,76,46174,2,0,L|48:214,1,140,2|2,0:0|3:2,0:0:0:0:
115,266,46704,1,10,0:2:0:0:
63,332,46880,1,2,3:2:0:0:
63,332,47057,6,0,B|108:352|108:352|195:327,1,140,6|2,3:2|3:2,0:0:0:0:
268,368,47586,1,14,0:2:0:0:
297,205,47939,1,2,3:2:0:0:
297,205,48115,2,0,L|309:137,1,70,8|2,0:2|3:2,0:0:0:0:
271,60,48468,6,0,P|325:20|392:35,1,140,4|0,3:2|3:0,0:0:0:0:
439,112,48998,1,8,0:2:0:0:
392,276,49351,1,0,3:0:0:0:
392,276,49527,2,0,L|404:344,1,70,4|8,3:3|3:3,0:0:0:0:
323,365,49880,6,0,L|310:296,2,70,6|2|2,3:2|3:2|3:2,0:0:0:0:
70,353,50763,2,0,L|57:284,1,70,12|0,0:2|3:0,0:0:0:0:
9,214,51116,6,0,B|60:241|60:241|139:220,1,140,12|4,0:2|0:3,0:0:0:0:
122,137,51645,2,0,L|134:68,1,70,8|8,0:3|0:3,0:0:0:0:
205,22,51998,2,0,P|237:37|272:36,1,70,8|4,0:3|0:3,0:0:0:0:
349,3,52351,1,8,0:3:0:0:
443,142,52704,6,0,L|511:129,2,70,6|2|2,3:2|3:2|3:2,0:0:0:0:
402,308,53410,1,2,0:0:0:0:
402,308,53586,2,0,L|334:321,1,70,12|0,0:2|3:0,0:0:0:0:
266,372,53939,2,0,P|210:332|142:344,1,140,12|4,0:2|0:3,0:0:0:0:
62,370,54468,1,8,0:3:0:0:
62,370,54645,2,0,B|49:322|49:322|62:279|62:279|51:235,1,140,4|8,0:3|0:3,0:0:0:0:
22,155,55174,2,0,P|55:147|88:157,1,70,4|0,0:3|3:0,0:0:0:0:
140,224,55527,6,0,B|209:216|209:216|237:238|276:232,1,140,4|2,3:2|0:0,0:0:0:0:
257,149,56057,1,0,3:0:0:0:
257,149,56233,2,0,L|273:80,1,70,8|2,0:2|0:0,0:0:0:0:
306,5,56586,1,2,0:0:0:0:
306,5,56763,6,0,P|362:43|430:35,1,140,2|0,3:2|3:0,0:0:0:0:
496,87,57292,2,0,L|485:156,1,70,8|0,0:2|3:0,0:0:0:0:
503,238,57645,2,0,B|468:266|468:266|374:246,1,140,8|4,0:2|3:2,0:0:0:0:
297,227,58174,1,2,0:0:0:0:
297,227,58351,5,4,3:2:0:0:
52,29,59763,6,0,P|94:85|94:153,1,140,4|0,3:2|3:0,0:0:0:0:
56,230,60292,1,0,3:0:0:0:
56,230,60468,2,0,P|89:239|123:234,1,70,0|0,3:0|3:0,0:0:0:0:
183,174,60821,2,0,L|195:105,1,70,8|0,0:2|3:0,0:0:0:0:
279,104,61174,6,0,L|253:241,1,140,12|0,0:2|3:0,0:0:0:0:
200,307,61704,2,0,B|234:286|268:304|268:304|291:332|328:328,1,140,12|0,0:2|3:0,0:0:0:0:
402,287,62233,1,12,0:2:0:0:
427,124,62586,1,0,3:0:0:0:
427,124,62763,2,0,P|359:137|299:104,1,140,12|0,0:2|3:0,0:0:0:0:
248,37,63292,2,0,L|178:48,1,70,12|0,0:2|3:0,0:0:0:0:
119,108,63645,2,0,L|49:96,1,70,12|0,0:2|3:0,0:0:0:0:
5,169,63998,5,8,0:2:0:0:
5,169,64174,1,4,3:2:0:0:
31,339,64527,1,12,0:2:0:0:
31,339,64703,1,4,3:2:0:0:
201,313,65057,5,12,0:2:0:0:
201,313,65233,2,0,L|217:173,1,140,12|8,0:2|0:3,0:0:0:0:
178,98,65763,1,4,0:3:0:0:
319,7,66116,2,0,P|352:19|387:19,1,70,2|2,3:2|3:2,0:0:0:0:
470,33,66468,2,0,P|481:65|481:100,1,70,2|2,3:2|3:2,0:0:0:0:
478,184,66821,6,0,B|438:184|415:152|415:152|349:164,1,140,4|10,3:2|0:2,0:0:0:0:
278,118,67351,2,0,P|266:150|269:185,1,70,2|0,0:2|3:0,0:0:0:0:
326,247,67704,2,0,P|337:279|334:314,1,70,2|8,3:2|0:2,0:0:0:0:
269,367,68057,2,0,P|201:377|146:337,1,140,6|0,3:2|3:0,0:0:0:0:
116,261,68586,1,10,0:2:0:0:
136,93,68939,6,0,L|204:78,1,70,2|0,3:2|3:0,0:0:0:0:
278,118,69292,2,0,L|346:103,1,70,10|0,0:2|0:0,0:0:0:0:
409,159,69645,2,0,P|443:218|438:287,1,140,4|8,3:2|0:2,0:0:0:0:
358,315,70174,2,0,P|323:255|328:186,1,140,2|2,0:2|3:2,0:0:0:0:
203,73,70880,6,0,P|143:107|74:102,1,140,6|2,3:2|3:2,0:0:0:0:
15,163,71410,1,10,0:2:0:0:
15,163,71586,2,0,L|39:300,1,140,0|0,3:0|3:0,0:0:0:0:
107,352,72116,1,8,0:2:0:0:
191,334,72292,1,2,3:2:0:0:
191,334,72468,6,0,P|222:273|212:205,1,140,4|8,3:2|0:2,0:0:0:0:
165,134,72998,1,2,0:0:0:0:
281,12,73351,2,0,P|315:19|349:28,1,70,2|8,3:2|0:2,0:0:0:0:
431,8,73704,6,0,P|464:70|451:135,1,140,6|2,3:2|3:2,0:0:0:0:
401,204,74233,1,8,0:2:0:0:
401,204,74410,1,2,0:2:0:0:
475,361,74763,1,2,3:2:0:0:
474,360,74939,2,0,P|442:349|407:350,1,70,8|2,0:2|0:2,0:0:0:0:
339,298,75292,6,0,P|287:344|218:345,1,140,4|8,3:2|0:2,0:0:0:0:
149,297,75821,1,2,0:2:0:0:
197,136,76174,2,0,L|186:67,1,70,2|8,3:2|0:2,0:0:0:0:
122,12,76527,6,0,B|91:-4|47:5|47:5|39:35|4:49,1,140,4|0,3:2|3:0,0:0:0:0:
5,49,77057,1,8,0:2:0:0:
66,205,77410,6,0,L|134:190,1,70,2|0,3:2|3:0,0:0:0:0:
197,136,77763,2,0,L|265:121,1,70,10|4,0:2|0:3,0:0:0:0:
338,163,78116,6,0,P|320:96|351:35,1,140,4|10,3:2|0:2,0:0:0:0:
434,50,78645,2,0,P|451:116|420:177,1,140,2|2,0:2|3:2,0:0:0:0:
485,333,79351,6,0,B|441:326|441:326|401:349|401:349|352:342,1,140,6|0,3:2|3:0,0:0:0:0:
274,376,79880,1,10,0:2:0:0:
196,227,80233,2,0,L|206:157,1,70,2|0,3:2|3:0,0:0:0:0:
257,90,80586,2,0,P|225:74|191:75,1,70,10|0,0:2|3:0,0:0:0:0:
115,38,80939,6,0,P|54:70|26:133,1,140,4|4,3:2|0:3,0:0:0:0:
55,212,81468,1,14,0:2:0:0:
5,372,81821,2,0,L|72:352,1,70,14|0,0:2|0:0,0:0:0:0:
139,302,82174,2,0,B|191:311|191:311|213:340|213:340|263:346,1,140,14|2,0:2|3:2,0:0:0:0:
341,309,82704,1,10,0:2:0:0:
341,309,82880,2,0,P|359:242|334:178,1,140,2|0,3:2|3:0,0:0:0:0:
269,124,83410,1,8,0:3:0:0:
390,8,83763,6,0,L|459:17,1,70,4|2,3:2|0:0,0:0:0:0:
512,88,84116,1,0,3:0:0:0:
512,88,84292,2,0,P|515:156|469:206,1,140,12|0,0:2|3:0,0:0:0:0:
341,309,84998,2,0,B|398:322|398:322|414:342|414:342|467:358,2,140,4|4|4,3:2|3:2|3:2,0:0:0:0:
185,374,86057,1,0,3:0:0:0:
185,374,86233,2,0,L|174:304,1,70,8|2,0:2|3:2,0:0:0:0:
134,230,86586,6,0,P|196:258|261:238,1,140,4|8,3:2|0:2,0:0:0:0:
321,178,87116,2,0,L|389:192,1,70,2|0,0:0|3:0,0:0:0:0:
404,113,87468,1,2,3:2:0:0:
404,113,87645,2,0,L|335:98,1,70,8|2,0:2|0:0,0:0:0:0:
282,32,87998,6,0,B|206:25|224:72|150:62,1,140,6|8,3:2|0:2,0:0:0:0:
74,22,88527,2,0,P|62:54|65:89,1,70,2|0,0:2|3:0,0:0:0:0:
132,149,88880,1,2,3:2:0:0:
132,149,89057,2,0,P|135:183|123:216,1,70,8|2,0:2|0:0,0:0:0:0:
57,269,89410,6,0,P|124:259|181:298,1,140,4|8,3:2|0:2,0:0:0:0:
227,368,89939,1,2,0:2:0:0:
338,242,90292,2,0,L|323:173,1,70,2|8,3:2|0:2,0:0:0:0:
284,98,90645,6,0,P|326:44|393:33,1,140,6|0,3:2|3:0,0:0:0:0:
470,68,91174,1,12,0:2:0:0:
503,232,91527,1,0,3:0:0:0:
435,280,91704,1,0,3:0:0:0:
435,280,91880,2,0,L|448:348,2,70,8|0|4,0:2|3:0|3:2,0:0:0:0:
256,192,92410,12,2,94351,3:0:0:0:
470,93,95057,6,0,P|413:56|345:65,1,140,4|10,3:2|0:2,0:0:0:0:
180,81,95763,1,2,3:2:0:0:
180,81,95939,2,0,L|111:68,1,70,2|8,3:2|0:2,0:0:0:0:
34,102,96292,2,0,P|12:167|30:234,2,140,6|2|2,3:2|3:2|0:2,0:0:0:0:
194,166,97351,1,2,3:2:0:0:
194,166,97527,2,0,L|262:153,1,70,10|2,0:2|0:2,0:0:0:0:
344,173,97880,6,0,P|382:116|372:48,2,140,4|10|2,3:2|0:2|3:2,0:0:0:0:
344,173,98763,1,2,3:2:0:0:
395,332,99116,2,0,L|257:309,1,140,6|2,3:2|3:2,0:0:0:0:
103,376,99821,2,0,P|68:316|79:249,1,140,2|2,0:2|3:2,0:0:0:0:
143,193,100351,2,0,P|152:159|147:125,1,70,10|2,0:2|0:2,0:0:0:0:
109,49,100704,6,0,L|178:38,1,70,6|2,3:2|0:2,0:0:0:0:
260,11,101057,1,2,3:2:0:0:
260,11,101233,2,0,B|273:54|245:88|245:88|257:144,1,140,14|2,0:2|3:2,0:0:0:0:
239,227,101763,1,10,0:2:0:0:
346,356,102116,6,0,L|414:369,1,70,6|2,3:2|0:2,0:0:0:0:
482,318,102469,1,2,3:2:0:0:
482,318,102645,2,0,B|488:275|488:275|487:244|459:214|422:220,1,140,14|2,0:2|3:2,0:0:0:0:
343,248,103174,1,14,0:2:0:0:
310,83,103527,6,0,P|345:25|413:16,2,140,12|12|8,0:2|0:2|0:3,0:0:0:0:
233,119,104410,1,4,0:3:0:0:
149,118,104586,1,0,3:0:0:0:
88,59,104763,2,0,B|58:108|58:108|75:188,1,140,4|8,3:2|0:3,0:0:0:0:
97,269,105292,1,8,0:3:0:0:
222,381,105645,6,0,L|234:308,1,70,8|8,0:3|0:3,0:0:0:0:
300,260,105998,1,4,0:3:0:0:
300,260,106174,1,8,0:2:0:0:
239,14,106704,1,8,0:0:0:0:
405,43,107057,6,0,L|473:31,1,70,4|0,3:2|0:0,0:0:0:0:
492,113,107410,2,0,L|423:124,1,70,4|0,3:2|0:0,0:0:0:0:
343,98,107763,1,4,3:2:0:0:
256,192,107939,12,0,111998,0:0:0:0:
