osu file format v14

[General]
AudioFilename: audio.mp3
AudioLeadIn: 0
PreviewTime:66027
Countdown: 0
SampleSet: Soft
StackLeniency: 0.2
Mode: 0
LetterboxInBreaks: 0
WidescreenStoryboard: 1

[Editor]
DistanceSpacing: 0.8
BeatDivisor: 4
GridSize: 32
TimelineZoom: 2.3

[Metadata]
Title:Hikari no destination
TitleUnicode:ヒカリのdestination
Artist:illumination STARS
ArtistUnicode:イルミネーションスターズ
Creator:Acylica
Version:Senseabel's Extra
Source:アイドルマスター シャイニーカラーズ
Tags:THE IDOLM@STER SHINY COLORS im@s imas アイマス シャニマス Shanimas BRILLI@NT WING 02 ヒカリのdestination 櫻木真乃 Sakuragi Mano 風野灯織 Kazano Hiori 八宮めぐる Hachimiya Meguru 峯田 茉優 Mineda Mayu 関根 瞳 Sekine Hitomi 近藤玲奈 Kondou Reina ioexception shizuku- niva senseabel heilia neoskylove affirmation af japanese female vocal idol video game pop jpop j-pop acyl
BeatmapID:2228716
BeatmapSetID:1062292

[Difficulty]
HPDrainRate:6
CircleSize:4.7
OverallDifficulty:9
ApproachRate:9.3
SliderMultiplier:1.6
SliderTickRate:1

[Events]
//Background and Video events
0,0,"stickbug.jpg"
//Break Periods
//Storyboard Layer 0 (Background)
//Storyboard Layer 1 (Fail)
//Storyboard Layer 2 (Pass)
//Storyboard Layer 3 (Foreground)
//Storyboard Layer 4 (Overlay)
//Storyboard Sound Samples

[TimingPoints]
469,352.941176470588,4,2,1,35,1,0
7527,-100,4,2,1,45,0,0
10704,-100,4,2,1,46,0,0
10880,-100,4,2,1,47,0,0
11057,-100,4,2,1,48,0,0
11233,-100,4,2,1,49,0,0
11410,-100,4,2,1,50,0,0
11586,-100,4,2,1,55,0,0
15998,-100,4,2,1,60,0,0
26586,-100,4,2,1,58,0,0
26939,-100,4,2,1,55,0,0
27292,-100,4,2,1,45,0,0
38586,-100,4,2,1,58,0,0
49880,-100,4,2,1,55,0,0
55527,-100,4,2,1,50,0,0
58704,-100,4,2,1,45,0,0
59057,-100,4,2,1,55,0,0
66821,-100,4,2,1,80,0,0
93998,-100,4,2,1,60,0,0
95057,-100,4,2,1,60,0,0
107410,-100,4,2,1,58,0,0
107763,-100,4,2,1,55,0,0
111998,-100,4,2,1,55,0,0

[Colours]
Combo1 : 255,206,238
Combo2 : 200,244,183
Combo3 : 250,193,167

[HitObjects]
265,384,1174,5,2,0:0:0:0:
300,264,1351,5,0,0:0:0:0:
324,338,1527,1,0,0:2:0:0:
300,264,1704,1,0,0:0:0:0:
481,321,1880,6,0,P|437:280|372:276,1,120,6|0,0:2|0:0,0:0:0:0:
373,279,2233,1,2,0:0:0:0:
444,254,2410,1,2,0:2:0:0:
502,148,2586,1,0,0:0:0:0:
431,123,2763,1,2,0:0:0:0:
349,35,2939,1,0,0:0:0:0:
420,10,3116,1,2,0:2:0:0:
257,204,3292,6,0,P|238:188|246:116,1,80,2|0,0:0|0:0,0:0:0:0:
281,85,3645,1,2,0:2:0:0:
221,134,3821,1,0,0:0:0:0:
416,9,3998,2,0,P|389:33|391:78,1,80,2|0,0:2|0:0,0:0:0:0:
448,117,4351,1,2,0:2:0:0:
374,274,4704,6,0,P|391:237|376:144,1,120,2|0,0:2|0:0,0:0:0:0:
372,147,5057,1,2,0:0:0:0:
303,167,5233,1,2,0:2:0:0:
439,292,5586,1,2,0:2:0:0:
246,353,5939,1,2,0:2:0:0:
312,258,6116,6,0,P|279:233|185:226,1,120,2|0,0:2|0:0,0:0:0:0:
187,231,6469,1,2,0:0:0:0:
79,322,6645,2,0,B|55:252|135:257|91:159,1,160,2|0,0:2|0:0,0:0:0:0:
57,6,7174,6,0,P|100:8|143:70,1,120,2|0,0:2|0:0,0:0:0:0:
138,81,7527,1,6,3:2:0:0:
377,9,8939,1,6,3:2:0:0:
221,357,10351,1,6,3:2:0:0:
221,357,10704,5,0,3:0:0:0:
292,347,10880,1,0,3:0:0:0:
337,292,11057,5,0,3:0:0:0:
195,266,11233,1,0,3:0:0:0:
149,193,11410,5,0,3:0:0:0:
354,128,11586,2,0,P|361:86|343:32,1,80,12|0,0:2|3:0,0:0:0:0:
340,33,11851,1,0,3:0:0:0:
322,24,11939,1,12,0:2:0:0:
266,236,12116,1,12,0:2:0:0:
500,182,12468,5,2,3:2:0:0:
483,170,12557,1,2,3:2:0:0:
463,166,12645,2,0,L|456:103,1,40,2|2,3:2|3:2,0:0:0:0:
359,331,12821,2,0,L|352:394,1,40,8|0,3:3|0:0,0:0:0:0:
473,306,12998,5,0,3:0:0:0:
461,273,13087,1,0,3:0:0:0:
427,251,13174,2,0,P|382:238|297:292,1,120,4|0,3:2|0:0,0:0:0:0:
308,279,13527,5,0,3:0:0:0:
362,100,13704,1,8,0:3:0:0:
169,3,13880,5,8,0:3:0:0:
223,182,14057,1,4,0:3:0:0:
22,151,14234,5,8,0:3:0:0:
41,126,14321,1,4,0:3:0:0:
71,114,14410,1,0,3:0:0:0:
102,116,14498,1,0,0:0:0:0:
102,116,14586,2,0,L|91:12,1,80,4|0,3:2|3:0,0:0:0:0:
101,203,14851,5,0,3:0:0:0:
101,203,14939,2,0,P|118:225|122:265,1,40,2|2,3:0|3:0,0:0:0:0:
272,282,15116,1,2,3:0:0:0:
272,282,15204,1,0,3:0:0:0:
272,282,15292,2,0,P|255:305|219:322,1,40,4|4,0:3|0:3,0:0:0:0:
197,218,15468,1,4,0:3:0:0:
197,218,15557,1,4,0:3:0:0:
197,218,15645,2,0,P|197:246|178:281,1,40,8|8,0:3|0:3,0:0:0:0:
438,339,15821,5,8,0:3:0:0:
435,346,15910,1,8,0:3:0:0:
381,299,15998,2,0,B|400:227|348:231|380:137,1,160,6|10,3:2|0:2,0:0:0:0:
314,116,16527,1,0,0:0:0:0:
445,189,16704,5,2,3:2:0:0:
313,271,16880,1,2,3:2:0:0:
231,139,17057,1,8,0:2:0:0:
422,381,17233,6,0,P|448:307|425:245,1,120,6|0,3:2|0:0,0:0:0:0:
356,349,17586,2,0,B|319:353|319:353|316:356|316:356|270:361,1,80,2|8,3:2|0:2,0:0:0:0:
143,240,17939,6,0,B|174:220|218:229|232:248|232:248|221:295,1,120,2|0,0:2|0:0,0:0:0:0:
262,349,18292,5,2,3:2:0:0:
130,384,18468,1,10,0:2:0:0:
226,270,18645,5,2,0:2:0:0:
143,240,18821,2,0,P|125:182|152:112,1,120,4|0,3:2|0:0,0:0:0:0:
69,111,19174,2,0,P|85:74|116:50,1,80,10|0,0:2|0:0,0:0:0:0:
25,7,19527,5,2,3:2:0:0:
187,68,19704,1,2,3:2:0:0:
187,68,20057,6,0,B|221:161|142:136|179:239,1,160,6|2,3:2|3:2,0:0:0:0:
66,320,20586,2,0,P|54:289|53:272,1,40,8|0,0:2|0:0,0:0:0:0:
194,295,20763,2,0,P|155:272|117:274,1,80,2|0,0:2|3:0,0:0:0:0:
244,237,21116,5,2,3:2:0:0:
290,362,21292,2,0,P|298:329|307:315,1,40,10|0,0:2|3:0,0:0:0:0:
193,179,21468,5,2,3:2:0:0:
210,167,21557,1,0,3:0:0:0:
230,164,21645,1,6,3:2:0:0:
298,185,21821,1,2,0:2:0:0:
187,99,21998,1,2,3:2:0:0:
159,240,22174,1,14,0:2:0:0:
159,240,22527,5,2,3:2:0:0:
210,167,22704,1,10,0:2:0:0:
298,185,22880,1,2,0:2:0:0:
187,99,23057,2,0,P|169:54|169:19,2,80,6|2|2,3:2|0:2|3:2,0:0:0:0:
422,70,23586,6,0,P|380:41|272:37,1,160,14|2,0:2|3:2,0:0:0:0:
260,45,24027,1,0,3:0:0:0:
249,57,24116,2,0,L|251:-11,1,40,14|0,0:2|3:0,0:0:0:0:
236,167,24292,5,2,3:2:0:0:
258,138,24380,1,0,3:0:0:0:
291,127,24468,1,12,0:2:0:0:
156,88,24645,5,0,3:0:0:0:
360,171,24821,1,12,0:2:0:0:
156,88,24998,1,0,3:0:0:0:
66,347,25174,5,8,0:3:0:0:
98,278,25351,5,4,0:3:0:0:
193,237,25527,5,0,3:0:0:0:
319,287,25704,6,0,B|334:218|259:230|295:135,1,160,4|8,3:2|0:3,0:0:0:0:
352,100,26233,1,8,0:3:0:0:
251,276,26410,5,8,0:2:0:0:
229,247,26498,1,0,3:0:0:0:
193,237,26586,2,0,P|139:247|84:313,1,120,4|0,3:2|0:0,0:0:0:0:
140,339,26939,6,0,B|113:359|114:392|114:392|100:362|72:354,1,120,4|0,3:2|0:0,0:0:0:0:
32,189,27292,6,0,B|62:170|119:184|125:230|125:230|105:199|67:195,1,160,6|2,3:2|3:2,0:0:0:0:
32,189,27998,6,0,P|21:144|41:99,1,80,2|2,3:2|0:0,0:0:0:0:
156,73,28351,1,2,3:2:0:0:
170,141,28527,1,2,0:0:0:0:
296,174,28704,2,0,B|351:182|351:182|354:186|354:186|438:198,1,120,2|0,3:2|0:0,0:0:0:0:
473,233,29057,2,0,B|461:193|461:193|476:152,1,80,2|2,3:2|0:0,0:0:0:0:
419,285,29410,2,0,L|318:294,1,80,0|2,3:0|0:0,0:0:0:0:
222,366,29763,2,0,L|301:373,1,80,4|2,0:3|3:2,0:0:0:0:
222,266,30116,6,0,P|183:266|140:304,1,80,8|0,3:0|0:0,0:0:0:0:
77,268,30380,1,0,0:0:0:0:
65,278,30468,2,0,P|51:325|61:370,1,80,2|0,3:2|0:0,0:0:0:0:
141,303,30821,1,2,3:2:0:0:
31,167,30998,5,2,0:0:0:0:
102,156,31174,1,2,3:2:0:0:
101,5,31351,5,2,0:0:0:0:
171,18,31527,2,0,B|195:84|147:76|180:151,1,120,2|0,3:2|0:0,0:0:0:0:
250,77,31880,2,0,P|295:76|343:108,1,80,2|2,3:2|0:0,0:0:0:0:
423,223,32233,5,4,0:3:0:0:
428,204,32321,1,0,3:0:0:0:
415,189,32410,2,0,P|384:196|364:211,1,40,2|4,3:2|0:3,0:0:0:0:
217,359,32586,5,8,0:3:0:0:
262,352,32674,1,0,3:0:0:0:
290,314,32763,1,2,3:0:0:0:
287,268,32851,1,2,3:0:0:0:
287,268,32939,2,0,P|267:222|285:134,1,120,10|0,3:0|0:0,0:0:0:0:
283,140,33292,1,2,3:2:0:0:
467,17,33645,5,2,3:2:0:0:
481,249,33998,6,0,P|451:220|368:200,1,120,2|0,3:2|0:0,0:0:0:0:
395,186,34351,2,0,L|405:99,1,80,2|0,3:2|0:0,0:0:0:0:
404,106,34616,1,2,0:2:0:0:
404,106,34704,1,0,3:0:0:0:
261,53,34880,1,2,0:0:0:0:
326,20,35057,2,0,L|335:99,1,80,0|2,3:0|0:0,0:0:0:0:
181,162,35410,6,0,P|190:123|167:64,1,80,4|2,0:3|3:2,0:0:0:0:
24,136,35763,2,0,P|52:107|99:105,1,80,2|0,3:2|3:2,0:0:0:0:
105,110,36027,1,0,3:0:0:0:
118,123,36116,1,2,3:2:0:0:
170,70,36292,1,0,0:0:0:0:
83,211,36468,6,0,P|111:239|174:247,1,80,2|0,3:2|0:0,0:0:0:0:
213,369,36821,2,0,P|241:340|304:332,1,80,2|0,3:2|0:0,0:0:0:0:
358,170,37174,6,0,P|348:208|371:268,1,80,2|0,3:2|3:0,0:0:0:0:
366,259,37439,1,0,3:0:0:0:
379,267,37527,1,0,3:0:0:0:
403,333,37704,1,2,0:2:0:0:
466,298,37880,1,8,0:3:0:0:
287,168,38057,5,2,3:2:0:0:
321,104,38233,1,8,0:3:0:0:
318,72,38321,1,4,0:3:0:0:
297,47,38409,1,2,3:0:0:0:
473,3,38586,6,0,B|503:37|503:37|482:131,1,120,4|0,3:2|0:0,0:0:0:0:
437,164,38939,2,0,L|350:170,1,80,10|0,0:2|0:0,0:0:0:0:
452,335,39292,5,2,3:2:0:0:
496,209,39468,1,2,3:2:0:0:
366,234,39645,1,10,0:2:0:0:
442,258,39821,1,2,0:2:0:0:
309,365,39998,6,0,P|269:330|179:328,1,120,2|0,3:2|0:0,0:0:0:0:
185,328,40351,1,10,0:2:0:0:
295,251,40527,2,0,P|315:202|307:149,1,80,2|0,0:0|3:0,0:0:0:0:
191,74,40880,5,2,3:2:0:0:
241,192,41057,1,8,0:2:0:0:
114,269,41233,5,2,3:2:0:0:
150,165,41410,2,0,B|79:154|104:198|21:185,1,120,2|0,3:2|0:0,0:0:0:0:
73,108,41763,2,0,P|57:60|71:16,1,80,10|0,0:2|0:0,0:0:0:0:
193,0,42116,5,2,3:2:0:0:
158,88,42292,1,2,3:2:0:0:
311,184,42468,5,10,0:2:0:0:
276,96,42644,1,2,0:0:0:0:
415,11,42821,6,0,P|439:52|437:94,1,80,2|0,3:2|0:0,0:0:0:0:
433,98,43086,1,0,0:0:0:0:
420,108,43174,2,0,L|330:121,1,80,10|2,0:2|0:0,0:0:0:0:
346,291,43527,6,0,P|362:272|371:253,1,40,0|0,3:0|0:0,0:0:0:0:
311,184,43704,2,0,P|311:208|305:229,1,40,2|0,3:2|0:0,0:0:0:0:
270,362,43880,5,8,0:2:0:0:
251,321,43968,1,0,3:0:0:0:
210,302,44057,1,2,3:0:0:0:
167,310,44145,1,0,3:0:0:0:
177,295,44233,6,0,P|193:240|160:125,1,160,4|10,3:2|0:2,0:0:0:0:
20,197,44763,1,0,0:0:0:0:
60,134,44939,2,0,P|82:151|104:206,1,80,2|2,3:2|3:2,0:0:0:0:
244,375,45292,6,0,B|208:348|163:370|163:370|154:388|154:388|191:376,1,120,10|0,0:2|0:0,0:0:0:0:
179,371,45645,2,0,B|189:331|189:331|171:277,1,80,2|0,3:2|3:0,0:0:0:0:
168,280,45910,1,0,3:0:0:0:
153,271,45998,1,8,3:2:0:0:
89,313,46174,1,2,0:0:0:0:
167,185,46351,5,0,3:0:0:0:
333,126,46527,1,2,3:2:0:0:
376,73,46704,5,10,0:2:0:0:
160,23,46880,1,2,3:2:0:0:
257,258,47057,6,0,B|281:195|222:195|265:109,1,120,6|0,3:2|0:0,0:0:0:0:
261,127,47410,1,2,3:2:0:0:
46,137,47586,6,0,B|93:116|130:143|130:143|147:189,1,120,14|0,0:2|0:0,0:0:0:0:
138,188,47939,1,2,3:2:0:0:
189,369,48116,5,8,0:2:0:0:
324,278,48292,1,2,3:2:0:0:
337,248,48380,1,0,3:0:0:0:
330,216,48468,1,4,3:2:0:0:
389,332,48645,5,0,3:0:0:0:
254,207,48821,1,0,3:0:0:0:
469,126,48998,6,0,P|407:119|349:155,1,120,8|0,0:2|0:0,0:0:0:0:
400,28,49351,6,0,P|378:11|338:7,1,40,0|0,3:0|0:0,0:0:0:0:
307,87,49527,1,4,3:3:0:0:
276,111,49615,1,0,3:0:0:0:
237,122,49703,1,8,3:3:0:0:
198,117,49791,1,0,3:0:0:0:
186,101,49880,5,6,3:2:0:0:
304,291,50057,1,2,3:2:0:0:
186,101,50233,1,2,3:2:0:0:
186,101,50763,6,0,P|190:60|200:46,1,40,12|0,0:2|0:0,0:0:0:0:
260,168,50939,2,0,P|265:187|263:207,1,40,0|0,3:0|0:0,0:0:0:0:
66,252,51116,2,0,P|92:220|179:199,1,120,12|0,0:2|0:0,0:0:0:0:
177,207,51468,5,4,0:3:0:0:
100,189,51645,1,8,0:3:0:0:
45,120,51821,1,8,0:3:0:0:
36,101,51910,1,0,3:0:0:0:
41,81,51998,1,8,0:3:0:0:
8,9,52174,1,4,0:3:0:0:
111,89,52351,1,8,0:3:0:0:
114,68,52440,1,4,0:3:0:0:
127,53,52528,1,4,0:3:0:0:
181,130,52704,5,6,3:2:0:0:
345,19,52880,1,2,3:2:0:0:
181,130,53057,1,2,3:2:0:0:
181,130,53410,5,2,0:0:0:0:
234,224,53586,6,0,P|239:205|237:185,1,40,12|0,0:2|0:0,0:0:0:0:
314,167,53763,2,0,P|306:148|293:133,1,40,0|0,3:0|0:0,0:0:0:0:
411,263,53939,6,0,B|342:247|365:291|284:278,1,120,12|0,0:2|0:0,0:0:0:0:
283,290,54292,1,4,0:3:0:0:
331,384,54468,5,8,0:3:0:0:
223,326,54645,1,4,0:3:0:0:
208,306,54733,1,4,0:3:0:0:
211,282,54821,1,4,0:3:0:0:
121,226,54998,1,8,0:3:0:0:
59,348,55174,5,4,0:3:0:0:
123,326,55351,1,0,3:0:0:0:
13,229,55527,2,0,B|4:150|4:150|6:146|6:146|-2:54,1,160,4|2,3:2|0:0,0:0:0:0:
158,96,56057,1,0,3:0:0:0:
87,35,56233,2,0,L|82:114,1,80,8|2,0:2|0:0,0:0:0:0:
213,153,56586,1,2,0:0:0:0:
141,250,56762,2,0,L|136:170,1,80,2|2,3:2|0:0,0:0:0:0:
60,286,57116,5,0,3:0:0:0:
194,363,57292,1,8,0:2:0:0:
310,256,57468,1,0,3:0:0:0:
317,237,57557,1,0,3:0:0:0:
311,216,57645,1,8,0:2:0:0:
236,263,57821,1,0,3:0:0:0:
377,348,57998,2,0,P|399:308|396:250,1,80,4|2,3:2|0:0,0:0:0:0:
457,138,58351,6,0,B|435:95|481:93|462:33|462:33|465:20|465:20|514:51|559:130|494:214,1,320,4|0,3:2|3:0,0:0:0:0:
497,292,59233,5,0,3:0:0:0:
480,274,59410,1,0,3:0:0:0:
435,256,59586,1,0,3:0:0:0:
363,265,59763,5,4,3:2:0:0:
281,316,59939,1,0,3:0:0:0:
264,384,60116,5,0,3:0:0:0:
157,200,60292,1,0,3:0:0:0:
272,162,60468,5,0,3:0:0:0:
115,265,60644,1,0,3:0:0:0:
20,90,60821,5,8,0:2:0:0:
93,57,60998,1,0,3:0:0:0:
113,91,61086,1,0,3:0:0:0:
104,130,61174,1,12,0:2:0:0:
29,19,61351,5,0,3:0:0:0:
61,189,61527,1,0,3:0:0:0:
93,57,61704,1,12,0:2:0:0:
20,90,61880,5,0,3:0:0:0:
236,137,62056,1,0,3:0:0:0:
150,14,62233,1,12,0:2:0:0:
143,171,62410,5,0,3:0:0:0:
273,247,62586,1,0,3:0:0:0:
359,124,62763,1,12,0:2:0:0:
511,221,62939,5,0,3:0:0:0:
381,297,63115,1,0,3:0:0:0:
295,174,63292,1,12,0:2:0:0:
368,201,63468,1,0,3:0:0:0:
198,358,63645,6,0,P|187:333|186:293,1,40,12|0,0:2|0:0,0:0:0:0:
306,251,63821,2,0,P|301:270|293:288,1,40,0|0,3:0|0:0,0:0:0:0:
129,216,63998,5,8,0:2:0:0:
282,304,64174,1,4,3:2:0:0:
491,120,64527,5,12,0:2:0:0:
324,190,64703,1,4,3:2:0:0:
108,62,65057,5,12,0:2:0:0:
293,121,65233,2,0,P|301:64|293:-11,1,120,12|0,0:2|0:0,0:0:0:0:
282,1,65586,5,8,0:3:0:0:
183,161,65763,2,0,B|162:238|217:207|189:299,1,120,4|0,0:3|0:0,0:0:0:0:
182,297,66116,2,0,L|148:305,2,20,2|0|2,3:2|0:0|3:2,0:0:0:0:
240,354,66292,5,2,3:2:0:0:
267,315,66380,1,2,3:2:0:0:
312,299,66468,1,2,3:2:0:0:
357,314,66557,1,0,3:0:0:0:
349,298,66645,2,0,L|343:244,1,40,2|2,3:2|3:2,0:0:0:0:
489,120,66821,6,0,P|447:155|365:152,1,120,4|0,3:2|0:0,0:0:0:0:
372,149,67174,2,0,L|362:61,1,80,10|2,0:2|0:2,0:0:0:0:
425,22,67527,5,0,3:0:0:0:
294,116,67704,1,2,3:2:0:0:
198,7,67880,1,8,0:2:0:0:
450,179,68057,6,0,B|494:206|498:242|478:281|478:281|438:278|411:310,1,160,6|0,3:2|3:0,0:0:0:0:
502,378,68586,2,0,P|481:358|466:355,1,40,10|0,0:2|0:0,0:0:0:0:
423,292,68763,2,0,P|399:308|393:322,1,40,0|0,3:0|3:0,0:0:0:0:
328,284,68939,1,2,3:2:0:0:
230,362,69116,1,0,3:0:0:0:
387,329,69292,5,10,0:2:0:0:
250,267,69468,1,0,3:0:0:0:
240,244,69557,1,0,3:0:0:0:
244,221,69645,2,0,P|303:181|381:203,1,120,4|0,3:2|0:0,0:0:0:0:
360,195,69998,5,8,0:2:0:0:
344,82,70174,2,0,P|385:90|413:114,1,80,2|0,0:2|3:0,0:0:0:0:
471,14,70527,5,2,3:2:0:0:
487,123,70704,1,8,0:2:0:0:
360,5,70880,6,0,P|319:11|255:84,1,120,6|0,3:2|0:0,0:0:0:0:
260,78,71233,1,2,3:2:0:0:
173,32,71410,2,0,P|166:70|179:108,1,80,10|0,0:2|3:0,0:0:0:0:
86,57,71763,5,0,3:0:0:0:
249,164,71939,1,0,3:0:0:0:
360,5,72116,1,8,0:2:0:0:
426,79,72292,5,2,3:2:0:0:
403,70,72380,1,0,3:0:0:0:
380,79,72468,2,0,B|408:148|344:138|388:229,1,120,4|0,3:2|0:0,0:0:0:0:
381,214,72821,2,0,L|440:222,1,40,8|0,0:2|0:0,0:0:0:0:
413,328,72998,5,2,0:0:0:0:
313,232,73174,1,0,3:0:0:0:
204,316,73351,1,2,3:2:0:0:
271,302,73527,2,0,P|274:322|271:342,1,40,8|0,0:2|0:0,0:0:0:0:
91,354,73704,6,0,P|124:321|221:306,1,120,6|0,3:2|0:0,0:0:0:0:
204,316,74057,1,2,3:2:0:0:
93,233,74233,1,8,0:2:0:0:
212,169,74410,2,0,P|218:145|217:117,1,40,2|0,0:2|0:0,0:0:0:0:
276,217,74586,5,0,3:0:0:0:
187,65,74763,1,2,3:2:0:0:
374,23,74939,6,0,P|320:23|256:67,1,120,8|0,0:2|0:0,0:0:0:0:
259,72,75292,1,4,3:2:0:0:
292,138,75468,1,2,0:0:0:0:
346,93,75645,5,8,0:2:0:0:
203,237,75821,1,2,0:2:0:0:
96,81,75998,1,0,3:0:0:0:
169,102,76174,1,2,3:2:0:0:
96,81,76351,1,8,0:2:0:0:
109,285,76527,6,0,P|129:225|108:147,1,120,4|0,3:2|0:0,0:0:0:0:
112,155,76880,1,0,3:0:0:0:
38,169,77057,1,8,0:2:0:0:
0,0,77233,5,0,3:0:0:0:
169,102,77410,1,2,3:2:0:0:
38,169,77586,5,0,3:0:0:0:
38,271,77763,1,10,0:2:0:0:
56,240,77851,1,8,0:3:0:0:
87,223,77939,1,4,0:3:0:0:
122,224,78027,1,4,0:3:0:0:
138,235,78116,6,0,P|163:301|132:378,1,120,4|0,3:2|0:0,0:0:0:0:
138,361,78468,2,0,L|51:371,1,80,10|2,0:2|0:2,0:0:0:0:
138,235,78821,1,0,3:0:0:0:
266,306,78998,1,2,3:2:0:0:
341,275,79174,1,8,0:2:0:0:
266,306,79351,6,0,B|282:244|242:254|256:188,1,120,6|0,3:2|0:0,0:0:0:0:
260,173,79704,1,0,3:0:0:0:
386,142,79880,2,0,P|346:167|331:223,1,80,10|0,0:2|3:0,0:0:0:0:
202,131,80233,5,2,3:2:0:0:
344,268,80410,1,0,3:0:0:0:
464,113,80586,1,10,0:2:0:0:
481,269,80763,5,0,3:0:0:0:
455,249,80851,1,0,3:0:0:0:
423,248,80939,2,0,P|388:202|395:118,1,120,4|0,3:2|0:0,0:0:0:0:
343,88,81292,6,0,P|322:114|319:136,1,40,4|0,0:3|0:0,0:0:0:0:
459,42,81468,2,0,P|450:23|436:10,1,40,14|0,0:2|0:0,0:0:0:0:
291,195,81821,2,0,P|310:196|329:191,1,40,14|0,0:2|0:0,0:0:0:0:
130,127,82174,2,0,P|113:69|128:12,1,120,14|0,0:2|0:0,0:0:0:0:
142,3,82527,5,2,3:2:0:0:
189,169,82704,1,10,0:2:0:0:
339,27,82880,5,2,3:2:0:0:
304,124,83057,1,10,0:2:0:0:
490,128,83233,5,0,3:0:0:0:
473,91,83321,1,0,3:0:0:0:
441,65,83410,1,8,0:3:0:0:
401,66,83498,1,4,0:3:0:0:
368,89,83586,1,0,3:0:0:0:
461,0,83763,5,4,3:2:0:0:
393,178,83939,1,2,0:0:0:0:
228,62,84116,2,0,P|256:48|288:51,1,40,0|0,3:0|0:0,0:0:0:0:
268,120,84292,2,0,P|227:158|244:251,1,120,12|0,0:2|0:0,0:0:0:0:
237,233,84645,1,0,3:0:0:0:
211,316,84821,1,8,0:2:0:0:
413,355,84998,6,0,P|372:309|289:290,1,120,4|0,3:2|0:0,0:0:0:0:
298,295,85351,2,0,L|302:241,1,40,4|0,3:2|0:0,0:0:0:0:
469,57,85704,2,0,B|473:111|473:111|476:119|476:119|480:177,1,120,4|0,3:2|0:0,0:0:0:0:
470,193,86057,1,0,3:0:0:0:
314,117,86233,1,8,0:2:0:0:
298,295,86410,5,2,3:2:0:0:
341,301,86498,1,0,3:0:0:0:
378,277,86586,2,0,P|392:223|375:129,1,120,4|0,3:2|0:0,0:0:0:0:
378,145,86939,1,8,0:2:0:0:
319,189,87116,1,2,0:0:0:0:
458,231,87292,5,0,3:0:0:0:
314,117,87468,1,2,3:2:0:0:
206,255,87645,1,8,0:2:0:0:
314,117,87821,6,0,P|320:89|316:69,1,40,2|0,0:0|0:0,0:0:0:0:
179,7,87998,2,0,P|233:33|240:110,1,120,6|0,3:2|0:0,0:0:0:0:
238,101,88351,1,8,0:2:0:0:
88,30,88527,5,2,0:2:0:0:
27,177,88704,1,0,3:0:0:0:
179,245,88880,5,2,3:2:0:0:
154,128,89057,1,8,0:2:0:0:
318,77,89233,5,2,0:0:0:0:
292,171,89410,2,0,P|343:175|408:220,1,120,4|0,3:2|0:0,0:0:0:0:
408,224,89763,1,8,0:2:0:0:
421,295,89939,1,2,0:2:0:0:
505,373,90116,5,0,3:0:0:0:
351,272,90292,1,2,3:2:0:0:
230,384,90468,1,8,0:2:0:0:
408,224,90645,6,0,P|425:169|410:82,1,120,6|0,3:2|3:0,0:0:0:0:
411,93,90998,1,0,3:0:0:0:
301,8,91174,2,0,P|331:44|339:84,1,80,12|0,0:2|3:0,0:0:0:0:
469,11,91527,5,0,3:0:0:0:
353,148,91704,1,0,3:0:0:0:
222,37,91880,2,0,P|218:12|226:-13,1,40,8|0,0:2|0:0,0:0:0:0:
208,142,92057,1,0,3:0:0:0:
241,119,92145,1,0,3:0:0:0:
280,123,92233,2,0,P|284:148|276:173,1,40,4|0,3:2|0:0,0:0:0:0:
392,275,92410,5,4,0:3:0:0:
365,256,92498,1,8,0:3:0:0:
334,259,92586,2,0,L|337:299,1,40,0|0,3:0|0:0,0:0:0:0:
455,384,92763,2,0,L|458:344,1,40,0|0,3:0|0:0,0:0:0:0:
242,279,92939,5,4,0:3:0:0:
217,299,93027,1,8,0:3:0:0:
185,294,93116,2,0,P|174:263|175:246,1,40,0|0,3:0|0:0,0:0:0:0:
35,349,93292,5,8,0:2:0:0:
74,329,93380,1,8,0:2:0:0:
94,289,93469,1,8,0:3:0:0:
78,247,93557,1,4,0:3:0:0:
63,232,93645,2,0,P|72:200|83:187,1,40,4|0,3:2|0:0,0:0:0:0:
281,355,93822,5,0,3:0:0:0:
294,326,93910,1,0,3:0:0:0:
332,297,93998,1,2,3:2:0:0:
387,295,94086,1,2,3:2:0:0:
437,327,94174,5,2,3:2:0:0:
419,303,94263,1,2,3:2:0:0:
434,263,94351,1,2,3:0:0:0:
411,240,94439,5,2,3:0:0:0:
411,240,94527,2,0,L|419:165,1,40,2|2,3:0|3:0,0:0:0:0:
467,113,94704,5,8,0:0:0:0:
467,113,94792,2,0,L|475:188,1,40,8|8,0:0|0:0,0:0:0:0:
259,59,94968,5,8,0:0:0:0:
259,59,95057,2,0,B|292:71|304:99|304:99|306:67|345:37,1,120,4|0,3:2|0:0,0:0:0:0:
345,41,95410,2,0,L|337:-19,1,40,10|0,0:2|0:0,0:0:0:0:
154,178,95763,5,2,3:2:0:0:
100,91,95939,1,2,3:2:0:0:
257,187,96116,1,8,0:2:0:0:
93,270,96292,2,0,P|69:222|85:173,1,80,6|0,3:2|0:0,0:0:0:0:
168,106,96645,5,2,3:2:0:0:
72,196,96821,1,8,0:2:0:0:
180,251,96998,2,0,P|180:211|159:177,1,80,2|0,0:2|3:0,0:0:0:0:
0,366,97351,5,2,3:2:0:0:
35,305,97527,2,0,P|81:303|122:338,1,80,10|2,0:2|0:2,0:0:0:0:
118,332,97792,1,0,0:0:0:0:
121,347,97880,2,0,P|105:283|129:203,1,120,4|0,3:2|0:0,0:0:0:0:
125,219,98233,2,0,L|169:216,1,40,10|0,0:2|0:0,0:0:0:0:
378,114,98586,5,2,3:2:0:0:
237,36,98763,1,2,3:2:0:0:
164,216,98939,5,8,0:2:0:0:
294,150,99116,2,0,B|312:208|269:206|294:285,1,120,6|0,3:2|0:0,0:0:0:0:
301,285,99468,1,2,3:2:0:0:
505,275,99645,5,8,0:2:0:0:
421,183,99821,2,0,P|398:218|396:266,1,80,2|0,0:2|3:0,0:0:0:0:
330,371,100174,5,2,3:2:0:0:
408,346,100351,1,10,0:2:0:0:
475,384,100527,1,2,0:2:0:0:
314,221,100704,5,6,3:2:0:0:
284,150,100880,5,2,0:2:0:0:
432,203,101057,1,2,3:2:0:0:
510,83,101233,1,14,0:2:0:0:
510,83,101586,5,2,3:2:0:0:
432,203,101762,1,10,0:2:0:0:
284,150,101939,1,2,0:2:0:0:
314,221,102115,5,6,3:2:0:0:
475,384,102292,5,2,0:2:0:0:
408,346,102468,1,2,3:2:0:0:
330,371,102645,1,14,0:2:0:0:
330,371,102998,5,2,3:2:0:0:
406,271,103175,1,14,0:2:0:0:
273,319,103351,1,2,3:2:0:0:
259,285,103440,1,0,3:0:0:0:
270,250,103528,1,12,0:2:0:0:
182,369,103704,5,0,3:0:0:0:
239,180,103880,1,12,0:2:0:0:
102,314,104057,5,0,3:0:0:0:
67,200,104233,1,8,0:3:0:0:
317,104,104410,5,4,0:3:0:0:
145,241,104586,1,0,3:0:0:0:
0,88,104763,2,0,B|40:63|74:92|74:92|93:145|175:120,1,160,4|8,3:2|0:3,0:0:0:0:
225,18,105292,5,8,0:3:0:0:
296,28,105468,1,0,3:2:0:0:
337,92,105645,5,8,0:3:0:0:
204,113,105821,1,8,0:3:0:0:
155,194,105998,5,4,0:3:0:0:
354,256,106174,2,0,P|361:298|343:352,1,80,8|0,0:2|3:0,0:0:0:0:
412,384,106527,1,0,3:0:0:0:
341,348,106704,2,0,L|295:348,1,40,8|0,0:0|0:0,0:0:0:0:
481,250,106880,5,0,3:0:0:0:
492,220,106968,1,0,3:0:0:0:
478,190,107057,2,0,B|453:126|510:144|475:48,1,120,4|0,3:2|0:0,0:0:0:0:
360,34,107410,6,0,P|402:64|405:100,1,80,4|0,3:2|0:0,0:0:0:0:
326,170,107763,6,0,P|336:148|337:127,1,40,4|0,3:2|0:0,0:0:0:0:
256,192,107939,12,0,111998,0:0:0:0:
