osu file format v14

[General]
AudioFilename: audio.mp3
AudioLeadIn: 0
PreviewTime:66027
Countdown: 0
SampleSet: Soft
StackLeniency: 0.4
Mode: 0
LetterboxInBreaks: 0
WidescreenStoryboard: 1

[Editor]
DistanceSpacing: 0.6
BeatDivisor: 8
GridSize: 4
TimelineZoom: 2.3

[Metadata]
Title:Hikari no destination
TitleUnicode:ヒカリのdestination
Artist:illumination STARS
ArtistUnicode:イルミネーションスターズ
Creator:Acylica
Version:Niva's Insane
Source:アイドルマスター シャイニーカラーズ
Tags:THE IDOLM@STER SHINY COLORS im@s imas アイマス シャニマス Shanimas BRILLI@NT WING 02 ヒカリのdestination 櫻木真乃 Sakuragi Mano 風野灯織 Kazano Hiori 八宮めぐる Hachimiya Meguru 峯田 茉優 Mineda Mayu 関根 瞳 Sekine Hitomi 近藤玲奈 Kondou Reina ioexception shizuku- niva senseabel heilia neoskylove affirmation af japanese female vocal idol video game pop jpop j-pop acyl
BeatmapID:2242784
BeatmapSetID:1062292

[Difficulty]
HPDrainRate:6
CircleSize:4.2
OverallDifficulty:7
ApproachRate:9
SliderMultiplier:1.4
SliderTickRate:1

[Events]
//Background and Video events
0,0,"stickbug.jpg"
//Break Periods
//Storyboard Layer 0 (Background)
//Storyboard Layer 1 (Fail)
//Storyboard Layer 2 (Pass)
//Storyboard Layer 3 (Foreground)
//Storyboard Layer 4 (Overlay)
//Storyboard Sound Samples

[TimingPoints]
469,352.941176470588,4,2,1,35,1,0
1174,-250,4,2,1,35,0,0
1880,-125,4,2,1,35,0,0
7174,-100,4,2,1,35,0,0
7527,-100,4,2,1,45,0,0
7880,-100,4,2,1,45,0,0
8939,-100,4,2,1,45,0,0
9292,-100,4,2,1,45,0,0
10351,-100,4,2,1,45,0,0
10704,-100,4,2,1,46,0,0
10880,-100,4,2,1,47,0,0
11057,-100,4,2,1,48,0,0
11233,-100,4,2,1,49,0,0
11410,-100,4,2,1,50,0,0
11586,-83.3333333333333,4,2,1,55,0,0
12468,-166.666666666667,4,2,1,55,0,0
12821,-125,4,2,1,55,0,0
13174,-90.9090909090909,4,2,1,55,0,0
14586,-125,4,2,1,55,0,0
15733,-100,4,2,1,55,0,0
15910,-83.3333333333333,4,2,1,55,0,0
15998,-83.3333333333333,4,2,1,60,0,0
26586,-83.3333333333333,4,2,1,58,0,0
26939,-90.9090909090909,4,2,1,55,0,0
27292,-100,4,2,1,45,0,0
27645,-111.111111111111,4,2,1,45,0,0
32586,-100,4,2,1,45,0,0
32939,-111.111111111111,4,2,1,45,0,0
38410,-100,4,2,1,45,0,0
38586,-90.9090909090909,4,2,1,58,0,0
49880,-90.9090909090909,4,2,1,55,0,0
50586,-166.666666666667,4,2,1,55,0,0
51116,-90.9090909090909,4,2,1,55,0,0
53410,-166.666666666667,4,2,1,55,0,0
53939,-90.9090909090909,4,2,1,55,0,0
55527,-111.111111111111,4,2,1,50,0,0
57998,-90.9090909090909,4,2,1,50,0,0
58351,-111.111111111111,4,2,1,50,0,0
58704,-111.111111111111,4,2,1,45,0,0
59057,-111.111111111111,4,2,1,55,0,0
59763,-100,4,2,1,55,0,0
60468,-90.9090909090909,4,2,1,55,0,0
66116,-90.9090909090909,4,2,1,55,0,0
66292,-90.9090909090909,4,2,1,55,0,0
66468,-90.9090909090909,4,2,1,55,0,0
66645,-90.9090909090909,4,2,1,55,0,0
66821,-80,4,2,1,80,0,1
78027,-80,4,2,1,80,0,0
78116,-80,4,2,1,80,0,1
93645,-142.857142857143,4,2,1,80,0,0
93998,-142.857142857143,4,2,1,60,0,0
94351,-125,4,2,1,60,0,0
94704,-111.111111111111,4,2,1,60,0,0
95057,-83.3333333333333,4,2,1,60,0,0
106174,-111.111111111111,4,2,1,60,0,0
106704,-111.111111111111,4,2,1,60,0,0
106880,-111.111111111111,4,2,1,60,0,0
107057,-83.3333333333333,4,2,1,60,0,0
107410,-100,4,2,1,58,0,0
107763,-166.666666666667,4,2,1,55,0,0
111998,-166.666666666667,4,2,1,55,0,0

[Colours]
Combo1 : 255,206,238
Combo2 : 200,244,183
Combo3 : 250,193,167

[HitObjects]
409,204,1174,6,0,L|405:176,3,28,2|0|0|0,0:2|0:0|0:2|0:0,0:0:0:0:
416,92,1880,6,0,P|413:141|409:203,1,112,6|2,0:2|0:0,0:0:0:0:
446,285,2410,2,0,P|401:255|337:261,1,112,2|2,0:2|0:0,0:0:0:0:
135,174,3116,2,0,P|191:167|250:160,1,112,2|0,0:2|0:0,0:0:0:0:
246,160,3645,6,0,P|237:136|254:140,1,56,2|0,0:2|0:0,0:0:0:0:
272,266,3998,2,0,P|255:286|250:269,1,56,2|0,0:2|0:0,0:0:0:0:
359,195,4351,2,0,P|384:199|372:211,1,56,2|0,0:2|0:0,0:0:0:0:
307,328,4704,6,0,P|256:304|200:313,1,112,2|2,0:2|0:0,0:0:0:0:
128,260,5233,2,0,P|71:262|17:264,1,112,2|2,0:2|0:2,0:0:0:0:
256,168,5939,2,0,P|317:166|377:164,1,112,2|2,0:2|0:2,0:0:0:0:
317,254,6468,1,2,0:0:0:0:
377,153,6645,2,0,P|319:155|264:157,1,112,2|0,0:2|0:0,0:0:0:0:
228,253,7174,6,0,B|253:262|270:282|270:282|285:262|312:248,1,105,2|0,0:2|0:0,0:0:0:0:
266,156,7527,5,6,3:2:0:0:
272,324,7880,1,0,3:0:0:0:
273,351,8586,1,0,3:0:0:0:
270,240,8939,5,6,3:2:0:0:
264,68,9292,1,0,3:0:0:0:
263,43,9998,1,0,3:0:0:0:
313,154,10351,6,0,B|272:150|272:150|251:160|251:160|210:156,1,105,6|0,3:2|0:0,0:0:0:0:
196,148,10704,5,0,3:0:0:0:
222,241,10880,1,0,3:0:0:0:
113,177,11057,5,0,3:0:0:0:
208,257,11233,1,0,3:0:0:0:
77,254,11410,5,0,3:0:0:0:
205,278,11586,2,0,B|251:292|285:265|285:265|318:238|366:252,1,167.999994873047,12|12,0:2|0:2,0:0:0:0:
273,152,12116,1,12,0:2:0:0:
273,152,12468,6,0,L|271:121,3,20.9999993591309,2|2|2|2,3:2|3:2|3:2|3:2,0:0:0:0:
194,160,12821,2,0,L|191:119,3,28,8|0|0|0,3:3|0:0|3:0|3:0,0:0:0:0:
106,171,13174,6,0,B|28:171,1,77.0000023498536,4|8,3:2|3:3,0:0:0:0:
8,150,13439,2,0,L|12:206,1,38.5000011749268,0|0,3:0|3:0,0:0:0:0:
0,290,13704,1,8,0:3:0:0:
90,332,13880,2,0,L|94:388,2,38.5000011749268,8|0|4,0:3|3:0|0:3,0:0:0:0:
166,273,14233,1,8,0:3:0:0:
166,273,14321,1,4,0:3:0:0:
166,273,14410,1,0,3:0:0:0:
122,176,14586,6,0,B|172:168|172:168|217:162|214:190|263:184|263:184|313:178,1,196,4|0,3:2|3:0,0:0:0:0:
343,148,15292,5,4,0:3:0:0:
344,166,15380,1,4,0:3:0:0:
349,183,15469,1,4,0:3:0:0:
353,201,15557,1,4,0:3:0:0:
358,220,15645,6,0,L|397:215,1,28,8|8,0:3|0:3,0:0:0:0:
470,153,15822,6,0,B|475:135|475:135|468:114,1,35,8|8,0:3|0:3,0:0:0:0:
385,43,15998,6,0,P|321:40|260:37,1,125.999996154785,6|0,3:2|0:0,0:0:0:0:
222,13,16351,2,0,P|234:53|252:107,1,83.9999974365235,10|0,0:2|0:0,0:0:0:0:
115,149,16704,1,2,3:2:0:0:
115,149,16880,2,0,P|102:108|90:68,1,83.9999974365235,2|8,3:2|0:2,0:0:0:0:
112,273,17233,6,0,P|147:250|193:247,1,83.9999974365235,6|0,3:2|0:0,0:0:0:0:
307,162,17586,2,0,P|269:161|231:125,1,83.9999974365235,2|8,3:2|0:2,0:0:0:0:
328,291,17939,2,0,B|391:282|391:282|428:301|428:301|491:291,1,167.999994873047,2|2,0:2|3:2,0:0:0:0:
391,204,18468,1,10,0:2:0:0:
388,367,18645,1,2,0:2:0:0:
416,278,18821,5,4,3:2:0:0:
416,278,19174,2,0,P|373:276|327:274,1,83.9999974365235,10|0,0:2|0:0,0:0:0:0:
195,311,19527,1,2,3:2:0:0:
195,311,19704,2,0,P|220:333|190:319,1,83.9999974365235,2|8,3:2|0:2,0:0:0:0:
74,373,20057,2,0,P|-5:357|-15:265,1,167.999994873047,6|2,3:2|3:2,0:0:0:0:
53,234,20586,5,8,0:2:0:0:
146,292,20763,1,2,0:2:0:0:
246,223,20939,1,0,3:0:0:0:
342,299,21116,5,2,3:2:0:0:
246,223,21292,1,10,0:2:0:0:
146,292,21468,2,0,L|99:289,1,41.9999987182618,2|0,3:2|3:0,0:0:0:0:
124,330,21645,6,0,P|126:287|129:240,2,83.9999974365235,6|2|2,3:2|0:2|3:2,0:0:0:0:
251,297,22174,2,0,B|297:285|326:318|326:318|356:351|405:338,1,167.999994873047,14|2,0:2|3:2,0:0:0:0:
504,280,22704,1,10,0:2:0:0:
393,232,22880,1,2,3:2:0:0:
395,219,22968,1,0,3:0:0:0:
398,205,23057,6,0,B|393:166|393:166|400:162|400:162|396:124,2,83.9999974365235,6|2|2,3:2|0:2|3:2,0:0:0:0:
508,182,23586,2,0,B|443:160|443:160|343:175,1,167.999994873047,14|2,0:2|3:2,0:0:0:0:
226,193,24116,1,14,0:2:0:0:
109,144,24292,1,2,3:2:0:0:
106,131,24380,1,0,3:0:0:0:
102,118,24468,6,0,P|63:108|71:71,1,83.9999974365235,12|0,0:2|3:0,0:0:0:0:
205,86,24821,2,0,P|247:84|292:82,1,83.9999974365235,12|0,0:2|3:0,0:0:0:0:
247,6,25174,5,8,0:3:0:0:
199,104,25351,1,4,0:3:0:0:
303,170,25527,1,0,3:0:0:0:
250,284,25704,2,0,B|210:340|254:387|254:387|249:357|268:333,1,167.999994873047,4|8,3:2|0:3,0:0:0:0:
146,349,26233,1,8,0:3:0:0:
36,361,26410,1,8,0:2:0:0:
19,363,26498,1,0,3:0:0:0:
3,366,26586,6,0,P|-28:311|4:258,1,125.999996154785,4|0,3:2|0:0,0:0:0:0:
71,221,26939,6,0,B|121:221|121:221|132:226|132:226|185:225,1,115.50000352478,4|0,3:2|0:0,0:0:0:0:
257,181,27292,6,0,P|273:147|251:175,1,105,6|0,3:2|0:0,0:0:0:0:
268,164,27645,2,0,B|299:178|327:164|327:164|353:151|390:163,1,125.999996154785,2|2,3:2|3:2,0:0:0:0:
467,233,28174,1,2,0:0:0:0:
467,233,28351,2,0,L|534:233,1,62.9999980773926,2|2,3:2|0:0,0:0:0:0:
477,355,28704,6,0,P|425:322|360:324,1,125.999996154785,2|2,3:2|3:2,0:0:0:0:
362,323,29233,2,0,P|383:354|386:392,1,62.9999980773926,2|0,0:0|3:0,0:0:0:0:
246,327,29586,2,0,P|237:363|210:391,1,62.9999980773926,2|4,0:0|0:3,0:0:0:0:
142,270,29939,1,2,3:2:0:0:
142,270,30027,1,0,3:0:0:0:
142,270,30116,2,0,P|110:291|55:291,1,94.499997116089,8|0,3:0|0:0,0:0:0:0:
41,316,30468,6,0,B|28:286|28:286|42:257,1,62.9999980773926,2|0,3:2|0:0,0:0:0:0:
175,291,30821,2,0,L|244:290,1,62.9999980773926,2|2,3:2|0:0,0:0:0:0:
118,356,31174,1,2,3:2:0:0:
118,218,31351,1,2,0:0:0:0:
11,177,31527,6,0,B|59:171|59:171|88:187|88:187|140:181,1,125.999996154785,2|2,3:2|3:2,0:0:0:0:
249,205,32057,1,2,0:0:0:0:
333,126,32233,2,0,L|335:89,3,31.4999990386963,4|0|2|4,0:3|3:0|3:2|3:3,0:0:0:0:
414,163,32586,2,0,L|417:114,3,35,8|0|2|2,0:3|3:0|3:0|3:0,0:0:0:0:
495,185,32939,6,0,P|461:183|494:198,1,94.499997116089,10|0,3:0|0:0,0:0:0:0:
491,202,33292,6,0,L|486:272,1,62.9999980773926,2|0,3:2|0:0,0:0:0:0:
349,227,33645,2,0,L|383:281,1,62.9999980773926,2|0,3:2|0:0,0:0:0:0:
262,338,33998,2,0,L|329:364,1,62.9999980773926,2|0,3:2|0:0,0:0:0:0:
148,376,34351,2,0,P|89:378|55:323,1,125.999996154785,2|0,3:2|0:0,0:0:0:0:
5,206,34880,6,0,P|63:210|132:214,1,125.999996154785,2|2,3:2|0:0,0:0:0:0:
231,241,35410,1,0,3:2:0:0:
330,270,35586,1,2,3:2:0:0:
347,272,35674,1,0,3:0:0:0:
364,274,35763,6,0,P|369:306|392:330,1,62.9999980773926,2|0,3:2|0:0,0:0:0:0:
297,177,36116,2,0,P|322:156|331:124,1,62.9999980773926,2|0,3:2|0:0,0:0:0:0:
246,283,36468,2,0,P|215:271|183:279,1,62.9999980773926,2|0,3:2|0:0,0:0:0:0:
306,185,36821,2,0,P|331:164|340:132,1,62.9999980773926,2|0,3:2|0:0,0:0:0:0:
371,300,37174,6,0,P|384:343|439:365,1,94.499997116089,2|0,3:2|0:0,0:0:0:0:
438,351,37527,5,0,3:0:0:0:
332,357,37704,1,2,0:2:0:0:
225,365,37880,1,8,0:3:0:0:
206,367,37968,1,4,0:3:0:0:
187,368,38057,1,2,3:2:0:0:
168,369,38145,1,2,3:2:0:0:
140,384,38233,6,0,L|135:339,1,31.4999990386963,8|0,0:3|3:0,0:0:0:0:
46,315,38410,6,0,L|71:289,1,35,2|2,3:0|3:3,0:0:0:0:
43,205,38586,6,0,P|86:241|150:237,1,115.50000352478,4|0,3:2|0:0,0:0:0:0:
158,261,38939,2,0,B|167:216|167:216|197:222,1,77.0000023498536,10|0,0:2|0:0,0:0:0:0:
293,257,39292,1,2,3:2:0:0:
362,182,39468,1,2,3:2:0:0:
319,94,39645,2,0,P|325:58|332:16,1,77.0000023498536,10|2,0:2|0:2,0:0:0:0:
427,142,39998,6,0,P|348:140|263:138,1,154.000004699707,2|10,3:2|0:2,0:0:0:0:
184,218,40527,2,0,B|190:238|188:257|188:257|201:242|223:237,1,77.0000023498536,2|0,0:0|3:0,0:0:0:0:
258,128,40880,5,2,3:2:0:0:
236,246,41057,1,8,0:2:0:0:
213,362,41233,1,2,3:2:0:0:
224,355,41321,1,0,3:0:0:0:
236,348,41410,6,0,B|179:348|179:348|156:366|123:360,1,115.50000352478,2|0,3:2|0:0,0:0:0:0:
97,384,41763,2,0,P|95:347|93:302,1,77.0000023498536,10|0,0:2|0:0,0:0:0:0:
26,214,42116,1,2,3:2:0:0:
91,119,42292,1,2,3:2:0:0:
198,160,42468,2,0,P|229:153|208:132,1,77.0000023498536,10|2,0:2|0:0,0:0:0:0:
128,250,42821,6,0,P|192:212|266:231,1,154.000004699707,2|10,3:2|0:2,0:0:0:0:
375,194,43351,1,2,3:2:0:0:
377,184,43439,1,0,3:0:0:0:
380,174,43527,2,0,L|387:136,1,38.5000011749268,0|0,3:0|0:0,0:0:0:0:
279,120,43704,2,0,L|288:77,1,38.5000011749268,2|0,3:2|0:0,0:0:0:0:
368,157,43880,6,0,L|375:119,1,38.5000011749268,8|0,0:2|0:0,0:0:0:0:
267,103,44057,2,0,L|276:60,1,38.5000011749268,2|0,0:0|0:0,0:0:0:0:
149,59,44233,6,0,P|92:47|36:36,1,115.50000352478,4|0,3:2|0:0,0:0:0:0:
35,35,44586,2,0,P|72:24|112:12,1,77.0000023498536,10|0,0:2|0:0,0:0:0:0:
108,140,44939,2,0,P|118:173|133:220,1,77.0000023498536,2|2,3:2|3:2,0:0:0:0:
212,360,45292,2,0,P|172:321|108:319,1,115.50000352478,10|0,0:2|0:0,0:0:0:0:
69,298,45645,6,0,B|139:295|139:295|152:301|152:301|228:297,1,154.000004699707,2|8,3:2|0:2,0:0:0:0:
336,363,46174,2,0,B|376:339|376:339|452:353,1,115.50000352478,2|0,0:0|0:0,0:0:0:0:
416,382,46527,5,2,3:2:0:0:
398,258,46704,1,10,0:2:0:0:
381,147,46880,1,2,3:2:0:0:
379,134,46968,1,0,3:0:0:0:
377,120,47057,6,0,B|365:29|365:29|385:55,1,115.50000352478,6|0,3:2|0:0,0:0:0:0:
405,84,47410,1,2,3:2:0:0:
261,63,47586,2,0,P|221:57|185:52,1,77.0000023498536,14|0,0:2|0:0,0:0:0:0:
88,157,47939,5,2,3:2:0:0:
206,142,48116,1,8,0:2:0:0:
59,136,48292,1,2,3:2:0:0:
62,155,48380,1,0,3:0:0:0:
65,175,48468,5,4,3:2:0:0:
28,266,48645,1,0,3:0:0:0:
104,337,48821,1,0,3:0:0:0:
189,281,48998,1,8,0:2:0:0:
167,186,49174,6,0,B|150:224|150:224|169:266,1,77.0000023498536,0|0,3:0|3:0,0:0:0:0:
297,373,49527,2,0,B|314:335|314:335|295:293,1,77.0000023498536,4|8,3:3|3:3,0:0:0:0:
286,310,49792,1,0,3:0:0:0:
272,317,49880,5,6,3:2:0:0:
392,299,50057,1,2,3:2:0:0:
512,281,50233,1,2,3:2:0:0:
512,281,50763,6,0,P|511:256|501:277,1,62.9999980773926,12|0,0:2|0:0,0:0:0:0:
490,367,51116,6,0,P|482:292|474:214,1,154.000004699707,12|4,0:2|0:3,0:0:0:0:
321,213,51645,2,0,P|345:244|385:247,1,77.0000023498536,8|8,0:3|0:3,0:0:0:0:
455,111,51998,2,0,P|416:116|393:149,1,77.0000023498536,8|4,0:3|0:3,0:0:0:0:
373,29,52351,1,8,0:3:0:0:
367,16,52439,1,4,0:3:0:0:
362,2,52527,1,4,0:3:0:0:
456,18,52704,5,6,3:2:0:0:
332,13,52880,1,2,3:2:0:0:
208,8,53057,1,2,3:2:0:0:
208,8,53586,2,0,P|181:6|205:-4,1,62.9999980773926,12|0,0:2|0:0,0:0:0:0:
209,95,53939,6,0,P|217:169|226:251,1,154.000004699707,12|4,0:2|0:3,0:0:0:0:
257,377,54468,2,0,P|227:352|183:355,1,77.0000023498536,8|4,0:3|0:3,0:0:0:0:
178,355,54733,1,4,0:3:0:0:
166,362,54821,1,4,0:3:0:0:
214,298,54998,1,8,0:3:0:0:
314,280,55174,1,4,0:3:0:0:
414,311,55351,1,0,3:0:0:0:
487,384,55527,6,0,P|539:316|496:231,1,188.999994232178,4|0,3:2|3:0,0:0:0:0:
411,198,56233,2,0,B|361:204|361:204|337:192|337:192|289:198,1,125.999996154785,8|2,0:2|0:0,0:0:0:0:
180,244,56763,6,0,L|170:181,1,62.9999980773926,2|2,3:2|0:0,0:0:0:0:
85,225,57116,1,0,3:0:0:0:
184,271,57292,1,8,0:2:0:0:
99,333,57468,1,0,3:0:0:0:
101,348,57557,1,0,3:0:0:0:
103,363,57645,5,8,0:2:0:0:
85,225,57821,1,0,3:0:0:0:
221,279,57998,2,0,P|279:286|319:242,1,115.50000352478,4|0,3:2|0:0,0:0:0:0:
301,297,58351,6,0,B|270:115|270:115|293:158,1,220.499993270874,4|0,3:2|0:0,0:0:0:0:
286,146,59057,6,0,P|252:144|219:142,1,62.9999980773926,0|0,3:0|3:0,0:0:0:0:
380,186,59410,2,0,P|414:188|447:190,1,62.9999980773926,0|0,3:0|3:0,0:0:0:0:
392,76,59763,6,0,P|395:111|399:154,1,70,4|0,3:2|3:0,0:0:0:0:
272,189,60116,2,0,P|275:224|279:267,1,70,0|0,3:0|3:0,0:0:0:0:
316,379,60468,5,0,3:0:0:0:
267,299,60645,1,0,3:0:0:0:
161,275,60821,1,8,0:2:0:0:
55,307,60998,1,0,3:0:0:0:
54,319,61086,1,0,3:0:0:0:
52,332,61174,6,0,P|27:310|-14:313,1,77.0000023498536,12|0,0:2|3:0,0:0:0:0:
116,192,61527,1,0,3:0:0:0:
133,260,61704,6,0,P|139:226|116:192,1,77.0000023498536,12|0,0:2|3:0,0:0:0:0:
299,220,62057,1,0,3:0:0:0:
249,269,62233,6,0,P|281:258|299:221,1,77.0000023498536,12|0,0:2|3:0,0:0:0:0:
373,381,62586,1,0,3:0:0:0:
307,362,62763,6,0,P|332:384|373:381,1,77.0000023498536,12|0,0:2|3:0,0:0:0:0:
249,269,63116,1,0,3:0:0:0:
133,260,63292,1,12,0:2:0:0:
131,243,63380,1,0,3:0:0:0:
129,227,63468,1,0,3:0:0:0:
127,211,63557,1,0,3:0:0:0:
126,195,63645,6,0,L|120:146,1,38.5000011749268,12|0,0:2|0:0,0:0:0:0:
226,151,63821,6,0,L|222:111,1,38.5000011749268,0|0,3:0|0:0,0:0:0:0:
328,116,63998,5,8,0:2:0:0:
193,75,64174,1,4,3:2:0:0:
179,182,64527,5,12,0:2:0:0:
328,116,64704,1,4,3:2:0:0:
337,237,65057,5,12,0:2:0:0:
179,182,65233,2,0,P|254:169|330:155,1,154.000004699707,12|8,0:2|0:3,0:0:0:0:
447,196,65763,2,0,P|476:249|447:295,1,115.50000352478,4|0,0:3|0:0,0:0:0:0:
417,315,66116,5,2,3:2:0:0:
426,223,66292,1,2,3:2:0:0:
436,121,66468,1,2,3:2:0:0:
444,12,66645,1,2,3:2:0:0:
449,25,66733,1,2,3:2:0:0:
456,39,66821,6,0,B|408:33|408:33|377:46|377:46|329:40,1,131.25,4|0,3:2|0:0,0:0:0:0:
296,8,67174,1,10,0:2:0:0:
192,103,67351,2,0,P|181:134|205:110,1,87.5,2|0,0:2|3:0,0:0:0:0:
64,60,67704,2,0,P|18:60|-24:60,1,87.5,2|8,3:2|0:2,0:0:0:0:
92,216,68057,6,0,P|142:161|235:171,1,175,6|0,3:2|3:0,0:0:0:0:
235,171,68586,2,0,B|241:138|241:138|186:130,1,87.5,10|0,0:2|0:0,0:0:0:0:
67,215,68939,2,0,B|61:248|61:248|116:256,1,87.5,2|0,3:2|3:0,0:0:0:0:
186,371,69292,1,10,0:2:0:0:
323,302,69468,1,0,0:0:0:0:
323,302,69557,1,0,0:0:0:0:
323,302,69645,6,0,B|286:314|259:296|259:296|231:278|197:289,1,131.25,4|0,3:2|0:0,0:0:0:0:
221,326,69998,1,8,0:2:0:0:
290,206,70174,2,0,P|287:165|283:116,1,87.5,2|0,0:2|3:0,0:0:0:0:
405,307,70527,2,0,P|446:304|495:300,1,87.5,2|8,3:2|0:2,0:0:0:0:
430,179,70880,6,0,P|366:239|301:301,1,175,6|2,3:2|3:2,0:0:0:0:
194,311,71410,1,10,0:2:0:0:
325,337,71586,1,0,3:0:0:0:
253,384,71763,5,0,3:0:0:0:
292,261,71939,1,0,3:0:0:0:
253,148,72116,1,8,0:2:0:0:
157,90,72292,1,2,3:2:0:0:
141,86,72380,1,0,3:0:0:0:
128,80,72468,6,0,P|172:82|210:57,1,87.5,4|2,3:2|3:2,0:0:0:0:
327,175,72821,2,0,P|291:154|247:155,1,87.5,8|2,0:2|0:0,0:0:0:0:
218,17,73174,5,0,3:0:0:0:
228,110,73351,1,2,3:2:0:0:
320,102,73527,1,8,0:2:0:0:
309,9,73704,6,0,P|305:104|301:201,1,175,6|2,3:2|3:2,0:0:0:0:
276,307,74233,2,0,B|291:323|297:346|297:346|305:326|322:307,1,87.5,8|2,0:2|0:2,0:0:0:0:
402,274,74586,5,0,3:0:0:0:
287,290,74763,1,2,3:2:0:0:
168,308,74939,1,8,0:2:0:0:
108,188,75116,1,2,3:2:0:0:
108,188,75204,1,0,3:0:0:0:
108,188,75292,6,0,P|153:192|198:195,1,87.5,4|2,3:2|0:0,0:0:0:0:
118,80,75645,1,8,0:2:0:0:
64,204,75821,2,0,P|127:199|197:194,1,131.25,2|0,0:2|0:0,0:0:0:0:
230,170,76174,1,2,3:2:0:0:
192,286,76351,1,8,0:2:0:0:
306,372,76527,6,0,P|393:375|438:297,1,175,4|0,3:2|3:0,0:0:0:0:
349,217,77057,2,0,P|331:255|348:295,1,87.5,8|0,0:2|3:0,0:0:0:0:
459,220,77410,5,2,3:2:0:0:
347,294,77586,1,0,3:0:0:0:
222,255,77763,1,10,0:2:0:0:
205,255,77851,1,8,0:3:0:0:
188,255,77939,2,0,L|145:255,1,43.75,4|4,0:3|0:3,0:0:0:0:
54,294,78116,6,0,B|35:253|35:253|55:211,2,87.5,4|2|10,3:2|0:0|0:2,0:0:0:0:
161,384,78645,2,0,P|154:353|148:384,1,87.5,2|0,0:2|0:0,0:0:0:0:
276,311,78998,2,0,P|282:342|288:311,1,87.5,2|8,3:2|0:2,0:0:0:0:
399,336,79351,6,0,B|467:336|467:336|501:358|501:358|530:335|504:294,1,175,6|0,3:2|3:0,0:0:0:0:
506,298,79880,2,0,P|493:344|483:384,1,87.5,10|0,0:2|3:0,0:0:0:0:
396,236,80233,2,0,P|379:199|399:157,1,87.5,2|0,3:2|3:0,0:0:0:0:
485,211,80586,1,10,0:2:0:0:
398,345,80763,1,0,3:0:0:0:
398,345,80851,1,0,3:0:0:0:
398,345,80939,6,0,B|350:339|350:339|318:354|318:354|270:348,1,131.25,4|0,3:2|0:0,0:0:0:0:
285,328,81292,1,4,0:3:0:0:
157,336,81468,1,14,0:2:0:0:
410,318,81821,1,14,0:2:0:0:
157,336,82174,6,0,P|75:303|89:218,1,175,14|2,0:2|3:2,0:0:0:0:
183,135,82704,5,10,0:2:0:0:
310,164,82880,1,2,3:2:0:0:
181,227,83057,5,10,0:2:0:0:
308,256,83233,1,0,3:0:0:0:
325,262,83321,1,0,3:0:0:0:
342,268,83410,2,0,L|388:282,2,43.75,8|4|0,0:3|0:3|3:0,0:0:0:0:
443,163,83763,6,0,P|425:125|444:86,2,87.5,4|2|0,3:2|0:0|3:0,0:0:0:0:
330,222,84292,2,0,P|354:256|397:261,1,87.5,12|0,0:2|0:0,0:0:0:0:
394,384,84645,2,0,P|437:381|462:347,1,87.5,0|8,3:0|0:2,0:0:0:0:
298,350,84998,5,4,3:2:0:0:
489,250,85351,1,4,3:2:0:0:
248,190,85704,2,0,B|163:165|163:165|202:143,1,131.25,4|0,3:2|0:0,0:0:0:0:
198,134,86057,5,0,3:0:0:0:
217,261,86233,1,8,0:2:0:0:
235,372,86410,1,2,3:2:0:0:
243,361,86498,1,0,3:0:0:0:
251,351,86586,6,0,P|185:332|123:315,1,131.25,4|0,3:2|0:0,0:0:0:0:
91,337,86939,1,8,0:2:0:0:
91,337,87116,2,0,P|132:349|170:328,1,87.5,2|0,0:0|3:0,0:0:0:0:
120,227,87468,1,2,3:2:0:0:
235,190,87645,1,8,0:2:0:0:
280,327,87821,1,2,3:2:0:0:
274,341,87910,1,0,3:0:0:0:
269,355,87998,6,0,P|328:330|399:339,1,131.25,6|0,3:2|0:0,0:0:0:0:
434,353,88351,1,8,0:2:0:0:
322,291,88527,2,0,P|315:248|308:202,1,87.5,2|0,0:2|3:0,0:0:0:0:
210,241,88880,1,2,3:2:0:0:
210,241,89057,1,8,0:2:0:0:
392,173,89233,1,2,3:2:0:0:
411,168,89321,1,0,3:0:0:0:
430,162,89410,6,0,P|435:105|366:79,1,131.25,4|0,3:2|0:0,0:0:0:0:
392,46,89763,1,8,0:2:0:0:
263,28,89939,2,0,B|246:68|246:68|264:110,1,87.5,2|0,0:2|3:0,0:0:0:0:
206,197,90292,1,2,3:2:0:0:
309,248,90468,1,8,0:2:0:0:
193,349,90645,6,0,B|305:341|305:341|326:360|358:373,1,175,6|0,3:2|3:0,0:0:0:0:
241,384,91174,2,0,P|235:311|229:240,1,131.25,12|0,0:2|0:0,0:0:0:0:
209,218,91527,5,0,3:0:0:0:
239,236,91616,1,0,3:0:0:0:
274,232,91704,1,0,3:0:0:0:
301,210,91792,1,0,3:0:0:0:
308,175,91880,6,0,L|312:129,1,43.75,8|0,0:2|0:0,0:0:0:0:
401,231,92057,2,0,L|396:283,1,43.75,0|0,3:0|3:0,0:0:0:0:
427,380,92233,6,0,P|382:373|336:367,1,87.5,4|4,3:2|0:3,0:0:0:0:
319,377,92498,1,8,0:3:0:0:
298,384,92586,2,0,P|263:360|217:364,1,87.5,0|0,3:0|3:0,0:0:0:0:
115,276,92939,1,4,0:3:0:0:
115,276,93027,1,8,0:3:0:0:
115,276,93116,1,0,3:0:0:0:
207,182,93292,1,8,0:2:0:0:
183,173,93380,1,8,0:2:0:0:
161,165,93468,1,8,0:3:0:0:
180,148,93557,1,4,0:3:0:0:
196,133,93645,6,0,P|202:215|208:308,1,171.499994766236,4|2,3:2|3:2,0:0:0:0:
194,318,94351,6,0,L|189:273,1,28,2|2,3:0|3:0,0:0:0:0:
299,250,94527,2,0,L|297:280,1,28,2|2,3:0|3:0,0:0:0:0:
178,184,94704,6,0,L|175:150,1,31.4999990386963,8|8,0:0|0:0,0:0:0:0:
310,111,94880,2,0,L|308:149,1,31.4999990386963,8|8,0:0|0:0,0:0:0:0:
162,29,95057,6,0,B|90:54|90:54|40:38,1,125.999996154785,4|0,3:2|0:0,0:0:0:0:
21,3,95410,2,0,P|43:45|31:83,1,83.9999974365235,10|0,0:2|0:0,0:0:0:0:
76,192,95763,1,2,3:2:0:0:
76,192,95939,2,0,P|33:188|-8:184,1,83.9999974365235,2|8,3:2|0:2,0:0:0:0:
204,217,96292,6,0,P|236:207|206:194,1,83.9999974365235,6|0,3:2|0:0,0:0:0:0:
355,215,96645,2,0,P|398:219|439:223,1,83.9999974365235,2|8,3:2|0:2,0:0:0:0:
512,328,96998,2,0,P|461:382|377:364,1,167.999994873047,2|2,0:2|3:2,0:0:0:0:
295,306,97527,1,10,0:2:0:0:
194,288,97704,1,2,0:2:0:0:
89,315,97880,5,4,3:2:0:0:
89,315,98233,2,0,P|128:320|174:326,1,83.9999974365235,10|0,0:2|0:0,0:0:0:0:
305,254,98586,1,2,3:2:0:0:
305,254,98763,2,0,B|284:241|273:223|273:223|265:243|250:264,1,83.9999974365235,2|8,3:2|0:2,0:0:0:0:
402,347,99116,6,0,P|468:335|481:242,1,167.999994873047,6|2,3:2|3:2,0:0:0:0:
379,160,99645,5,8,0:2:0:0:
454,258,99821,1,2,0:2:0:0:
504,142,99998,1,0,3:0:0:0:
451,245,100174,5,2,3:2:0:0:
493,150,100351,1,10,0:2:0:0:
391,163,100527,2,0,L|345:159,1,41.9999987182618,2|0,3:2|3:0,0:0:0:0:
369,198,100704,6,0,P|364:153|359:107,2,83.9999974365235,6|2|2,3:2|0:2|3:2,0:0:0:0:
406,318,101233,2,0,B|317:312|317:312|287:334|242:320,1,167.999994873047,14|2,0:2|3:2,0:0:0:0:
157,219,101763,1,10,0:2:0:0:
276,167,101939,1,2,3:2:0:0:
270,152,102027,1,0,3:0:0:0:
263,135,102116,6,0,B|305:143|305:143|340:120,2,83.9999974365235,6|2|2,3:2|0:2|3:2,0:0:0:0:
483,157,102645,2,0,P|429:109|330:127,1,167.999994873047,14|2,0:2|3:2,0:0:0:0:
281,11,103174,1,14,0:2:0:0:
168,56,103351,1,2,3:2:0:0:
153,64,103439,1,0,3:0:0:0:
138,73,103527,6,0,P|166:102|211:95,1,83.9999974365235,12|0,0:2|3:0,0:0:0:0:
121,210,103880,2,0,P|105:252|89:293,1,83.9999974365235,12|0,0:2|3:0,0:0:0:0:
9,215,104233,5,8,0:3:0:0:
110,195,104410,1,4,0:3:0:0:
225,170,104586,1,0,3:0:0:0:
351,143,104763,2,0,B|468:115|468:115|448:137|439:166,1,167.999994873047,4|8,3:2|0:3,0:0:0:0:
413,45,105292,5,8,0:3:0:0:
442,155,105468,1,0,3:2:0:0:
310,71,105645,5,8,0:3:0:0:
431,173,105821,1,8,0:3:0:0:
246,153,105998,5,4,0:3:0:0:
427,197,106174,2,0,P|433:242|440:293,1,94.499997116089,8|0,0:2|0:0,0:0:0:0:
461,325,106527,2,0,P|436:323|456:309,1,62.9999980773926,0|8,3:0|0:0,0:0:0:0:
337,361,106880,1,0,3:0:0:0:
343,372,106968,1,0,3:0:0:0:
350,383,107057,6,0,B|312:391|289:369|289:369|265:347|230:354,1,125.999996154785,4|0,3:2|0:0,0:0:0:0:
167,317,107410,6,0,B|221:324|221:324|261:281,1,105,4|0,3:2|0:0,0:0:0:0:
188,224,107763,5,4,3:2:0:0:
256,192,107851,12,0,111998,0:0:0:0:
