osu file format v14

[General]
AudioFilename: audio.mp3
AudioLeadIn: 0
PreviewTime: 66027
Countdown: 0
SampleSet: Soft
StackLeniency: 0.7
Mode: 0
LetterboxInBreaks: 0
WidescreenStoryboard: 0

[Editor]
DistanceSpacing: 1
BeatDivisor: 4
GridSize: 4
TimelineZoom: 2.3

[Metadata]
Title:Hikari no destination
TitleUnicode:ヒカリのdestination
Artist:illumination STARS
ArtistUnicode:イルミネーションスターズ
Creator:Acylica
Version:M@ster
Source:アイドルマスター シャイニーカラーズ
Tags:THE IDOLM@STER SHINY COLORS im@s imas アイマス シャニマス Shanimas BRILLI@NT WING 02 ヒカリのdestination 櫻木真乃 Sakuragi Mano 風野灯織 Kazano Hiori 八宮めぐる Hachimiya Meguru 峯田 茉優 Mineda Mayu 関根 瞳 Sekine Hitomi 近藤玲奈 Kondou Reina ioexception shizuku- niva senseabel heilia neoskylove affirmation af japanese female vocal idol video game pop jpop j-pop acyl
BeatmapID:2224379
BeatmapSetID:1062292

[Difficulty]
HPDrainRate:6
CircleSize:4
OverallDifficulty:9
ApproachRate:9.3
SliderMultiplier:1.8
SliderTickRate:1

[Events]
//Background and Video events
0,0,"stickbug.jpg",0,0
//Break Periods
//Storyboard Layer 0 (Background)
//Storyboard Layer 1 (Fail)
//Storyboard Layer 2 (Pass)
//Storyboard Layer 3 (Foreground)
//Storyboard Layer 4 (Overlay)
//Storyboard Sound Samples

[TimingPoints]
469,352.941176470588,4,2,1,35,1,0
7527,-100,4,2,1,45,0,0
10704,-100,4,2,1,46,0,0
10880,-100,4,2,1,47,0,0
11057,-100,4,2,1,48,0,0
11233,-100,4,2,1,49,0,0
11410,-100,4,2,1,50,0,0
11586,-100,4,2,1,55,0,0
15998,-100,4,2,1,60,0,0
26586,-100,4,2,1,58,0,0
26939,-100,4,2,1,55,0,0
27292,-133.333333333333,4,2,1,45,0,0
38586,-100,4,2,1,58,0,0
49880,-100,4,2,1,55,0,0
55527,-133.333333333333,4,2,1,50,0,0
58704,-133.333333333333,4,2,1,45,0,0
59057,-133.333333333333,4,2,1,55,0,0
61174,-100,4,2,1,55,0,0
66116,-66.6666666666667,4,2,1,55,0,0
66204,-57.1428571428571,4,2,1,55,0,0
66292,-50,4,2,1,55,0,0
66380,-44.4444444444445,4,2,1,55,0,0
66645,-66.6666666666667,4,2,1,55,0,0
66821,-50,4,2,1,80,0,1
68939,-100,4,2,1,80,0,1
69292,-66.6666666666667,4,2,1,80,0,1
69645,-50,4,2,1,80,0,1
71233,-100,4,2,1,80,0,1
71586,-57.1428571428571,4,2,1,80,0,1
71939,-66.6666666666667,4,2,1,80,0,1
72292,-66.6666666666667,4,2,1,80,0,0
72468,-100,4,2,1,80,0,0
76351,-66.6666666666667,4,2,1,80,0,0
76527,-50,4,2,1,80,0,0
77057,-44.4444444444445,4,2,1,80,0,0
77233,-40,4,2,1,80,0,0
77763,-66.6666666666667,4,2,1,80,0,0
78116,-50,4,2,1,80,0,1
78468,-66.6666666666667,4,2,1,80,0,1
78645,-50,4,2,1,80,0,1
80233,-100,4,2,1,80,0,1
80586,-66.6666666666667,4,2,1,80,0,1
80939,-100,4,2,1,80,0,1
81468,-44.4444444444445,4,2,1,80,0,1
81821,-133.333333333333,4,2,1,80,0,1
82174,-44.4444444444445,4,2,1,80,0,1
82704,-100,4,2,1,80,0,1
83763,-100,4,2,1,80,0,0
90645,-133.333333333333,4,2,1,80,0,0
91174,-66.6666666666667,4,2,1,80,0,0
91527,-100,4,2,1,80,0,0
93998,-100,4,2,1,60,0,0
95057,-50,4,2,1,60,0,0
95410,-133.333333333333,4,2,1,60,0,0
96292,-66.6666666666667,4,2,1,60,0,0
96645,-100,4,2,1,60,0,0
97880,-80,4,2,1,60,0,0
98233,-133.333333333333,4,2,1,60,0,0
99116,-100,4,2,1,60,0,0
99645,-133.333333333333,4,2,1,60,0,0
104410,-100,4,2,1,60,0,0
107057,-133.333333333333,4,2,1,60,0,0
107410,-133.333333333333,4,2,1,58,0,0
107763,-133.333333333333,4,2,1,55,0,0
111998,-133.333333333333,4,2,1,55,0,0

[Colours]
Combo1 : 255,206,238
Combo2 : 200,244,183
Combo3 : 250,193,167

[HitObjects]
171,344,1175,5,2,0:2:0:0:
252,374,1351,1,0,0:0:0:0:
156,267,1528,1,0,0:2:0:0:
98,384,1704,1,0,0:0:0:0:
316,257,1880,5,6,0:2:0:0:
252,374,2057,2,0,P|248:324|236:258,1,90,2|2,0:2|0:0,0:0:0:0:
363,201,2410,2,0,B|378:163|330:112|325:140|280:95|305:28,1,180,2|2,0:2|0:0,0:0:0:0:
300,43,3116,6,0,P|179:28|97:18,1,180,2|0,0:2|0:0,0:0:0:0:
68,79,3645,2,0,P|105:168|203:132,2,180,2|2|2,0:2|0:2|0:2,0:0:0:0:
282,191,4704,6,0,P|297:139|321:12,1,180,2|2,0:2|0:0,0:0:0:0:
238,51,5233,2,0,P|202:29|144:37,1,90,2|0,0:2|0:0,0:0:0:0:
87,2,5586,1,2,0:2:0:0:
292,140,5939,6,0,L|498:124,1,180,2|2,0:2|0:2,0:0:0:0:
512,193,6469,1,2,0:0:0:0:
469,259,6645,6,0,P|465:305|346:317,1,180,2|0,0:2|0:0,0:0:0:0:
284,380,7175,2,0,P|271:325|254:271,1,90,2|2,0:2|0:0,0:0:0:0:
180,139,7528,5,6,3:2:0:0:
54,237,7704,1,2,0:2:0:0:
128,332,7880,2,0,P|146:256|157:209,1,90,0|2,3:0|0:2,0:0:0:0:
128,73,8233,1,0,0:0:0:0:
336,156,8410,2,0,P|272:175|207:192,1,90,2|0,0:2|3:0,0:0:0:0:
93,159,8763,1,2,3:2:0:0:
100,166,8851,1,2,3:2:0:0:
105,172,8939,5,6,3:2:0:0:
206,335,9116,1,2,0:2:0:0:
337,297,9292,2,0,P|284:284|221:269,1,90,0|2,3:0|0:2,0:0:0:0:
125,331,9645,1,0,0:0:0:0:
105,172,9822,2,0,P|92:225|77:288,1,90,2|0,0:2|3:0,0:0:0:0:
185,250,10175,1,2,3:2:0:0:
183,238,10263,1,2,3:2:0:0:
180,226,10351,5,6,3:2:0:0:
43,324,10528,1,0,3:0:0:0:
219,160,10704,5,0,3:0:0:0:
380,230,10880,1,0,3:0:0:0:
238,42,11057,5,0,3:0:0:0:
103,256,11233,1,0,3:0:0:0:
282,217,11410,1,0,3:0:0:0:
65,88,11586,1,12,0:2:0:0:
317,110,11763,5,0,3:0:0:0:
317,110,11851,1,0,3:0:0:0:
317,110,11939,1,12,0:2:0:0:
191,313,12116,2,0,P|180:260|167:205,1,90,12|0,0:2|0:0,0:0:0:0:
237,57,12469,6,0,L|228:0,4,45,2|2|2|2|8,3:2|3:2|3:2|3:2|3:3,0:0:0:0:
335,202,12998,1,0,3:0:0:0:
335,202,13086,1,0,3:0:0:0:
335,202,13175,2,0,L|324:317,1,90,4|8,3:2|0:3,0:0:0:0:
266,351,13528,5,0,3:0:0:0:
468,260,13704,2,0,L|405:261,1,45,8|0,0:3|0:0,0:0:0:0:
187,161,13880,1,8,0:3:0:0:
342,380,14057,1,4,0:3:0:0:
484,164,14233,1,8,0:3:0:0:
493,145,14322,1,4,0:3:0:0:
496,123,14410,1,0,3:0:0:0:
272,29,14586,5,4,3:2:0:0:
341,143,14763,2,0,L|358:217,1,45,0|0,3:0|3:0,0:0:0:0:
400,61,14939,2,0,L|409:-3,1,45,2|2,3:0|3:0,0:0:0:0:
242,215,15116,2,0,L|259:289,1,45,2|0,3:0|3:0,0:0:0:0:
154,61,15292,5,4,0:3:0:0:
146,58,15380,1,4,0:3:0:0:
140,54,15469,2,0,L|63:48,1,45,4|4,0:3|0:3,0:0:0:0:
344,140,15645,2,0,L|388:131,3,45,8|8|8|8,0:3|0:3|0:3|0:3,0:0:0:0:
57,252,15998,5,6,3:2:0:0:
396,384,16351,2,0,P|416:340|401:285,1,90,10|0,0:2|0:0,0:0:0:0:
216,210,16704,1,2,3:2:0:0:
308,75,16880,2,0,P|274:104|266:147,1,90,2|8,3:2|0:2,0:0:0:0:
339,329,17233,6,0,L|154:364,1,180,6|2,3:2|3:2,0:0:0:0:
25,126,17763,1,8,0:2:0:0:
75,265,17939,2,0,L|89:148,1,90,2|0,0:2|3:0,0:0:0:0:
273,15,18292,1,2,3:2:0:0:
189,143,18469,2,0,L|207:23,1,90,10|2,0:2|0:2,0:0:0:0:
49,0,18821,5,4,3:2:0:0:
407,177,19174,1,10,0:2:0:0:
216,253,19351,1,0,0:0:0:0:
353,368,19528,2,0,P|354:333|393:255,1,90,2|2,3:2|3:2,0:0:0:0:
251,131,19880,1,8,0:2:0:0:
375,7,20057,6,0,P|340:102|311:192,1,180,6|2,3:2|3:2,0:0:0:0:
216,305,20586,1,8,0:2:0:0:
384,294,20763,2,0,P|343:312|306:337,1,90,2|0,0:2|3:0,0:0:0:0:
98,134,21116,1,2,3:2:0:0:
185,60,21292,2,0,L|172:141,3,45,10|0|2|0,0:2|3:0|3:2|3:0,0:0:0:0:
166,190,21645,5,6,3:2:0:0:
25,36,21822,1,2,0:2:0:0:
250,154,21998,1,2,3:2:0:0:
108,317,22175,2,0,P|103:264|88:212,1,90,14|0,0:2|0:0,0:0:0:0:
30,178,22528,5,2,3:2:0:0:
271,384,22704,1,10,0:2:0:0:
512,258,22880,1,2,0:2:0:0:
470,178,23057,5,6,3:2:0:0:
357,369,23233,2,0,L|340:263,1,90,2|2,0:2|3:2,0:0:0:0:
173,1,23586,6,0,B|144:46|168:101|189:83|207:124|173:199,1,180,14|2,0:2|3:2,0:0:0:0:
104,221,24116,1,14,0:2:0:0:
285,80,24292,1,2,3:2:0:0:
282,72,24380,1,0,3:0:0:0:
280,64,24469,6,0,P|346:52|405:38,1,90,12|0,0:2|3:0,0:0:0:0:
85,18,24822,1,12,0:2:0:0:
303,180,24998,1,0,3:0:0:0:
503,82,25175,5,8,0:3:0:0:
222,141,25351,1,4,0:3:0:0:
453,336,25528,1,0,3:0:0:0:
461,3,25704,6,0,P|454:89|443:213,1,180,4|8,3:2|0:3,0:0:0:0:
286,358,26233,1,8,0:3:0:0:
136,322,26410,1,8,0:2:0:0:
136,322,26498,1,0,3:0:0:0:
136,322,26586,2,0,P|186:310|239:297,1,90,4|0,3:2|0:0,0:0:0:0:
445,182,26939,2,0,P|395:170|342:157,1,90,4|0,3:2|0:0,0:0:0:0:
275,112,27292,5,6,3:2:0:0:
387,287,27469,1,0,0:0:0:0:
286,358,27645,2,0,P|300:324|312:277,1,67.5000025749208,2|0,3:2|0:0,0:0:0:0:
199,144,27998,2,0,P|185:178|173:225,1,67.5000025749208,2|2,3:2|0:0,0:0:0:0:
65,358,28351,1,2,3:2:0:0:
38,274,28528,1,2,0:0:0:0:
65,358,28704,6,0,P|136:344|229:329,1,135.000005149842,2|2,3:2|3:2,0:0:0:0:
333,220,29233,1,2,0:0:0:0:
333,220,29410,2,0,P|291:212|248:206,1,67.5000025749208,0|2,3:0|0:0,0:0:0:0:
399,173,29763,1,4,0:3:0:0:
511,270,29939,6,0,P|440:283|352:299,1,135.000005149842,2|0,3:2|3:0,0:0:0:0:
278,362,30380,1,0,3:0:0:0:
289,367,30469,6,0,P|296:327|299:287,1,67.5000025749208,2|0,3:2|0:0,0:0:0:0:
122,213,30822,1,2,3:2:0:0:
189,167,30998,2,0,P|189:116|187:73,1,67.5000025749208,2|2,0:0|3:2,0:0:0:0:
0,200,31351,1,2,0:0:0:0:
51,252,31527,6,0,P|64:318|79:406,1,135.000005149842,2|2,3:2|3:2,0:0:0:0:
240,321,32057,2,0,L|250:230,1,67.5000025749208,2|4,0:0|0:3,0:0:0:0:
315,177,32410,2,0,L|312:211,2,33.7500012874604,2|4|8,3:2|0:3|0:3,0:0:0:0:
221,54,32763,1,2,3:0:0:0:
218,64,32851,1,2,3:0:0:0:
214,73,32939,6,0,P|177:66|119:58,1,67.5000025749208,10|0,3:0|0:0,0:0:0:0:
370,0,33292,2,0,P|363:37|355:95,1,67.5000025749208,2|0,3:2|0:0,0:0:0:0:
218,156,33645,2,0,P|225:193|233:251,1,67.5000025749208,2|0,3:2|0:0,0:0:0:0:
185,336,33998,1,2,3:2:0:0:
302,254,34175,1,0,0:0:0:0:
252,381,34351,6,0,P|316:370|344:366,1,67.5000025749208,2|0,3:2|0:0,0:0:0:0:
318,369,34616,1,2,0:2:0:0:
318,369,34704,1,0,3:0:0:0:
152,255,34880,2,0,P|67:242|5:231,1,135.000005149842,2|2,0:0|0:0,0:0:0:0:
83,96,35410,2,0,P|90:131|95:172,1,67.5000025749208,4|2,0:3|3:2,0:0:0:0:
20,43,35763,5,2,3:2:0:0:
180,140,35939,1,0,3:2:0:0:
180,140,36028,1,0,3:0:0:0:
180,140,36116,2,0,L|270:128,1,67.5000025749208,2|0,3:2|0:0,0:0:0:0:
309,70,36469,5,2,3:2:0:0:
355,135,36645,1,0,0:0:0:0:
232,291,36821,1,2,3:2:0:0:
182,232,36998,1,0,0:0:0:0:
318,300,37175,6,0,P|357:287|406:273,1,67.5000025749208,2|0,3:2|3:0,0:0:0:0:
383,280,37439,1,0,3:0:0:0:
383,280,37528,1,0,3:0:0:0:
282,379,37704,1,2,3:2:0:0:
225,323,37880,6,0,L|233:284,1,33.7500012874604,8|4,0:3|0:3,0:0:0:0:
311,179,38057,2,0,L|319:218,1,33.7500012874604,2|2,3:2|3:2,0:0:0:0:
153,369,38233,5,8,0:3:0:0:
151,360,38322,1,4,0:3:0:0:
149,352,38410,1,2,3:0:0:0:
147,344,38498,1,2,3:3:0:0:
145,335,38586,6,0,P|69:310|-1:287,1,135,4|0,3:2|0:0,0:0:0:0:
16,292,38939,1,10,0:2:0:0:
197,144,39116,1,0,0:0:0:0:
104,112,39292,2,0,P|116:176|130:237,1,90,2|2,3:2|3:2,0:0:0:0:
263,15,39645,1,10,0:2:0:0:
342,175,39822,1,2,0:2:0:0:
489,39,39998,6,0,P|408:63|294:83,1,180,2|10,3:2|0:2,0:0:0:0:
97,10,40528,1,2,0:0:0:0:
238,102,40704,2,0,P|222:162|215:219,1,90,0|2,3:0|3:2,0:0:0:0:
332,364,41057,1,8,0:2:0:0:
138,229,41233,1,2,3:2:0:0:
139,236,41322,1,0,3:0:0:0:
141,244,41410,5,2,3:2:0:0:
350,160,41586,2,0,L|281:150,1,45
238,102,41763,2,0,P|229:40|222:-7,1,90,10|0,0:2|0:0,0:0:0:0:
464,172,42116,1,2,3:2:0:0:
395,232,42292,2,0,L|409:338,1,90,2|10,3:2|0:2,0:0:0:0:
307,46,42645,1,2,0:0:0:0:
238,102,42822,6,0,P|179:93|114:83,1,90,2|0,3:2|3:0,0:0:0:0:
149,88,43086,1,0,3:0:0:0:
149,88,43175,1,10,3:2:0:0:
17,195,43351,1,2,0:0:0:0:
111,264,43528,6,0,P|107:209|98:161,1,90,0|2,3:0|3:2,0:0:0:0:
0,106,43880,1,8,0:2:0:0:
196,249,44057,1,2,3:2:0:0:
196,249,44145,1,0,3:0:0:0:
196,249,44233,2,0,P|251:245|299:236,1,90,4|0,3:2|0:0,0:0:0:0:
340,81,44586,6,0,P|330:125|323:169,1,90,10|0,0:2|0:0,0:0:0:0:
142,379,44939,2,0,P|135:335|126:291,1,90,2|2,3:2|3:2,0:0:0:0:
0,87,45292,2,0,P|35:124|80:135,1,90,10|0,0:2|0:0,0:0:0:0:
275,241,45645,6,0,P|225:232|166:227,1,90,2|0,3:2|3:0,0:0:0:0:
185,228,45910,1,0,3:0:0:0:
185,228,45998,1,8,0:2:0:0:
360,384,46175,2,0,B|341:336|372:297|395:314|421:271|402:213,1,180,2|2,3:2|3:2,0:0:0:0:
306,152,46704,1,10,0:2:0:0:
441,365,46880,1,2,3:2:0:0:
509,306,47057,6,0,P|499:249|492:194,1,90,6|0,3:2|0:0,0:0:0:0:
420,16,47410,1,2,3:2:0:0:
306,152,47586,2,0,P|316:95|323:40,1,90,14|0,0:2|0:0,0:0:0:0:
423,29,47939,1,2,3:2:0:0:
263,241,48116,1,8,0:2:0:0:
161,137,48292,2,0,L|232:125,1,45,2|0,3:2|3:0,0:0:0:0:
437,238,48469,6,0,P|415:237|306:222,1,90,4|0,3:2|3:0,0:0:0:0:
347,229,48733,1,0,3:0:0:0:
347,229,48822,1,0,3:0:0:0:
205,378,48998,2,0,L|191:315,1,45,8|0,0:2|0:0,0:0:0:0:
121,308,49175,5,0,3:0:0:0:
333,148,49351,1,0,3:0:0:0:
387,384,49528,1,4,3:3:0:0:
141,215,49704,2,0,L|193:222,1,45,8|0,3:3|3:0,0:0:0:0:
422,178,49880,5,6,3:2:0:0:
422,178,50057,1,2,3:2:0:0:
287,345,50233,2,0,P|278:289|270:234,1,90,2|2,3:2|0:0,0:0:0:0:
122,81,50586,1,2,0:0:0:0:
199,111,50763,2,0,P|269:81|358:40,1,135,12|0,0:2|0:0,0:0:0:0:
450,45,51116,6,0,P|419:7|354:8,1,90,12|0,0:2|0:0,0:0:0:0:
322,56,51469,1,4,0:3:0:0:
431,166,51645,2,0,P|478:148|509:93,1,90,8|8,0:3|0:3,0:0:0:0:
263,125,51998,2,0,P|272:174|282:247,1,90,8|4,0:3|0:3,0:0:0:0:
456,316,52351,1,8,0:3:0:0:
456,316,52439,1,4,0:3:0:0:
456,316,52528,2,0,L|396:311,1,45,4|0,0:3|0:0,0:0:0:0:
215,262,52704,5,6,3:2:0:0:
215,262,52880,1,2,3:2:0:0:
320,384,53057,2,0,P|328:331|336:284,1,90,2|2,3:2|0:0,0:0:0:0:
164,187,53410,1,2,0:0:0:0:
69,369,53586,2,0,P|132:353|239:328,1,135,12|0,0:2|0:0,0:0:0:0:
396,182,53939,6,0,B|348:205|304:161|320:151|279:116|227:138,1,180,12|4,0:2|0:3,0:0:0:0:
29,46,54469,1,8,0:3:0:0:
174,9,54645,1,4,0:3:0:0:
174,9,54733,1,4,0:3:0:0:
174,9,54822,2,0,P|167:66|160:127,1,90,4|8,0:3|0:3,0:0:0:0:
36,226,55175,1,4,0:3:0:0:
234,135,55351,1,0,3:0:0:0:
143,324,55528,6,0,P|135:258|124:183,1,135.000005149842,4|2,3:2|0:0,0:0:0:0:
229,279,56057,1,0,3:0:0:0:
224,288,56233,2,0,B|308:275|282:325|359:316,1,135.000005149842,8|2,0:2|0:0,0:0:0:0:
426,270,56763,1,2,3:2:0:0:
480,377,56939,6,0,P|488:332|497:294,1,67.5000025749208,2|0,0:0|3:0,0:0:0:0:
508,235,57292,1,8,0:2:0:0:
352,238,57469,1,0,3:0:0:0:
352,238,57557,1,0,3:0:0:0:
352,238,57645,2,0,P|338:182|327:142,1,67.5000025749208,8|0,0:2|3:0,0:0:0:0:
263,124,57998,1,4,3:2:0:0:
464,23,58175,1,2,0:0:0:0:
484,111,58351,6,0,P|400:96|346:83,1,135.000005149842,4|0,3:2|3:0,0:0:0:0:
233,13,58880,2,0,P|195:22|174:51,1,67.5000025749208,0|0,3:0|3:0,0:0:0:0:
162,120,59233,5,0,3:0:0:0:
90,120,59410,5,0,3:0:0:0:
39,178,59586,5,0,3:0:0:0:
41,266,59763,5,4,3:2:0:0:
122,319,59939,5,0,3:0:0:0:
224,308,60116,5,0,3:0:0:0:
273,195,60292,5,0,3:0:0:0:
250,61,60469,5,0,3:0:0:0:
117,14,60645,5,0,3:0:0:0:
0,82,60822,5,8,0:2:0:0:
183,242,60998,1,0,3:0:0:0:
184,234,61086,1,0,3:0:0:0:
185,228,61175,2,0,L|176:183,1,45,12|0,0:2|0:0,0:0:0:0:
356,17,61351,5,0,3:0:0:0:
33,155,61528,1,0,3:0:0:0:
44,157,61616,1,0,3:0:0:0:
54,159,61704,2,0,L|123:146,1,45,12|0,0:2|0:0,0:0:0:0:
350,289,61880,5,0,3:0:0:0:
248,38,62057,1,0,3:0:0:0:
245,51,62145,1,0,3:0:0:0:
243,63,62233,2,0,L|258:147,1,45,12|0,0:2|0:0,0:0:0:0:
102,245,62410,5,0,3:0:0:0:
418,146,62586,1,0,3:0:0:0:
399,149,62675,1,0,3:0:0:0:
383,152,62763,2,0,L|298:140,1,45,12|0,0:2|0:0,0:0:0:0:
152,72,62939,1,0,3:0:0:0:
374,0,63116,1,0,3:0:0:0:
275,232,63292,6,0,P|268:187|260:143,1,90,12|0,0:2|3:0,0:0:0:0:
498,11,63645,2,0,P|491:55|483:99,1,90,12|0,0:2|3:0,0:0:0:0:
340,296,63998,5,8,0:2:0:0:
63,181,64174,1,4,3:2:0:0:
102,172,64263,1,0,3:0:0:0:
144,164,64351,1,0,3:0:0:0:
304,82,64528,5,12,0:2:0:0:
262,371,64704,2,0,L|258:326,2,45,4|0|0,3:2|3:0|3:0,0:0:0:0:
110,0,65057,5,12,0:2:0:0:
39,98,65233,2,0,P|97:87|154:78,1,90,12|0,0:2|3:0,0:0:0:0:
327,218,65586,1,8,0:3:0:0:
456,162,65763,2,0,P|398:151|341:142,1,90,4|0,0:3|0:0,0:0:0:0:
55,287,66116,6,0,P|59:262|76:242,1,33.7500012874604,2|0,3:2|0:0,0:0:0:0:
68,282,66204,6,0,P|88:262|115:259,1,39.3750003755093,2|0,3:2|0:0,0:0:0:0:
84,283,66292,6,0,P|114:275|142:288,1,45,2|0,3:2|0:0,0:0:0:0:
96,291,66380,6,0,P|128:302|151:338,1,50.6250019311906,2|0,3:2|0:0,0:0:0:0:
86,363,66469,5,2,3:2:0:0:
354,378,66645,6,0,P|371:348|369:303,1,67.5000025749208,2|2,3:2|3:2,0:0:0:0:
55,287,66822,6,0,B|89:341|89:341|297:324,1,270,4|0,3:2|0:0,0:0:0:0:
456,162,67175,1,10,0:2:0:0:
129,84,67351,1,2,0:2:0:0:
124,91,67439,1,0,0:0:0:0:
124,99,67527,6,0,P|147:139|225:136,1,90,0|0,3:0|0:0,0:0:0:0:
268,25,67704,2,0,P|287:66|240:128,1,90,2|0,3:2|0:0,0:0:0:0:
120,230,67880,1,8,0:2:0:0:
395,253,68057,6,0,P|332:158|171:161,1,270,6|0,3:2|0:0,0:0:0:0:
391,269,68410,1,0,3:0:0:0:
445,56,68586,6,0,P|401:60|371:92,1,90,10|0,0:2|0:0,0:0:0:0:
112,241,68763,1,0,0:0:0:0:
116,235,68851,1,0,0:0:0:0:
120,230,68939,6,0,L|114:185,1,45,2|0,3:2|0:0,0:0:0:0:
202,280,69116,2,0,L|196:235,1,45,0|0,3:0|0:0,0:0:0:0:
174,378,69292,6,0,B|120:352|120:352|121:349|100:188,1,202.500007724762,10|0,0:2|0:0,0:0:0:0:
256,349,69645,6,0,P|330:248|489:251,1,270,4|0,3:2|0:0,0:0:0:0:
476,250,69998,1,8,0:2:0:0:
227,93,70174,1,2,0:2:0:0:
219,102,70263,1,0,0:0:0:0:
215,112,70351,2,0,P|234:157|309:174,1,90,0|0,3:0|0:0,0:0:0:0:
475,149,70527,1,2,3:2:0:0:
364,345,70704,2,0,P|324:291|354:226,1,90,8|0,0:2|0:0,0:0:0:0:
327,110,70880,6,0,B|367:98|367:98|410:282,1,180,6|0,3:2|0:0,0:0:0:0:
225,370,71145,1,0,0:0:0:0:
217,365,71233,2,0,L|225:300,1,45,2|0,3:2|0:0,0:0:0:0:
40,159,71410,2,0,L|105:167,1,45,10|0,0:2|0:0,0:0:0:0:
198,132,71586,6,0,B|162:156|162:156|146:318|146:318|104:350,1,236.250002253056,0|0,3:0|0:0,0:0:0:0:
16,294,71939,2,0,B|43:269|43:269|121:279,1,67.5000025749208,0|0,3:0|0:0,0:0:0:0:
292,224,72116,2,0,B|262:228|262:228|235:203,1,67.5000025749208,8|0,0:2|0:0,0:0:0:0:
219,51,72292,5,2,3:2:0:0:
366,180,72468,2,0,L|498:164,1,90,4|2,3:2|3:2,0:0:0:0:
506,103,72821,1,8,0:2:0:0:
302,313,72998,2,0,L|286:181,1,90,2|0,0:0|3:0,0:0:0:0:
417,0,73351,2,0,L|433:132,1,90,2|8,3:2|0:2,0:0:0:0:
452,271,73704,1,6,3:2:0:0:
452,271,73792,1,0,3:0:0:0:
452,271,73880,5,2,3:2:0:0:
343,61,74057,2,0,L|223:45,1,90,2|8,3:2|0:2,0:0:0:0:
16,169,74410,2,0,L|32:49,1,90,2|0,0:2|3:0,0:0:0:0:
183,0,74763,2,0,L|167:120,1,90,2|8,3:2|0:2,0:0:0:0:
48,247,75116,1,2,0:2:0:0:
117,295,75292,6,0,L|233:282,1,90,4|2,3:2|0:0,0:0:0:0:
377,353,75645,1,8,0:2:0:0:
308,208,75821,6,0,L|321:92,1,90,2|0,0:2|3:0,0:0:0:0:
401,86,76175,1,2,3:2:0:0:
218,347,76351,2,0,P|207:281|230:260,1,67.5000025749208,8|0,0:2|0:0,0:0:0:0:
174,65,76527,6,0,P|234:121|274:328,1,270,4|0,3:2|0:0,0:0:0:0:
47,160,76880,6,0,P|74:133|158:151,1,90,0|0,3:0|0:0,0:0:0:0:
240,0,77057,6,0,P|274:33|338:36,1,101.250003862381,8|0,0:2|0:0,0:0:0:0:
376,248,77233,6,0,P|414:211|491:212,1,112.5,0|0,3:0|0:0,0:0:0:0:
512,133,77410,5,2,3:2:0:0:
288,370,77586,1,0,3:0:0:0:
298,362,77674,1,0,3:0:0:0:
303,348,77763,2,0,P|299:316|254:278,1,67.5000025749208,10|8,3:2|0:3,0:0:0:0:
177,226,77939,2,0,P|220:209|270:237,1,67.5000025749208,4|4,0:3|0:3,0:0:0:0:
418,323,78116,6,0,B|466:310|466:310|440:140|440:140|374:151,1,270,4|0,3:2|0:0,0:0:0:0:
330,103,78468,2,0,P|319:119|328:194,1,67.5000025749208,10|0,0:2|0:0,0:0:0:0:
166,371,78645,6,0,P|263:257|408:259,1,270,2|0,0:2|0:0,0:0:0:0:
169,384,78998,1,2,3:2:0:0:
24,176,79174,2,0,P|38:231|103:252,1,90,8|0,0:2|0:0,0:0:0:0:
166,371,79351,6,0,B|210:327|191:221|129:199|129:199|153:241|137:291,1,270,6|0,3:2|0:0,0:0:0:0:
40,328,79704,1,0,3:0:0:0:
251,216,79880,2,0,P|266:179|241:114,1,90,10|0,0:2|0:0,0:0:0:0:
32,11,80057,1,0,3:0:0:0:
37,20,80145,1,0,3:0:0:0:
42,28,80233,6,0,L|111:13,1,45,2|0,3:2|0:0,0:0:0:0:
56,99,80410,2,0,L|125:84,1,45,0|0,3:0|0:0,0:0:0:0:
333,93,80586,6,0,B|313:50|313:50|155:44,1,202.500007724762,10|0,0:2|3:0,0:0:0:0:
120,285,80939,6,0,L|105:225,1,45,4|0,3:2|0:0,0:0:0:0:
13,171,81116,2,0,L|72:188,1,45,0|0,3:0|0:0,0:0:0:0:
162,137,81292,2,0,L|117:179,1,45,4|0,0:3|0:0,0:0:0:0:
148,372,81468,6,0,B|184:312|243:328|243:328|259:323|259:323|311:336|358:293|358:293|316:304|268:274,1,303.750011587143,14|0,0:2|0:0,0:0:0:0:
464,208,81821,2,0,P|449:237|447:260,1,33.7500012874604,14|0,0:2|0:0,0:0:0:0:
446,247,82174,6,0,B|377:223|377:152|377:152|353:106|279:93|279:93|317:117|315:161,1,303.750011587143,14|0,0:2|0:0,0:0:0:0:
434,90,82527,1,2,3:2:0:0:
441,88,82616,1,0,3:0:0:0:
449,87,82704,2,0,L|456:1,1,45,10|0,3:2|0:0,0:0:0:0:
239,209,82880,2,0,L|232:123,1,45,2|0,3:2|0:0,0:0:0:0:
372,260,83057,5,10,0:2:0:0:
261,56,83233,1,0,3:0:0:0:
270,66,83321,1,0,3:0:0:0:
280,70,83410,5,8,0:3:0:0:
255,27,83498,1,4,0:3:0:0:
216,17,83586,1,0,3:0:0:0:
190,24,83674,1,0,3:0:0:0:
179,36,83763,6,0,P|96:26|53:20,1,90,4|2,3:2|0:0,0:0:0:0:
391,208,84116,1,0,3:0:0:0:
426,127,84292,2,0,P|485:110|544:97,1,90,12|0,0:2|0:0,0:0:0:0:
309,357,84645,2,0,P|292:298|279:239,1,90,0|8,3:0|0:2,0:0:0:0:
346,93,84998,2,0,L|337:161,1,45,4|0,3:2|0:0,0:0:0:0:
213,328,85175,5,0,0:0:0:0:
495,273,85351,2,0,L|423:268,1,45,4|0,3:2|0:0,0:0:0:0:
262,139,85527,5,0,0:0:0:0:
388,371,85704,2,0,L|397:294,1,45,4|0,3:2|0:0,0:0:0:0:
483,191,85880,5,0,3:0:0:0:
357,251,86057,1,0,3:0:0:0:
205,203,86233,1,8,0:2:0:0:
142,74,86410,1,2,3:2:0:0:
178,1,86586,5,4,3:2:0:0:
91,138,86763,2,0,P|34:134|-26:119,1,90,0|8,0:0|0:2,0:0:0:0:
222,71,87116,2,0,P|293:59|352:53,1,90,2|0,0:0|3:0,0:0:0:0:
74,215,87468,1,2,3:2:0:0:
141,266,87645,2,0,P|135:332|131:369,1,90,8|2,0:2|0:0,0:0:0:0:
323,141,87998,5,6,3:2:0:0:
388,89,88174,2,0,P|379:17|371:-18,1,90,0|8,0:0|0:2,0:0:0:0:
277,207,88527,2,0,P|286:279|294:314,1,90,2|0,0:2|3:0,0:0:0:0:
211,166,88880,1,2,3:2:0:0:
369,309,89057,2,0,P|436:288|480:278,1,90,8|2,0:2|0:0,0:0:0:0:
316,371,89410,5,4,3:2:0:0:
427,208,89586,2,0,P|434:136|437:92,1,90,0|8,0:0|0:2,0:0:0:0:
232,360,89939,1,2,0:2:0:0:
178,299,90116,2,0,P|123:289|62:283,1,90,0|2,3:0|3:2,0:0:0:0:
7,122,90468,1,8,0:2:0:0:
87,101,90645,6,0,P|98:68|98:50,2,33.7500012874604,6|0|0,3:2|0:0|3:0,0:0:0:0:
51,0,90998,1,0,3:0:0:0:
108,180,91174,6,0,B|166:199|204:149|191:143|239:91|321:139,1,202.500007724762,12|0,0:2|0:0,0:0:0:0:
458,139,91527,1,0,3:0:0:0:
324,4,91704,1,0,3:0:0:0:
318,8,91792,1,0,3:0:0:0:
312,12,91880,2,0,L|327:87,1,45,8|0,0:2|0:0,0:0:0:0:
384,234,92057,2,0,L|399:159,1,45,0|0,3:0|3:0,0:0:0:0:
469,57,92233,5,4,3:2:0:0:
301,220,92410,2,0,L|215:207,2,45,4|8|0,0:3|0:3|3:0,0:0:0:0:
441,293,92763,1,0,3:0:0:0:
377,363,92939,6,0,L|361:297,2,45,4|8|0,0:3|0:3|3:0,0:0:0:0:
512,198,93292,2,0,L|496:264,3,45,8|8|8|4,0:2|0:2|0:3|0:3,0:0:0:0:
297,345,93645,6,0,L|242:334,7,45,4|0|0|0|2|2|2|2,3:2|3:0|3:0|3:0|3:2|3:2|3:2|3:2,0:0:0:0:
215,260,94351,5,2,3:0:0:0:
199,275,94439,1,2,3:0:0:0:
179,285,94527,1,2,3:0:0:0:
157,289,94615,1,2,3:0:0:0:
134,286,94703,5,8,0:0:0:0:
114,245,94792,1,8,0:0:0:0:
71,230,94880,1,8,0:0:0:0:
27,242,94968,1,8,0:0:0:0:
0,319,95057,6,0,B|37:300|37:300|49:115|49:115|105:80,1,270,4|0,3:2|0:0,0:0:0:0:
173,57,95410,2,0,L|160:144,1,67.5000025749208,10|0,0:2|0:0,0:0:0:0:
102,5,95763,1,2,3:2:0:0:
245,133,95939,2,0,P|300:118|336:105,1,67.5000025749208,2|8,3:2|0:2,0:0:0:0:
445,20,96292,6,0,B|431:52|399:53|400:48|311:16|310:15|273:21|260:51,1,202.500007724762,6|0,3:2|0:0,0:0:0:0:
263,46,96645,1,2,3:2:0:0:
374,240,96821,1,8,0:2:0:0:
445,205,96998,2,0,P|464:162|441:117,1,90,2|0,0:2|3:0,0:0:0:0:
299,293,97351,1,2,3:2:0:0:
222,272,97527,2,0,P|203:229|226:184,1,90,10|2,0:2|0:2,0:0:0:0:
267,49,97880,6,0,P|288:138|293:248,1,168.75,4|0,3:2|0:0,0:0:0:0:
345,383,98233,2,0,P|384:367|432:352,1,67.5000025749208,10|0,0:2|0:0,0:0:0:0:
222,272,98586,1,2,3:2:0:0:
169,335,98763,2,0,P|120:319|87:309,1,67.5000025749208,2|8,3:2|0:2,0:0:0:0:
266,384,99116,6,0,B|257:350|274:308|301:331|328:285|302:232,1,135,6|0,3:2|0:0,0:0:0:0:
316,266,99468,1,2,3:2:0:0:
469,382,99645,1,8,0:2:0:0:
501,305,99821,2,0,P|462:294|430:285,1,67.5000025749208,2|0,0:2|3:0,0:0:0:0:
337,144,100174,1,2,3:2:0:0:
418,85,100351,2,0,L|410:130,3,33.7500012874604,10|0|2|0,3:2|3:0|3:2|3:0,0:0:0:0:
259,124,100704,5,6,3:2:0:0:
411,195,100880,2,0,P|464:182|505:171,1,67.5000025749208,2|2,0:2|3:2,0:0:0:0:
298,0,101233,2,0,P|311:53|322:94,1,67.5000025749208,14|0,0:2|0:0,0:0:0:0:
276,203,101586,5,2,3:2:0:0:
194,71,101763,1,10,0:2:0:0:
337,144,101939,1,2,0:2:0:0:
215,253,102116,6,0,P|208:299|203:334,1,67.5000025749208,6|2,3:2|0:2,0:0:0:0:
127,351,102468,1,2,3:2:0:0:
355,313,102645,2,0,P|309:306|274:301,1,67.5000025749208,14|0,0:2|0:0,0:0:0:0:
72,173,102998,5,2,3:2:0:0:
134,116,103174,1,14,0:2:0:0:
94,250,103351,1,2,3:2:0:0:
219,201,103527,5,12,0:2:0:0:
230,376,103704,1,0,3:0:0:0:
212,112,103880,5,12,0:2:0:0:
223,287,104057,1,0,3:0:0:0:
202,23,104233,5,8,0:3:0:0:
412,260,104410,2,0,P|348:249|312:241,1,90,4|0,0:3|3:0,0:0:0:0:
49,63,104763,6,0,B|97:46|135:85|124:94|169:141|227:104,1,180,4|8,3:2|0:3,0:0:0:0:
282,58,105292,5,8,0:3:0:0:
358,33,105468,5,0,3:2:0:0:
449,64,105645,5,8,0:3:0:0:
497,151,105821,5,8,0:3:0:0:
463,267,105998,5,4,0:3:0:0:
327,302,106174,5,8,0:2:0:0:
228,178,106351,5,0,3:0:0:0:
219,258,106527,1,0,3:0:0:0:
209,338,106704,1,8,0:0:0:0:
300,231,106880,5,0,3:0:0:0:
300,231,106968,1,0,3:0:0:0:
300,231,107057,2,0,P|347:224|387:221,1,67.5000025749208,4|0,3:2|0:0,0:0:0:0:
147,293,107410,2,0,P|99:286|67:284,1,67.5000025749208,4|0,3:2|0:0,0:0:0:0:
294,380,107763,5,4,3:2:0:0:
256,192,107851,12,0,111998,0:0:0:0:
