osu file format v14

[General]
AudioFilename: audio.mp3
AudioLeadIn: 0
PreviewTime:66027
Countdown: 0
SampleSet: Soft
StackLeniency: 0.7
Mode: 0
LetterboxInBreaks: 0
WidescreenStoryboard: 1

[Editor]
DistanceSpacing: 1
BeatDivisor: 4
GridSize: 4
TimelineZoom: 2.3

[Metadata]
Title:Hikari no destination
TitleUnicode:ヒカリのdestination
Artist:illumination STARS
ArtistUnicode:イルミネーションスターズ
Creator:Acylica
Version:IOException's Hard
Source:アイドルマスター シャイニーカラーズ
Tags:THE IDOLM@STER SHINY COLORS im@s imas アイマス シャニマス Shanimas BRILLI@NT WING 02 ヒカリのdestination 櫻木真乃 Sakuragi Mano 風野灯織 Kazano Hiori 八宮めぐる Hachimiya Meguru 峯田 茉優 Mineda Mayu 関根 瞳 Sekine Hitomi 近藤玲奈 Kondou Reina ioexception shizuku- niva senseabel heilia neoskylove affirmation af japanese female vocal idol video game pop jpop j-pop acyl
BeatmapID:2242783
BeatmapSetID:1062292

[Difficulty]
HPDrainRate:5
CircleSize:4
OverallDifficulty:7
ApproachRate:8
SliderMultiplier:1.4
SliderTickRate:1

[Events]
//Background and Video events
0,0,"stickbug.jpg"
//Break Periods
//Storyboard Layer 0 (Background)
//Storyboard Layer 1 (Fail)
//Storyboard Layer 2 (Pass)
//Storyboard Layer 3 (Foreground)
//Storyboard Layer 4 (Overlay)
//Storyboard Sound Samples

[TimingPoints]
469,352.941176470588,4,2,1,35,1,0
7527,-100,4,2,1,45,0,0
10704,-100,4,2,1,46,0,0
10880,-100,4,2,1,47,0,0
11057,-100,4,2,1,48,0,0
11233,-100,4,2,1,49,0,0
11410,-100,4,2,1,50,0,0
11586,-100,4,2,1,55,0,0
15998,-100,4,2,1,60,0,0
26586,-100,4,2,1,58,0,0
26851,-100,4,2,1,5,0,0
26939,-100,4,2,1,55,0,0
27204,-100,4,2,1,5,0,0
27292,-100,4,2,1,45,0,0
38586,-100,4,2,1,58,0,0
49880,-100,4,2,1,55,0,0
55527,-100,4,2,1,50,0,0
58704,-100,4,2,1,45,0,0
59057,-100,4,2,1,55,0,0
66821,-83.3333333333333,4,2,1,80,0,0
86586,-90.9090909090909,4,2,1,80,0,0
91174,-83.3333333333333,4,2,1,80,0,0
93998,-83.3333333333333,4,2,1,60,0,0
95057,-90.9090909090909,4,2,1,60,0,0
107321,-90.9090909090909,4,2,1,5,0,0
107410,-90.9090909090909,4,2,1,58,0,0
107674,-90.9090909090909,4,2,1,5,0,0
107763,-90.9090909090909,4,2,1,55,0,0
111998,-90.9090909090909,4,2,1,55,0,0

[Colours]
Combo1 : 255,206,238
Combo2 : 200,244,183
Combo3 : 250,193,167

[HitObjects]
98,283,1174,5,2,0:2:0:0:
98,283,1351,1,0,0:0:0:0:
98,283,1527,2,0,P|151:288|174:301,1,70,0|0,0:2|0:0,0:0:0:0:
244,348,1880,6,0,P|246:296|254:190,1,140,6|2,0:2|0:0,0:0:0:0:
222,142,2410,1,2,0:2:0:0:
361,195,2763,1,2,0:0:0:0:
467,98,3116,1,2,0:2:0:0:
467,98,3292,6,0,P|458:143|454:180,1,70,2|0,0:0|0:0,0:0:0:0:
484,246,3645,1,2,0:2:0:0:
356,359,3998,1,2,0:2:0:0:
321,210,4351,1,2,0:2:0:0:
191,319,4704,6,0,B|115:320|134:364|47:361,1,140,2|2,0:2|0:0,0:0:0:0:
8,305,5233,1,2,0:2:0:0:
105,190,5586,1,2,0:2:0:0:
6,67,5939,2,0,P|32:22|132:11,1,140,2|2,0:2|0:2,0:0:0:0:
181,51,6468,1,2,0:0:0:0:
181,51,6645,2,0,B|192:132|151:122|168:209,1,140,2|0,0:2|0:0,0:0:0:0:
182,272,7174,2,0,P|231:297|259:245,1,105,2|0,0:2|0:0,0:0:0:0:
251,228,7527,6,0,B|357:215|324:323|448:307,2,210,6|2|0,3:2|0:2|3:0,0:0:0:0:
176,267,8763,1,2,3:2:0:0:
105,309,8939,6,0,P|86:236|102:149,1,140,6|0,3:2|3:0,0:0:0:0:
113,89,9468,2,0,P|177:86|267:74,1,140,2|2,0:2|0:2,0:0:0:0:
321,23,9998,2,0,P|364:33|401:43,1,70,0|2,3:0|3:2,0:0:0:0:
476,42,10351,6,0,B|496:118|447:110|465:203,1,140,6|0,3:2|3:0,0:0:0:0:
471,269,10880,1,0,3:0:0:0:
471,269,11057,2,0,P|423:264|394:264,1,70,0|0,3:0|3:0,0:0:0:0:
324,211,11410,1,0,3:0:0:0:
273,276,11586,6,0,P|279:202|287:108,1,140,12|12,0:2|0:2,0:0:0:0:
284,136,12116,1,12,0:2:0:0:
284,136,13174,6,0,B|213:138|225:195|125:184,1,140,4|0,3:2|3:0,0:0:0:0:
60,185,13704,1,8,0:3:0:0:
60,185,13880,2,0,P|52:257|53:283,1,70,8|4,0:3|0:3,0:0:0:0:
103,352,14233,1,8,0:3:0:0:
103,352,14321,1,4,0:3:0:0:
103,352,14410,1,0,3:0:0:0:
5,384,14586,6,0,P|59:267|373:305,1,490,4|8,3:2|0:3,0:0:0:0:
460,332,15998,6,0,P|460:288|448:234,1,70,6|0,3:2|0:0,0:0:0:0:
403,187,16351,2,0,P|446:178|476:81,1,140,10|2,0:2|3:2,0:0:0:0:
439,23,16880,1,2,3:2:0:0:
439,23,17057,1,8,0:2:0:0:
349,65,17233,6,0,P|283:67|201:49,1,140,6|2,3:2|3:2,0:0:0:0:
126,100,17763,1,8,0:2:0:0:
72,37,17939,2,0,P|84:105|82:196,1,140,2|2,0:2|3:2,0:0:0:0:
23,268,18468,1,10,0:2:0:0:
23,268,18645,1,2,0:2:0:0:
23,268,18821,6,0,P|69:267|100:275,1,70,4|0,3:2|0:0,0:0:0:0:
179,222,19174,2,0,P|189:286|255:335,1,140,10|2,0:2|3:2,0:0:0:0:
321,271,19704,1,2,3:2:0:0:
321,271,19880,1,8,0:2:0:0:
282,181,20057,6,0,P|274:104|273:32,1,140,6|2,3:2|3:2,0:0:0:0:
364,0,20586,1,8,0:2:0:0:
364,0,20763,2,0,P|437:5|461:8,1,70,2|0,0:2|3:0,0:0:0:0:
508,76,21116,1,2,3:2:0:0:
452,148,21292,1,10,0:2:0:0:
452,148,21468,1,2,3:2:0:0:
392,221,21645,6,0,P|391:264|391:309,1,70,6|2,3:2|0:2,0:0:0:0:
315,151,21998,1,2,3:2:0:0:
231,193,22174,2,0,P|180:207|101:147,1,140,14|2,0:2|3:2,0:0:0:0:
98,68,22704,1,10,0:2:0:0:
13,114,22880,1,2,0:2:0:0:
13,114,22969,1,0,0:0:0:0:
13,114,23057,6,0,P|0:73|13:27,1,70,6|2,3:2|0:2,0:0:0:0:
92,164,23410,1,2,3:2:0:0:
121,60,23586,2,0,P|160:27|277:27,1,140,14|2,0:2|3:2,0:0:0:0:
323,86,24116,2,0,P|362:90|411:93,1,70,14|2,0:2|3:2,0:0:0:0:
392,92,24380,1,0,3:0:0:0:
392,92,24468,5,12,0:2:0:0:
362,184,24645,1,0,3:0:0:0:
327,275,24821,2,0,P|339:315|349:362,1,70,12|0,0:2|3:0,0:0:0:0:
250,380,25174,5,8,0:3:0:0:
221,293,25351,1,4,0:3:0:0:
127,292,25527,1,0,3:0:0:0:
92,202,25704,2,0,B|105:135|62:132|87:44,1,140,4|8,3:2|0:3,0:0:0:0:
146,0,26233,2,0,P|193:4|236:23,1,70,8|8,0:3|0:2,0:0:0:0:
233,52,26498,1,0,3:0:0:0:
233,52,26586,6,0,P|282:66|358:51,1,105,4|0,3:2|0:0,0:0:0:0:
358,17,26939,6,0,P|407:3|483:18,1,105,4|0,3:2|0:0,0:0:0:0:
494,46,27292,6,0,P|501:92|502:127,1,70,6|0,3:2|0:0,0:0:0:0:
448,195,27645,2,0,P|455:241|456:276,1,70,2|0,3:2|0:0,0:0:0:0:
367,141,27998,2,0,P|310:132|228:191,1,140,2|2,3:2|3:2,0:0:0:0:
212,247,28527,1,2,0:0:0:0:
153,312,28704,6,0,P|96:321|14:262,1,140,2|2,3:2|3:2,0:0:0:0:
18,199,29233,2,0,P|60:188|104:184,1,70,2|0,0:0|3:0,0:0:0:0:
148,88,29586,2,0,P|106:99|62:103,1,70,2|4,0:0|0:3,0:0:0:0:
15,25,29939,5,2,3:2:0:0:
15,25,30027,1,0,3:0:0:0:
15,25,30116,2,0,P|110:6|171:-3,1,140,8|2,3:0|3:2,0:0:0:0:
318,81,30821,1,2,3:2:0:0:
318,81,30998,1,2,0:0:0:0:
250,19,31174,2,0,P|230:57|225:100,1,70,2|2,3:2|0:0,0:0:0:0:
268,178,31527,6,0,P|340:182|371:250,1,140,2|2,3:2|3:2,0:0:0:0:
313,310,32057,2,0,P|318:367|322:399,1,70,2|4,0:0|0:3,0:0:0:0:
233,384,32410,2,0,P|229:349|226:314,1,70,2|8,3:2|0:3,0:0:0:0:
250,218,32763,1,2,3:0:0:0:
250,218,32851,1,2,3:0:0:0:
250,218,32939,6,0,B|184:219|194:278|104:263,1,140,10|2,3:0|3:2,0:0:0:0:
0,103,33645,2,0,B|66:103|56:162|146:147,1,140,2|2,3:2|3:2,0:0:0:0:
260,5,34351,2,0,B|193:5|203:64|113:49,1,140,2|0,3:2|3:0,0:0:0:0:
265,92,34880,2,0,P|317:101|413:129,1,140,2|2,0:0|0:0,0:0:0:0:
490,108,35410,2,0,P|501:152|498:188,1,70,4|2,0:3|3:2,0:0:0:0:
494,200,35674,1,0,3:0:0:0:
494,200,35763,6,0,P|428:212|381:286,1,140,2|2,3:2|3:2,0:0:0:0:
253,380,36468,2,0,P|187:368|140:294,1,140,2|2,3:2|3:2,0:0:0:0:
145,116,37174,6,0,P|32:136|-19:143,1,140,2|0,3:2|3:0,0:0:0:0:
39,49,37704,1,2,0:2:0:0:
123,16,37880,2,0,P|164:20|201:29,1,70,8|2,0:3|3:2,0:0:0:0:
250,119,38233,1,8,0:3:0:0:
250,119,38321,1,4,0:3:0:0:
250,119,38410,1,2,3:0:0:0:
250,119,38498,1,2,3:3:0:0:
250,119,38586,6,0,P|253:167|256:196,1,70,4|0,3:2|0:0,0:0:0:0:
355,248,38939,2,0,P|351:213|349:178,1,70,10|0,0:2|0:0,0:0:0:0:
421,113,39292,1,2,3:2:0:0:
421,113,39468,1,2,3:2:0:0:
470,42,39645,1,10,0:2:0:0:
373,29,39821,1,2,0:2:0:0:
297,88,39998,6,0,P|229:99|171:38,1,140,2|10,3:2|0:2,0:0:0:0:
84,16,40527,2,0,P|43:51|32:81,1,70,2|0,0:0|3:0,0:0:0:0:
93,135,40880,1,2,3:2:0:0:
93,135,41057,1,8,0:2:0:0:
39,206,41233,1,2,3:2:0:0:
78,286,41410,6,0,P|85:334|88:374,1,70,2|0,3:2|0:0,0:0:0:0:
145,203,41763,2,0,P|193:196|233:193,1,70,10|0,0:2|0:0,0:0:0:0:
278,268,42116,1,2,3:2:0:0:
278,268,42292,1,2,3:2:0:0:
349,223,42468,1,10,0:2:0:0:
426,269,42645,1,2,0:0:0:0:
490,339,42821,6,0,P|485:277|495:178,1,140,2|10,3:2|0:2,0:0:0:0:
495,107,43351,2,0,P|443:114|407:119,1,70,2|0,0:0|3:0,0:0:0:0:
366,51,43704,1,2,3:2:0:0:
366,51,43880,1,8,0:2:0:0:
280,90,44057,1,2,0:0:0:0:
293,179,44233,6,0,P|300:238|308:337,1,140,4|10,3:2|0:2,0:0:0:0:
87,366,44939,1,2,3:2:0:0:
87,366,45116,1,2,3:2:0:0:
98,280,45292,2,0,P|91:221|83:122,1,140,10|2,0:2|3:2,0:0:0:0:
263,21,45998,5,8,0:2:0:0:
182,16,46174,2,0,P|136:11|98:9,1,70,2|0,0:0|3:0,0:0:0:0:
182,99,46527,1,2,3:2:0:0:
182,99,46703,2,0,P|228:104|266:106,1,70,10|2,0:2|3:2,0:0:0:0:
355,54,47057,6,0,P|370:119|438:157,1,140,6|2,3:2|3:2,0:0:0:0:
291,200,47586,2,0,P|276:265|208:303,1,140,14|2,0:2|3:2,0:0:0:0:
361,346,48116,1,8,0:2:0:0:
408,265,48292,1,2,3:2:0:0:
408,265,48380,1,0,3:0:0:0:
408,265,48468,2,0,P|449:261|494:256,1,70,4|0,3:2|3:0,0:0:0:0:
361,180,48821,1,0,3:0:0:0:
269,167,48998,2,0,P|228:163|183:158,1,70,8|0,0:2|3:0,0:0:0:0:
323,81,49351,1,0,3:0:0:0:
415,68,49528,2,0,P|456:64|501:59,1,70,4|8,3:3|3:3,0:0:0:0:
461,165,49880,5,6,3:2:0:0:
461,165,50057,1,2,3:2:0:0:
461,165,50233,1,2,3:2:0:0:
304,333,50763,6,0,P|261:330|214:331,1,70,12|0,0:2|3:0,0:0:0:0:
184,261,51116,2,0,B|105:264|139:327|33:331,1,140,12|4,0:2|0:3,0:0:0:0:
19,250,51645,1,8,0:3:0:0:
19,250,51821,1,8,0:3:0:0:
77,177,51998,2,0,P|82:132|75:89,1,70,8|4,0:3|0:3,0:0:0:0:
103,24,52351,2,0,P|68:18|53:14,2,35,8|4|4,0:3|0:3|0:3,0:0:0:0:
176,92,52704,5,6,3:2:0:0:
176,92,52880,1,2,3:2:0:0:
176,92,53057,1,2,3:2:0:0:
425,92,53586,6,0,P|465:72|491:46,1,70,12|0,0:2|3:0,0:0:0:0:
344,52,53939,2,0,B|330:133|369:123|350:217,1,140,12|4,0:2|0:3,0:0:0:0:
294,263,54468,2,0,P|252:269|219:274,1,70,8|4,0:3|0:3,0:0:0:0:
224,273,54733,1,4,0:3:0:0:
224,273,54821,1,4,0:3:0:0:
146,249,54998,1,8,0:3:0:0:
79,316,55174,1,4,0:3:0:0:
17,378,55351,1,0,3:0:0:0:
5,290,55527,6,0,P|-1:224|0:134,1,140,4|2,3:2|0:0,0:0:0:0:
0,150,56057,1,0,3:0:0:0:
69,93,56233,1,8,0:2:0:0:
142,31,56410,2,0,P|166:76|177:109,1,70,2|2,0:0|0:0,0:0:0:0:
164,179,56763,2,0,P|208:180|313:201,1,140,2|0,3:2|3:0,0:0:0:0:
371,104,57292,2,0,P|319:101|276:89,1,70,8|0,0:2|3:0,0:0:0:0:
301,97,57557,1,0,3:0:0:0:
301,97,57645,1,8,0:2:0:0:
296,16,57821,1,0,3:0:0:0:
393,9,57998,1,4,3:2:0:0:
488,2,58174,1,2,0:0:0:0:
462,93,58351,6,0,B|340:229|443:314|504:288|544:202|520:173|443:128|367:133|283:173,1,490,4|0,3:2|3:0,0:0:0:0:
236,221,59763,5,4,3:2:0:0:
236,221,59939,1,0,3:0:0:0:
152,196,60116,1,0,3:0:0:0:
152,196,60292,1,0,3:0:0:0:
97,258,60468,1,0,3:0:0:0:
97,258,60645,1,0,3:0:0:0:
11,218,60821,1,8,0:2:0:0:
8,328,60998,5,0,3:0:0:0:
8,328,61086,1,0,3:0:0:0:
8,328,61174,2,0,P|54:333|104:344,1,70,12|0,0:2|3:0,0:0:0:0:
156,302,61527,1,0,3:0:0:0:
232,274,61704,2,0,P|278:279|328:290,1,70,12|0,0:2|3:0,0:0:0:0:
367,232,62057,1,0,3:0:0:0:
443,204,62234,2,0,P|489:209|539:220,1,70,12|0,0:2|3:0,0:0:0:0:
404,127,62586,1,0,3:0:0:0:
328,99,62763,2,0,P|282:104|232:115,1,70,12|0,0:2|3:0,0:0:0:0:
179,74,63116,1,0,3:0:0:0:
103,46,63293,2,0,P|57:51|7:62,1,70,12|0,0:2|3:0,0:0:0:0:
13,139,63645,2,0,P|47:132|82:129,1,70,12|0,0:2|3:0,0:0:0:0:
144,190,63998,5,8,0:2:0:0:
144,190,64174,1,4,3:2:0:0:
301,122,64527,5,12,0:2:0:0:
301,122,64704,1,4,3:2:0:0:
458,54,65057,5,12,0:2:0:0:
458,54,65233,2,0,P|400:59|314:21,1,140,12|8,0:2|0:3,0:0:0:0:
301,122,65763,2,0,P|300:164|295:218,1,70,4|0,0:3|0:0,0:0:0:0:
206,232,66116,1,2,3:2:0:0:
206,232,66204,1,2,3:2:0:0:
206,232,66292,1,2,3:2:0:0:
206,232,66380,1,2,3:2:0:0:
206,232,66468,2,0,L|216:290,3,35,2|2|2|2,3:2|3:2|3:2|3:2,0:0:0:0:
210,306,66821,6,0,P|150:320|101:217,1,167.999994873047,4|10,3:2|0:2,0:0:0:0:
99,147,67351,2,0,P|47:135|5:136,1,83.9999974365235,2|0,0:2|3:0,0:0:0:0:
84,45,67704,1,2,3:2:0:0:
84,45,67880,1,8,0:2:0:0:
185,11,68057,2,0,P|201:91|280:126,1,167.999994873047,6|0,3:2|3:0,0:0:0:0:
352,68,68586,2,0,P|399:61|445:59,1,83.9999974365235,10|0,0:2|0:0,0:0:0:0:
401,155,68939,1,2,3:2:0:0:
401,155,69116,1,0,3:0:0:0:
452,242,69292,2,0,P|405:249|359:251,1,83.9999974365235,10|0,0:2|0:0,0:0:0:0:
304,337,69645,6,0,P|281:266|185:202,1,167.999994873047,4|8,3:2|0:2,0:0:0:0:
128,274,70174,2,0,P|72:277|23:284,1,83.9999974365235,2|0,0:2|3:0,0:0:0:0:
10,199,70527,1,2,3:2:0:0:
10,199,70704,1,8,0:2:0:0:
32,102,70880,6,0,B|112:105|97:182|199:178,1,167.999994873047,6|2,3:2|3:2,0:0:0:0:
242,106,71410,2,0,P|294:101|335:99,1,83.9999974365235,10|0,0:2|3:0,0:0:0:0:
413,55,71763,1,0,3:0:0:0:
413,55,71939,1,0,3:0:0:0:
409,142,72116,1,8,0:2:0:0:
358,226,72292,6,0,P|377:282|477:320,1,167.999994873047,6|2,3:2|3:2,0:0:0:0:
332,365,72821,2,0,P|285:370|230:377,1,83.9999974365235,8|2,0:2|0:0,0:0:0:0:
158,364,73174,1,0,3:0:0:0:
158,364,73351,1,2,3:2:0:0:
198,272,73527,1,8,0:2:0:0:
100,270,73704,6,0,P|52:264|16:150,1,167.999994873047,6|2,3:2|3:2,0:0:0:0:
66,78,74233,1,8,0:2:0:0:
66,78,74410,2,0,P|111:71|162:63,1,83.9999974365235,2|0,0:2|3:0,0:0:0:0:
212,139,74763,1,2,3:2:0:0:
306,165,74939,1,8,0:2:0:0:
332,264,75116,6,0,P|342:309|344:359,1,83.9999974365235,6|2,0:2|3:2,0:0:0:0:
436,372,75468,1,2,0:0:0:0:
436,372,75645,1,8,0:2:0:0:
495,283,75821,2,0,P|500:232|497:163,1,83.9999974365235,2|0,0:2|3:0,0:0:0:0:
420,145,76174,1,2,3:2:0:0:
456,53,76351,1,8,0:2:0:0:
357,34,76527,6,0,B|268:38|287:101|190:94,1,167.999994873047,4|0,3:2|3:0,0:0:0:0:
136,25,77057,2,0,P|86:34|34:55,1,83.9999974365235,8|0,0:2|3:0,0:0:0:0:
14,158,77410,2,0,P|76:164|120:175,1,83.9999974365235,2|0,3:2|3:0,0:0:0:0:
149,273,77763,5,10,0:2:0:0:
149,273,77851,1,8,0:3:0:0:
149,273,77939,1,4,0:3:0:0:
149,273,78027,1,4,0:3:0:0:
149,273,78116,2,0,B|211:267|211:267|245:288|245:288|319:276,1,167.999994873047,4|10,3:2|0:2,0:0:0:0:
411,224,78645,2,0,P|409:275|406:324,1,83.9999974365235,2|0,0:2|0:0,0:0:0:0:
321,163,78998,1,2,3:2:0:0:
321,163,79174,1,8,0:2:0:0:
397,101,79351,6,0,P|473:93|509:-4,1,167.999994873047,6|0,3:2|3:0,0:0:0:0:
417,0,79880,2,0,P|366:2|317:14,1,83.9999974365235,10|0,0:2|3:0,0:0:0:0:
259,82,80233,1,2,3:2:0:0:
259,82,80410,1,0,3:0:0:0:
160,52,80586,2,0,P|168:120|170:147,1,83.9999974365235,10|0,0:2|3:0,0:0:0:0:
133,235,80939,6,0,P|183:208|282:279,1,167.999994873047,4|4,3:2|0:3,0:0:0:0:
203,331,81468,2,0,L|208:384,1,41.9999987182618,14|0,0:2|0:0,0:0:0:0:
61,195,81821,2,0,L|12:172,1,41.9999987182618,14|0,0:2|0:0,0:0:0:0:
249,140,82174,2,0,L|292:109,1,41.9999987182618,14|0,0:2|0:0,0:0:0:0:
435,313,82527,5,2,3:2:0:0:
400,234,82704,1,10,0:2:0:0:
400,234,82880,1,2,3:2:0:0:
454,155,83057,2,0,P|461:106|463:64,1,83.9999974365235,10|0,0:2|3:0,0:0:0:0:
462,71,83321,1,0,3:0:0:0:
462,71,83410,1,8,0:3:0:0:
462,71,83498,1,4,0:3:0:0:
462,71,83586,1,0,3:0:0:0:
396,25,83763,6,0,B|313:28|334:92|228:92,1,167.999994873047,4|0,3:2|3:0,0:0:0:0:
112,123,84292,2,0,B|195:126|174:190|280:190,1,167.999994873047,12|0,0:2|3:0,0:0:0:0:
334,155,84821,1,8,0:2:0:0:
300,276,84998,2,0,P|352:242|388:234,1,83.9999974365235,4|0,3:2|0:0,0:0:0:0:
493,204,85351,2,0,P|441:170|405:162,1,83.9999974365235,4|0,3:2|0:0,0:0:0:0:
363,70,85704,2,0,B|383:136|344:153|374:242,1,167.999994873047,4|0,3:2|3:0,0:0:0:0:
450,322,86233,5,8,0:2:0:0:
450,322,86321,1,0,3:0:0:0:
450,322,86410,2,0,B|416:315|394:304,1,41.9999987182618,2|0,3:2|3:0,0:0:0:0:
378,340,86586,2,0,P|304:347|208:388,1,154.000004699707,4|8,3:2|0:2,0:0:0:0:
83,295,87292,2,0,P|78:247|78:218,1,77.0000023498536,0|2,3:0|3:2,0:0:0:0:
151,182,87645,1,8,0:2:0:0:
151,182,87821,1,2,0:0:0:0:
198,249,87998,6,0,P|195:166|204:70,1,154.000004699707,6|8,3:2|0:2,0:0:0:0:
383,0,88704,2,0,P|342:3|296:12,1,77.0000023498536,0|2,3:0|3:2,0:0:0:0:
356,81,89057,1,8,0:2:0:0:
356,81,89233,1,2,0:0:0:0:
279,104,89410,6,0,P|354:105|415:177,1,154.000004699707,4|8,3:2|0:2,0:0:0:0:
273,329,90116,2,0,P|266:280|280:231,1,77.0000023498536,0|2,3:0|3:2,0:0:0:0:
348,295,90468,1,8,0:2:0:0:
348,295,90645,6,0,P|263:297|177:299,1,154.000004699707,6|0,3:2|3:0,0:0:0:0:
138,370,91174,2,0,P|100:296|25:261,1,167.999994873047,12|0,0:2|3:0,0:0:0:0:
26,262,91704,1,0,3:0:0:0:
71,181,91880,1,8,0:2:0:0:
16,108,92057,1,0,3:0:0:0:
16,108,92233,1,4,3:2:0:0:
256,192,92410,12,2,94351,3:0:0:0:
288,104,95057,6,0,P|359:126|374:136,1,77.0000023498536,4|0,3:2|0:0,0:0:0:0:
206,142,95410,2,0,P|194:199|187:302,1,154.000004699707,10|2,0:2|3:2,0:0:0:0:
248,364,95939,1,2,3:2:0:0:
248,364,96116,1,8,0:2:0:0:
319,312,96292,6,0,P|378:306|487:317,1,154.000004699707,6|2,3:2|3:2,0:0:0:0:
470,203,96821,1,8,0:2:0:0:
380,213,96998,2,0,P|446:200|454:92,1,154.000004699707,2|2,0:2|3:2,0:0:0:0:
424,44,97527,1,10,0:2:0:0:
424,44,97704,1,2,0:2:0:0:
424,44,97880,6,0,P|371:37|322:39,1,77.0000023498536,4|0,3:2|0:0,0:0:0:0:
260,3,98233,2,0,P|253:65|177:133,1,154.000004699707,10|2,0:2|3:2,0:0:0:0:
116,77,98763,1,2,3:2:0:0:
116,77,98939,1,8,0:2:0:0:
39,111,99116,6,0,P|126:112|207:134,1,154.000004699707,6|2,3:2|3:2,0:0:0:0:
210,220,99645,1,8,0:2:0:0:
166,306,99821,2,0,P|204:310|242:307,1,77.0000023498536,2|0,0:2|3:0,0:0:0:0:
335,308,100174,1,2,3:2:0:0:
421,373,100351,1,10,0:2:0:0:
421,373,100439,1,0,0:0:0:0:
421,373,100527,1,2,0:2:0:0:
421,373,100616,1,0,0:0:0:0:
421,373,100704,6,0,P|429:302|441:265,1,77.0000023498536,6|2,3:2|0:2,0:0:0:0:
499,229,101057,1,2,3:2:0:0:
499,229,101233,2,0,P|487:172|391:152,1,154.000004699707,14|2,0:2|3:2,0:0:0:0:
431,54,101763,1,10,0:2:0:0:
431,54,101939,1,2,0:2:0:0:
347,22,102116,6,0,P|298:22|249:32,1,77.0000023498536,6|2,3:2|0:2,0:0:0:0:
203,75,102468,1,2,3:2:0:0:
129,147,102645,2,0,P|178:147|307:178,1,154.000004699707,14|2,0:2|3:2,0:0:0:0:
355,256,103174,2,0,P|306:256|257:266,1,77.0000023498536,14|2,0:2|3:2,0:0:0:0:
259,289,103439,1,0,3:0:0:0:
259,289,103527,6,0,P|256:334|257:378,1,77.0000023498536,12|0,0:2|3:0,0:0:0:0:
115,286,103880,2,0,P|76:286|38:283,1,77.0000023498536,12|0,0:2|3:0,0:0:0:0:
160,154,104233,5,8,0:3:0:0:
248,172,104410,1,4,0:3:0:0:
320,115,104586,1,0,3:0:0:0:
338,26,104763,2,0,P|376:13|475:80,1,154.000004699707,4|8,3:2|0:3,0:0:0:0:
485,157,105292,5,8,0:3:0:0:
485,157,105468,1,0,3:2:0:0:
415,240,105645,5,8,0:3:0:0:
415,240,105821,1,8,0:3:0:0:
483,317,105998,5,4,0:3:0:0:
483,317,106174,1,8,0:2:0:0:
483,317,107057,6,0,L|342:333,1,115.50000352478,4|0,3:2|0:0,0:0:0:0:
351,357,107410,2,0,L|210:341,1,115.50000352478,4|0,3:2|0:0,0:0:0:0:
205,324,107763,1,4,3:2:0:0:
256,192,107939,12,0,111998,0:0:0:0:
