osu file format v14

[General]
AudioFilename: audio.mp3
AudioLeadIn: 0
PreviewTime:66027
Countdown: 0
SampleSet: Soft
StackLeniency: 0.5
Mode: 0
LetterboxInBreaks: 0
WidescreenStoryboard: 1

[Editor]
DistanceSpacing: 1.4
BeatDivisor: 4
GridSize: 32
TimelineZoom: 2.3

[Metadata]
Title:Hikari no destination
TitleUnicode:ヒカリのdestination
Artist:illumination STARS
ArtistUnicode:イルミネーションスターズ
Creator:Acylica
Version:Heilia's Normal
Source:アイドルマスター シャイニーカラーズ
Tags:THE IDOLM@STER SHINY COLORS im@s imas アイマス シャニマス Shanimas BRILLI@NT WING 02 ヒカリのdestination 櫻木真乃 Sakuragi Mano 風野灯織 Kazano Hiori 八宮めぐる Hachimiya Meguru 峯田 茉優 Mineda Mayu 関根 瞳 Sekine Hitomi 近藤玲奈 Kondou Reina ioexception shizuku- niva senseabel heilia neoskylove affirmation af japanese female vocal idol video game pop jpop j-pop acyl
BeatmapID:2244369
BeatmapSetID:1062292

[Difficulty]
HPDrainRate:4
CircleSize:2.7
OverallDifficulty:4
ApproachRate:5
SliderMultiplier:1.2
SliderTickRate:1

[Events]
//Background and Video events
0,0,"stickbug.jpg"
//Break Periods
//Storyboard Layer 0 (Background)
//Storyboard Layer 1 (Fail)
//Storyboard Layer 2 (Pass)
//Storyboard Layer 3 (Foreground)
//Storyboard Layer 4 (Overlay)
//Storyboard Sound Samples

[TimingPoints]
469,352.941176470588,4,2,1,35,1,0
7527,-100,4,2,1,45,0,0
10704,-100,4,2,1,46,0,0
10880,-100,4,2,1,47,0,0
11057,-100,4,2,1,48,0,0
11233,-100,4,2,1,49,0,0
11410,-100,4,2,1,50,0,0
11586,-100,4,2,1,55,0,0
15998,-100,4,2,1,60,0,0
26586,-100,4,2,1,58,0,0
26939,-100,4,2,1,55,0,0
27292,-100,4,2,1,45,0,0
27645,-100,4,2,1,45,0,0
38586,-100,4,2,1,58,0,0
49880,-100,4,2,1,55,0,0
55527,-100,4,2,1,50,0,0
58704,-100,4,2,1,45,0,0
59057,-100,4,2,1,55,0,0
61174,-100,4,2,1,55,0,0
66821,-100,4,2,1,80,0,0
93998,-100,4,2,1,60,0,0
95057,-100,4,2,1,60,0,0
107410,-100,4,2,1,58,0,0
107763,-100,4,2,1,55,0,0
111998,-100,4,2,1,55,0,0

[Colours]
Combo1 : 255,206,238
Combo2 : 200,244,183
Combo3 : 250,193,167

[HitObjects]
139,303,1880,6,0,B|111:288|111:288|58:306,2,60,6|2|2,0:2|0:2|0:0,0:0:0:0:
213,343,2410,2,0,P|281:319|369:352,2,120,2|2|2,0:2|0:0|0:2,0:0:0:0:
139,303,3292,1,0,0:0:0:0:
229,161,3645,6,0,L|58:155,2,120,2|2|2,0:2|0:2|0:2,0:0:0:0:
373,73,4704,2,0,P|406:150|383:201,1,120,2|2,0:2|0:0,0:0:0:0:
313,197,5233,2,0,P|280:120|303:69,1,120,2|2,0:2|0:2,0:0:0:0:
126,70,5939,5,2,0:2:0:0:
126,70,6116,2,0,B|64:118|64:118|128:316,1,240,2|0,0:2|0:0,0:0:0:0:
443,335,7527,6,0,P|338:328|192:365,1,240,6|0,3:2|0:0,0:0:0:0:
189,22,8939,2,0,P|294:29|440:-8,1,240,6|0,3:2|0:0,0:0:0:0:
197,247,10351,6,0,P|164:168|26:171,1,240,6|0,3:2|3:0,0:0:0:0:
168,379,11586,2,0,L|317:368,1,120,12|12,0:2|0:2,0:0:0:0:
372,362,12116,1,12,0:2:0:0:
372,362,13174,6,0,B|423:284|423:284|386:205,2,180,4|8|8,3:2|0:3|0:3,0:0:0:0:
229,272,14586,2,0,P|152:252|63:313,1,180,4|2,3:2|3:0,0:0:0:0:
2,251,15292,2,0,L|11:139,1,60,4|4,0:3|0:3,0:0:0:0:
14,107,15645,2,0,L|23:-5,1,60,8|8,0:3|0:3,0:0:0:0:
91,4,15998,6,0,B|146:33|146:33|213:13,1,120,6|10,3:2|0:2,0:0:0:0:
225,183,16704,1,2,3:2:0:0:
225,183,16880,2,0,L|235:283,1,60,2|8,3:2|0:2,0:0:0:0:
188,315,17233,2,0,P|250:280|318:325,1,120,6|2,3:2|3:2,0:0:0:0:
445,362,17939,2,0,L|454:209,1,120,2|2,0:2|3:2,0:0:0:0:
509,180,18468,2,0,P|509:136|456:104,1,60,10|2,0:2|0:2,0:0:0:0:
505,39,18821,6,0,B|469:81|469:81|367:59,1,120,4|10,3:2|0:2,0:0:0:0:
251,127,19527,1,2,3:2:0:0:
251,127,19704,2,0,L|239:223,1,60,2|8,3:2|0:2,0:0:0:0:
305,243,20057,2,0,P|247:231|198:262,1,120,6|2,3:2|3:2,0:0:0:0:
110,117,20763,2,0,L|32:110,1,60,2|0,0:2|3:0,0:0:0:0:
62,31,21116,1,2,3:2:0:0:
62,31,21292,2,0,L|121:36,1,60,10|2,0:2|3:2,0:0:0:0:
189,86,21645,6,0,L|380:101,1,180,6|14,3:2|0:2,0:0:0:0:
362,268,22527,2,0,L|421:264,2,60,2|10|2,3:2|0:2|0:2,0:0:0:0:
301,327,23057,6,0,L|290:137,1,180,6|14,3:2|0:2,0:0:0:0:
130,96,23939,2,0,L|123:36,2,60,2|14|2,3:2|0:2|3:2,0:0:0:0:
191,153,24468,6,0,P|131:181|70:157,1,120,12|12,0:2|0:2,0:0:0:0:
45,331,25174,2,0,L|152:320,1,60,8|4,0:3|0:3,0:0:0:0:
192,321,25527,1,0,3:0:0:0:
192,321,25704,1,4,3:2:0:0:
439,363,26233,2,0,L|451:270,1,60,8|8,0:3|0:2,0:0:0:0:
485,228,26586,2,0,B|438:264|438:264|361:231,2,120,4|4|6,3:2|3:2|3:2,0:0:0:0:
497,59,27645,6,0,P|448:18|379:38,1,120,2|2,3:2|3:2,0:0:0:0:
329,77,28174,1,2,0:0:0:0:
329,77,28351,2,0,L|224:70,1,60,2|2,3:2|0:0,0:0:0:0:
218,143,28704,2,0,P|217:83|197:28,1,120,2|2,3:2|3:2,0:0:0:0:
113,41,29233,2,0,P|114:101|135:157,1,120,2|2,0:0|0:0,0:0:0:0:
185,225,29763,2,0,L|177:304,1,60,4|2,0:3|3:2,0:0:0:0:
131,354,30116,6,0,B|168:327|168:327|289:362,1,120,8|2,3:0|3:2,0:0:0:0:
400,299,30821,2,0,L|408:227,1,60,2|2,3:2|0:0,0:0:0:0:
490,251,31174,2,0,L|482:323,1,60,2|2,3:2|0:0,0:0:0:0:
430,376,31527,6,0,P|354:342|311:359,1,120,2|2,3:2|3:2,0:0:0:0:
239,347,32057,2,0,P|205:271|222:228,1,120,2|2,0:0|3:2,0:0:0:0:
153,181,32586,2,0,L|159:106,1,60,8|2,0:3|3:0,0:0:0:0:
235,89,32939,6,0,L|375:72,1,120,10|2,3:0|3:2,0:0:0:0:
506,3,33645,2,0,L|495:87,2,60,2|0|2,3:2|3:0|3:2,0:0:0:0:
444,159,34351,2,0,L|428:291,1,120,2|2,3:2|0:0,0:0:0:0:
474,349,34880,6,0,P|385:324|342:340,1,120,2|2,0:0|0:0,0:0:0:0:
290,377,35410,2,0,P|271:336|276:296,1,60,4|2,0:3|3:2,0:0:0:0:
324,256,35763,2,0,P|354:176|335:124,1,120,2|2,3:2|3:2,0:0:0:0:
192,78,36468,2,0,P|161:157|180:209,1,120,2|2,3:2|3:2,0:0:0:0:
270,321,37174,6,0,B|221:284|221:284|165:310,1,120,2|0,3:2|3:0,0:0:0:0:
92,341,37704,1,2,0:2:0:0:
92,341,37880,2,0,L|87:260,1,60,8|2,0:3|3:2,0:0:0:0:
82,197,38233,2,0,L|77:116,1,60,8|2,0:3|3:0,0:0:0:0:
21,74,38586,6,0,P|91:89|144:52,1,120,4|10,3:2|0:2,0:0:0:0:
252,183,39292,2,0,L|246:261,1,60,2|2,3:2|3:2,0:0:0:0:
331,253,39645,2,0,L|335:194,1,60,10|2,0:2|0:2,0:0:0:0:
307,113,39998,6,0,B|356:147|356:147|426:127,1,120,2|10,3:2|0:2,0:0:0:0:
481,288,40704,2,0,L|416:296,1,60,0|2,3:0|3:2,0:0:0:0:
369,361,41057,2,0,P|338:344|295:349,1,60,8|2,0:2|3:2,0:0:0:0:
232,365,41410,6,0,L|222:232,1,120,2|10,3:2|0:2,0:0:0:0:
82,152,42116,2,0,L|4:159,1,60,2|2,3:2|3:2,0:0:0:0:
31,240,42468,2,0,L|90:234,1,60,10|2,0:2|0:0,0:0:0:0:
158,183,42821,6,0,P|234:189|280:152,1,120,2|10,3:2|0:2,0:0:0:0:
378,293,43527,2,0,L|384:233,1,60,0|2,3:0|3:2,0:0:0:0:
448,178,43880,2,0,L|437:80,1,60,8|2,0:2|0:0,0:0:0:0:
460,36,44233,6,0,P|419:78|360:83,1,120,4|10,3:2|0:2,0:0:0:0:
257,216,44939,2,0,L|269:287,1,60,2|2,3:2|3:2,0:0:0:0:
275,358,45292,1,10,0:2:0:0:
438,321,45645,2,0,B|472:268|472:268|451:211,1,120,2|8,3:2|0:2,0:0:0:0:
385,163,46174,2,0,B|366:109|366:109|400:56,1,120,2|2,0:0|3:2,0:0:0:0:
324,17,46704,2,0,P|294:20|268:34,1,60,10|2,0:2|3:2,0:0:0:0:
191,0,47057,6,0,B|227:48|227:48|212:106,1,120,6|2,3:2|3:2,0:0:0:0:
129,124,47586,2,0,B|93:76|93:76|107:17,1,120,14|2,0:2|3:2,0:0:0:0:
22,12,48116,2,0,L|6:82,1,60,8|2,0:2|3:2,0:0:0:0:
37,149,48468,6,0,P|51:215|45:268,1,120,4|0,3:2|3:0,0:0:0:0:
0,338,48998,2,0,P|55:317|115:315,1,120,8|0,0:2|3:0,0:0:0:0:
186,361,49527,2,0,L|264:350,1,60,4|8,3:3|3:3,0:0:0:0:
322,317,49880,6,0,B|347:240|347:240|303:196,1,120,6|2,3:2|3:2,0:0:0:0:
164,164,50586,1,2,0:0:0:0:
164,164,50763,2,0,L|169:223,1,60,12|0,0:2|3:0,0:0:0:0:
244,262,51116,2,0,L|64:277,1,180,12|8,0:2|0:3,0:0:0:0:
45,114,51998,1,8,0:3:0:0:
45,114,52174,2,0,L|38:43,2,60,4|8|4,0:3|0:3|0:3,0:0:0:0:
8,190,52704,6,0,P|61:160|123:170,1,120,6|2,3:2|3:2,0:0:0:0:
286,208,53410,1,2,0:0:0:0:
286,208,53586,2,0,L|280:284,1,60,12|0,0:2|3:0,0:0:0:0:
341,327,53939,2,0,B|151:312,1,180,12|8,0:2|0:3,0:0:0:0:
236,164,54821,1,4,0:3:0:0:
236,164,54998,2,0,L|309:171,2,60,8|4|0,0:3|0:3|3:0,0:0:0:0:
151,159,55527,6,0,P|250:139|274:16,1,240,4|8,3:2|0:2,0:0:0:0:
14,230,56939,2,0,P|57:333|170:327,1,240,2|8,0:0|0:2,0:0:0:0:
334,366,57998,2,0,L|394:358,1,60,4|2,3:2|0:0,0:0:0:0:
477,346,58351,5,4,3:2:0:0:
286,0,59763,1,4,3:2:0:0:
58,334,61174,6,0,P|117:335|173:315,1,120,12|0,0:2|3:0,0:0:0:0:
243,363,61704,2,0,P|262:306|260:246,1,120,12|0,0:2|3:0,0:0:0:0:
328,196,62233,2,0,P|280:159|223:143,1,120,12|0,0:2|3:0,0:0:0:0:
195,63,62763,2,0,P|145:97|112:146,1,120,12|0,0:2|3:0,0:0:0:0:
86,226,63292,6,0,L|173:231,1,60,12|0,0:2|3:0,0:0:0:0:
229,236,63645,2,0,L|316:241,1,60,12|0,0:2|3:0,0:0:0:0:
372,245,63998,6,0,P|382:196|378:180,1,60,8|4,0:2|3:2,0:0:0:0:
500,69,64527,2,0,P|452:84|440:96,1,60,12|4,0:2|3:2,0:0:0:0:
284,62,65057,5,12,0:2:0:0:
284,62,65233,2,0,P|212:57|166:105,1,120,12|8,0:2|0:3,0:0:0:0:
243,137,65763,1,4,0:3:0:0:
127,256,66116,6,0,L|118:177,1,60,2|2,3:2|3:2,0:0:0:0:
36,205,66468,2,0,L|45:284,1,60,2|2,3:2|3:2,0:0:0:0:
88,335,66821,6,0,P|156:303|234:339,1,120,4|10,3:2|0:2,0:0:0:0:
349,383,67527,1,0,3:0:0:0:
349,383,67704,2,0,L|341:300,1,60,2|8,3:2|0:2,0:0:0:0:
377,246,68057,2,0,B|349:286|349:286|244:262,1,120,6|0,3:2|3:0,0:0:0:0:
232,200,68586,5,10,0:2:0:0:
342,73,68939,2,0,P|279:96|199:51,1,120,2|10,3:2|0:2,0:0:0:0:
72,23,69645,6,0,B|43:56|43:56|67:156,1,120,4|8,3:2|0:2,0:0:0:0:
43,212,70174,2,0,P|86:168|154:192,1,120,2|2,0:2|3:2,0:0:0:0:
289,253,70880,2,0,L|426:268,1,120,6|2,3:2|3:2,0:0:0:0:
466,203,71410,1,10,0:2:0:0:
424,130,71586,2,0,B|375:165|375:165|206:149,1,180,0|8,3:0|0:2,0:0:0:0:
212,315,72468,6,0,L|42:308,1,120,4|8,3:2|0:2,0:0:0:0:
54,233,72998,2,0,B|39:208|39:208|60:110,1,120,2|2,0:0|3:2,0:0:0:0:
76,37,73527,1,8,0:2:0:0:
236,87,73880,6,0,P|305:97|351:53,1,120,2|8,0:0|0:2,0:0:0:0:
413,23,74410,2,0,B|387:78|387:78|419:146,1,120,2|2,0:2|3:2,0:0:0:0:
456,203,74939,1,8,0:2:0:0:
338,320,75292,6,0,P|266:299|200:303,1,120,4|8,3:2|0:2,0:0:0:0:
140,321,75821,2,0,P|102:294|118:215,1,120,2|2,0:2|3:2,0:0:0:0:
68,153,76351,1,8,0:2:0:0:
68,153,76527,6,0,B|106:209|106:209|248:192,1,180,4|8,3:2|0:2,0:0:0:0:
339,311,77410,2,0,L|346:240,1,60,2|0,3:2|3:0,0:0:0:0:
353,167,77763,2,0,L|360:96,1,60,10|4,0:2|0:3,0:0:0:0:
402,35,78116,6,0,P|339:65|264:38,1,120,4|10,3:2|0:2,0:0:0:0:
166,167,78821,1,0,0:0:0:0:
166,167,78998,2,0,L|158:250,1,60,2|8,3:2|0:2,0:0:0:0:
199,301,79351,2,0,B|160:266|160:266|90:281,1,120,6|0,3:2|3:0,0:0:0:0:
11,298,79880,5,10,0:2:0:0:
156,377,80233,2,0,P|212:349|278:373,1,120,2|10,3:2|0:2,0:0:0:0:
394,257,80939,6,0,L|402:137,1,120,4|4,3:2|0:3,0:0:0:0:
317,130,81468,2,0,L|308:249,1,120,14|14,0:2|0:2,0:0:0:0:
152,291,82174,6,0,P|106:229|41:238,1,120,14|2,0:2|3:2,0:0:0:0:
15,159,82704,1,10,0:2:0:0:
53,84,82880,2,0,L|209:69,1,120,2|0,3:2|3:0,0:0:0:0:
241,122,83410,2,0,L|339:132,1,60,8|0,0:3|3:0,0:0:0:0:
370,175,83763,6,0,P|341:108|371:42,1,120,4|0,3:2|3:0,0:0:0:0:
436,54,84292,2,0,P|465:121|435:187,1,120,12|0,0:2|3:0,0:0:0:0:
397,322,84998,2,0,L|243:313,2,120,4|4|4,3:2|3:2|3:2,0:0:0:0:
453,163,86057,1,0,3:0:0:0:
453,163,86233,2,0,L|438:74,1,60,8|2,0:2|3:2,0:0:0:0:
429,20,86586,6,0,P|359:29|313:80,1,120,4|8,3:2|0:2,0:0:0:0:
309,144,87116,2,0,B|272:177|272:177|160:151,1,120,2|2,0:0|3:2,0:0:0:0:
43,110,87821,5,2,0:0:0:0:
3,184,87998,2,0,L|18:350,1,120,6|8,3:2|0:2,0:0:0:0:
96,318,88527,2,0,B|131:349|131:349|229:318,1,120,2|2,0:2|3:2,0:0:0:0:
354,253,89233,5,2,0:0:0:0:
354,253,89410,2,0,L|364:104,1,120,4|8,3:2|0:2,0:0:0:0:
446,138,89939,2,0,L|437:286,1,120,2|2,0:2|3:2,0:0:0:0:
302,357,90645,6,0,L|106:345,1,180,6|12,3:2|0:2,0:0:0:0:
123,347,92233,6,0,P|172:289|305:322,1,180,4|0,3:2|3:0,0:0:0:0:
353,277,92939,2,0,P|385:217|332:142,1,120,4|8,0:3|0:2,0:0:0:0:
437,15,93645,6,0,B|389:62|389:62|251:30,1,180,4|2,3:2|3:2,0:0:0:0:
195,30,94351,2,0,P|233:83|189:194,1,180,2|8,3:0|0:0,0:0:0:0:
124,219,95057,6,0,B|139:378,1,120,4|10,3:2|0:2,0:0:0:0:
299,376,95763,1,2,3:2:0:0:
299,376,95939,2,0,L|289:276,1,60,2|8,3:2|0:2,0:0:0:0:
334,242,96292,2,0,P|272:277|204:232,1,120,6|2,3:2|3:2,0:0:0:0:
110,143,96998,2,0,B|81:93|81:93|97:26,1,120,2|2,0:2|3:2,0:0:0:0:
174,3,97527,2,0,L|264:10,1,60,10|2,0:2|0:2,0:0:0:0:
299,60,97880,6,0,B|358:81|358:81|411:43,1,120,4|10,3:2|0:2,0:0:0:0:
408,220,98586,1,2,3:2:0:0:
408,220,98763,2,0,L|396:316,1,60,2|8,3:2|0:2,0:0:0:0:
464,333,99116,2,0,P|406:321|357:352,1,120,6|2,3:2|3:2,0:0:0:0:
207,277,99822,2,0,L|285:270,1,60,2|0,0:2|3:0,0:0:0:0:
263,187,100175,1,2,3:2:0:0:
263,187,100351,2,0,L|204:192,1,60,10|2,0:2|0:2,0:0:0:0:
119,197,100704,6,0,L|108:7,1,180,6|14,3:2|0:2,0:0:0:0:
271,59,101586,2,0,L|276:-12,2,60,2|10|2,3:2|0:2|0:2,0:0:0:0:
355,59,102116,6,0,L|344:249,1,180,6|14,3:2|0:2,0:0:0:0:
180,273,102998,2,0,L|93:263,2,60,2|14|2,3:2|0:2|3:2,0:0:0:0:
240,331,103527,6,0,P|264:262|209:194,1,120,12|12,0:2|0:2,0:0:0:0:
113,119,104233,2,0,L|220:130,1,60,8|4,0:3|0:3,0:0:0:0:
256,133,104586,1,0,3:0:0:0:
256,133,104763,1,4,3:2:0:0:
400,338,105292,6,0,P|363:339|307:350,1,60,8|0,0:3|3:2,0:0:0:0:
294,273,105645,2,0,P|263:293|220:330,1,60,8|8,0:3|0:3,0:0:0:0:
166,278,105998,2,0,P|150:311|131:364,1,60,4|8,0:3|0:2,0:0:0:0:
454,52,107057,6,0,B|401:17|401:17|346:83,2,120,4|4|4,3:2|3:2|3:2,0:0:0:0:
256,192,107851,12,0,111998,0:0:0:0:
