osu file format v14

[General]
AudioFilename: audio.mp3
AudioLeadIn: 0
PreviewTime: 101651
Countdown: 0
SampleSet: Soft
StackLeniency: 0.7
Mode: 0
LetterboxInBreaks: 0
WidescreenStoryboard: 0

[Editor]
Bookmarks: 22815,33724,55543,66452,77361,83497,88270,101906,112815,123724,134634,156452,178270,189179,200088,210997
DistanceSpacing: 1
BeatDivisor: 4
GridSize: 32
TimelineZoom: 1.300001

[Metadata]
Title:AIWAGUMA
TitleUnicode:AIWAGUMA
Artist:illion
ArtistUnicode:illion
Creator:Ellyu
Version:Pata-Mon's Normal
Source:
Tags:UBU Yojiro Noda 野田洋次郎 Folk Rock _Yiiiii Pata-Mon Tenshichan Superstar Tofu1222 Antalf handsome muscle
BeatmapID:1243510
BeatmapSetID:533037

[Difficulty]
HPDrainRate:4
CircleSize:3.5
OverallDifficulty:4
ApproachRate:5
SliderMultiplier:1.1
SliderTickRate:1

[Events]
//Background and Video events
0,0,"49389130_p0.png",0,0
//Break Periods
2,135174,136161
2,137901,138888
2,140628,141615
2,143355,144343
//Storyboard Layer 0 (Background)
//Storyboard Layer 1 (Fail)
//Storyboard Layer 2 (Pass)
//Storyboard Layer 3 (Foreground)
//Storyboard Sound Samples
Sample,100202,0,"soft-hitclap10.wav",70
Sample,100543,0,"soft-hitclap11.wav",70

[TimingPoints]
-366,340.909090909091,4,2,1,30,1,0
997,-125,4,2,1,30,0,0
3724,-125,4,2,2,30,0,0
3810,-125,4,2,1,30,0,0
9179,-125,4,2,2,30,0,0
9265,-125,4,2,1,30,0,0
11565,-125,4,2,99,25,0,0
11651,-111.111111111111,4,2,1,40,0,0
21963,-111.111111111111,4,2,4,40,0,0
22474,-111.111111111111,4,2,99,25,0,0
22560,-111.111111111111,4,2,4,50,0,0
22815,-100,4,2,4,50,0,0
77361,-100,4,2,5,50,0,0
87503,-100,4,2,10,50,0,0
88270,-100,4,2,4,50,0,0
101906,-100,4,2,4,50,0,0
123724,-100,4,2,4,50,0,0
134634,-100,4,2,4,30,0,0
145543,-100,4,2,4,50,0,0
155685,-100,4,2,10,30,0,0
156281,-100,4,2,10,60,0,0
156452,-100,4,2,4,60,0,0
211082,-100,4,2,4,40,0,0
211679,-100,4,2,0,50,0,0
212361,-100,4,2,0,50,0,0
213043,-100,4,2,0,50,0,0
213724,-100,4,2,0,50,0,0
220884,389.61038961039,4,2,1,50,1,0
221224,340.909090909091,4,2,1,50,1,0
221735,389.61038961039,4,2,1,50,1,0

[Colours]
Combo1 : 193,124,239
Combo2 : 112,252,231
Combo3 : 0,105,234
Combo4 : 180,183,241
Combo5 : 251,89,239

[HitObjects]
80,89,997,6,0,P|139:65|231:63,1,132,2|0,0:0|0:0,0:0:0:0:
240,87,1679,2,0,P|299:86|350:80,1,88,0|0,0:0|0:0,0:0:0:0:
405,124,2361,2,0,P|407:164|404:229,1,88,2|0,0:0|0:0,0:0:0:0:
385,251,2872,1,0,0:0:0:0:
385,251,3043,2,0,P|326:250|275:244,1,88,0|0,0:0|0:0,0:0:0:0:
247,175,3724,6,0,P|126:224|141:310,1,176,2|0,0:0|0:0,0:0:0:0:
209,254,4747,2,0,L|207:306,1,44,0|0,0:0|0:0,0:0:0:0:
182,334,5088,2,0,P|128:354|62:334,2,88,2|0|0,0:0|0:0|0:0,0:0:0:0:
256,285,6111,1,0,0:0:0:0:
330,334,6452,6,0,P|384:354|450:334,1,88,2|0,0:0|0:0,0:0:0:0:
450,328,6963,1,0,0:0:0:0:
450,328,7134,2,0,P|440:288|438:215,1,88,0|0,0:0|0:0,0:0:0:0:
475,162,7815,2,0,P|471:118|461:75,1,88,2|0,0:0|0:0,0:0:0:0:
437,38,8327,1,0,0:0:0:0:
437,38,8497,2,0,L|334:45,1,88,0|0,0:0|0:0,0:0:0:0:
278,96,9179,6,0,L|175:89,2,88,2|0|0,0:0|0:0|0:0,0:0:0:0:
359,132,10202,2,0,P|365:159|361:206,1,44,0|0,0:0|0:0,0:0:0:0:
347,215,10543,2,0,P|346:254|360:320,1,88,2|0,0:0|0:0,0:0:0:0:
442,305,11224,2,0,P|443:266|429:200,1,88,0|4,0:0|0:0,0:0:0:0:
392,127,11906,5,6,0:0:0:0:
296,152,12247,1,0,0:0:0:0:
202,118,12588,2,0,P|150:119|67:139,1,98.9999969787599,0|0,0:0|0:0,0:0:0:0:
48,209,13270,2,0,L|49:290,2,49.4999984893799,0|0|0,0:0|0:0|0:0,0:0:0:0:
147,216,13952,2,0,P|148:280|141:344,1,98.9999969787599,8|0,0:0|0:0,0:0:0:0:
175,354,14463,1,0,0:0:0:0:
175,354,14634,6,0,P|226:355|305:342,1,98.9999969787599,2|0,0:0|0:0,0:0:0:0:
304,310,15145,2,0,P|355:309|434:322,1,98.9999969787599,0|0,0:0|0:0,0:0:0:0:
450,327,15656,1,0,0:0:0:0:
505,245,15997,2,0,P|512:208|510:131,2,98.9999969787599,2|0|8,0:0|0:0|0:0,0:0:0:0:
450,327,17020,1,0,0:0:0:0:
368,272,17361,5,2,0:0:0:0:
286,327,17702,1,2,0:0:0:0:
231,245,18043,2,0,P|223:208|226:131,1,98.9999969787599,0|0,0:0|0:0,0:0:0:0:
283,68,18724,2,0,L|282:7,2,49.4999984893799,0|0|0,0:0|0:0|0:0,0:0:0:0:
184,56,19406,2,0,P|136:58|55:75,1,98.9999969787599,8|0,0:0|0:0,0:0:0:0:
18,139,20088,6,0,L|25:279,1,98.9999969787599,2|0,0:0|0:0,0:0:0:0:
53,276,20599,2,0,P|101:284|151:286,1,98.9999969787599,0|0,0:0|0:0,0:0:0:0:
201,286,21111,1,0,0:0:0:0:
248,199,21452,2,0,P|296:191|346:189,1,98.9999969787599,2|0,0:0|0:0,0:0:0:0:
395,198,21963,1,8,0:0:0:0:
395,198,22134,2,0,L|407:282,1,49.4999984893799,8|0,0:0|0:0,0:0:0:0:
445,270,22474,2,0,L|457:354,1,49.4999984893799,4|0,0:0|0:0,0:0:0:0:
418,362,22815,6,0,P|370:370|305:369,1,110,14|0,0:0|0:0,0:0:0:0:
203,338,23497,1,0,0:0:0:0:
225,230,23838,2,0,P|225:163|207:89,1,110,8|0,0:0|0:0,0:0:0:0:
177,18,24520,1,0,0:0:0:0:
108,103,24861,2,0,P|108:170|126:244,1,110,8|0,0:0|0:0,0:0:0:0:
156,315,25543,6,0,L|278:308,1,110,10|0,0:0|0:0,0:0:0:0:
376,303,26224,1,0,0:0:0:0:
444,216,26565,2,0,P|451:170|429:70,1,110,8|0,0:0|0:0,0:0:0:0:
386,13,27247,1,0,0:0:0:0:
280,43,27588,2,0,L|184:35,1,55,8|0,0:0|0:0,0:0:0:0:
175,62,27929,2,0,L|79:54,1,55,0|0,0:0|0:0,0:0:0:0:
70,81,28270,6,0,P|51:128|49:206,1,110,2|0,0:0|0:0,0:0:0:0:
66,295,28952,2,0,L|210:307,1,110,10|0,0:0|0:0,0:0:0:0:
226,283,29463,1,8,0:0:0:0:
226,283,29634,2,0,L|370:295,1,110,2|8,0:0|0:0,0:0:0:0:
416,217,30315,2,0,L|419:83,1,110,10|0,0:0|0:0,0:0:0:0:
313,75,30997,6,0,L|310:209,2,110,2|0|10,0:0|0:0|0:0,0:0:0:0:
410,22,32020,1,0,0:0:0:0:
435,129,32361,2,0,L|432:263,1,110,2|8,0:0|0:0,0:0:0:0:
385,338,33043,2,0,P|328:352|249:359,1,110,8|4,0:0|0:0,0:0:0:0:
167,358,33724,6,0,P|112:351|59:337,1,110,6|0,0:0|0:0,0:0:0:0:
13,306,34236,1,8,0:0:0:0:
13,306,34406,2,0,P|25:247|28:163,1,110,8|0,0:0|0:0,0:0:0:0:
13,88,35088,2,0,P|66:31|175:37,2,110,2|0|8,0:0|0:0|0:0,0:0:0:0:
29,198,36111,1,0,0:0:0:0:
115,129,36452,6,0,P|168:120|238:122,1,110,2|0,0:0|0:0,0:0:0:0:
265,157,36963,1,8,0:0:0:0:
265,157,37134,2,0,P|319:157|374:148,1,110,8|0,0:0|0:0,0:0:0:0:
460,79,37815,1,2,0:0:0:0:
477,188,38156,1,8,0:0:0:0:
494,297,38497,2,0,P|441:306|371:304,1,110,8|0,0:0|0:0,0:0:0:0:
284,260,39179,6,0,P|230:260|175:269,1,110,2|0,0:0|0:0,0:0:0:0:
133,305,39690,1,8,0:0:0:0:
133,305,39861,2,0,P|79:305|24:296,1,110,8|0,0:0|0:0,0:0:0:0:
4,244,40372,1,8,0:0:0:0:
4,244,40543,2,0,L|15:134,2,110,2|8|8,0:0|0:0|0:0,0:0:0:0:
113,232,41565,2,0,L|118:177,1,55,8|0,0:0|0:0,0:0:0:0:
126,122,41906,5,6,0:0:0:0:
215,57,42247,2,0,P|261:54|325:57,1,110,0|2,0:0|0:0,0:0:0:0:
397,140,42929,2,0,P|443:137|507:140,1,110,4|6,0:0|0:0,0:0:0:0:
494,249,43611,2,0,P|448:252|384:249,1,110,8|6,0:0|0:0,0:0:0:0:
280,210,44293,1,8,0:0:0:0:
175,249,44634,6,0,P|120:252|65:248,1,110,6|0,0:0|0:0,0:0:0:0:
52,139,45315,2,0,P|106:135|161:139,1,110,8|0,0:0|0:0,0:0:0:0:
214,155,45827,1,8,0:0:0:0:
214,155,45997,2,0,L|349:154,1,110,2|0,0:0|0:0,0:0:0:0:
427,115,46679,2,0,P|430:185|361:258,1,110,8|0,0:0|0:0,0:0:0:0:
366,249,47190,1,8,0:0:0:0:
366,249,47361,6,0,L|231:250,1,110,2|0,0:0|0:0,0:0:0:0:
176,172,48043,2,0,L|41:173,1,110,2|0,0:0|0:0,0:0:0:0:
27,212,48554,1,8,0:0:0:0:
27,212,48724,2,0,P|14:273|29:358,1,110,2|0,0:0|0:0,0:0:0:0:
111,378,49406,2,0,L|246:377,1,110,8|0,0:0|0:0,0:0:0:0:
319,327,50088,6,0,P|332:266|317:181,1,110,2|0,0:0|0:0,0:0:0:0:
237,156,50770,2,0,P|224:95|239:10,1,110,2|0,0:0|0:0,0:0:0:0:
263,6,51281,1,8,0:0:0:0:
263,6,51452,2,0,L|394:12,2,110,2|8|2,0:0|0:0|0:0,0:0:0:0:
154,23,52474,1,0,0:0:0:0:
96,116,52815,6,0,P|95:165|124:272,1,110,2|0,0:0|0:0,0:0:0:0:
163,318,53497,2,0,L|312:311,1,110,8|0,0:0|0:0,0:0:0:0:
316,278,54009,1,8,0:0:0:0:
316,278,54179,2,0,L|395:284,1,55,2|0,0:0|0:0,0:0:0:0:
405,325,54520,2,0,L|484:319,1,55,2|0,0:0|0:0,0:0:0:0:
498,281,54861,2,0,P|506:235|504:127,1,110,8|4,0:0|0:0,0:0:0:0:
468,69,55543,6,0,L|330:62,1,110,6|0,0:0|0:0,0:0:0:0:
312,93,56054,1,8,0:0:0:0:
312,93,56224,2,0,L|174:86,1,110,8|0,0:0|0:0,0:0:0:0:
185,196,56906,2,0,L|323:203,1,110,2|8,0:0|0:0,0:0:0:0:
335,239,57417,1,8,0:0:0:0:
335,239,57588,2,0,L|473:246,1,110,2|8,0:0|0:0,0:0:0:0:
428,354,58270,6,0,L|290:347,1,110,2|0,0:0|0:0,0:0:0:0:
272,378,58781,1,8,0:0:0:0:
272,378,58952,2,0,L|134:371,1,110,2|0,0:0|0:0,0:0:0:0:
52,358,59634,2,0,P|38:305|47:207,1,110,2|8,0:0|0:0,0:0:0:0:
81,217,60145,1,8,0:0:0:0:
81,217,60315,2,0,P|95:164|86:66,1,110,2|8,0:0|0:0,0:0:0:0:
173,31,60997,6,0,L|328:40,1,110,2|0,0:0|0:0,0:0:0:0:
333,14,61509,2,0,L|410:9,1,55,8|8,0:0|0:0,0:0:0:0:
411,117,62020,2,0,L|334:122,1,55,8|0,0:0|0:0,0:0:0:0:
312,154,62361,2,0,P|299:213|304:315,1,110,2|0,0:0|0:0,0:0:0:0:
351,358,63043,1,2,0:0:0:0:
351,358,63213,2,0,L|233:362,1,110,8|8,0:0|0:0,0:0:0:0:
193,333,63724,6,0,L|75:329,1,110,2|8,0:0|0:0,0:0:0:0:
27,326,64236,1,8,0:0:0:0:
27,326,64406,2,0,P|14:270|16:204,1,110,2|8,0:0|0:0,0:0:0:0:
47,112,65088,2,0,L|165:116,1,110,2|0,0:0|0:0,0:0:0:0:
200,149,65599,1,8,0:0:0:0:
200,149,65770,2,0,L|318:145,1,110,8|8,0:0|0:0,0:0:0:0:
399,80,66452,6,0,P|449:77|541:117,2,110,6|0|8,0:0|0:0|0:0,0:0:0:0:
310,145,67474,2,0,L|314:206,1,55,0|0,0:0|0:0,0:0:0:0:
281,244,67815,2,0,P|228:259|173:257,2,110,2|8|2,0:0|0:0|0:0,0:0:0:0:
389,266,68838,2,0,L|393:327,1,55,8|0,0:0|0:0,0:0:0:0:
361,366,69179,6,0,P|311:369|219:329,1,110,2|0,0:0|0:0,0:0:0:0:
200,340,69690,2,0,L|112:354,1,55,8|8,0:0|0:0,0:0:0:0:
87,254,70202,2,0,L|175:240,1,55,8|0,0:0|0:0,0:0:0:0:
173,200,70543,2,0,P|181:158|183:77,1,110,2|8,0:0|0:0,0:0:0:0:
177,36,71054,1,8,0:0:0:0:
177,36,71224,2,0,L|265:22,1,55,2|8,0:0|0:0,0:0:0:0:
283,46,71565,2,0,L|371:32,1,55,8|8,0:0|0:0,0:0:0:0:
389,56,71906,6,0,P|455:46|496:10,2,110,2|0|8,0:0|0:0|0:0,0:0:0:0:
331,150,72929,2,0,L|336:204,1,55,8|8,0:0|0:0,0:0:0:0:
339,259,73270,2,0,P|294:289|239:294,1,110,2|0,0:0|0:0,0:0:0:0:
129,294,73952,2,0,P|63:284|22:248,1,110,8|0,0:0|0:0,0:0:0:0:
112,185,74634,6,0,L|108:49,2,110,2|0|2,0:0|0:0|0:0,0:0:0:0:
219,163,75656,2,0,L|217:95,1,55,8|0,0:0|0:0,0:0:0:0:
258,70,75997,2,0,L|260:2,2,55,10|8|8,0:0|0:0|0:0,0:0:0:0:
331,152,76679,2,0,P|392:151|470:129,1,110,8|8,0:0|0:0,0:0:0:0:
484,108,77190,1,8,0:0:0:0:
484,108,77361,6,0,L|490:250,1,110,2|0,0:0|0:0,0:0:0:0:
407,292,78043,2,0,P|353:303|298:303,1,110,2|0,0:0|0:0,0:0:0:0:
249,276,78554,1,0,0:0:0:0:
249,276,78724,2,0,P|188:277|110:299,1,110,2|0,0:0|0:0,0:0:0:0:
59,211,79406,6,0,P|45:157|53:69,1,110,8|0,0:0|0:0,0:0:0:0:
67,52,79918,1,0,0:0:0:0:
67,52,80088,2,0,L|211:57,1,110,2|0,0:0|0:0,0:0:0:0:
259,129,80770,2,0,L|403:134,1,110,2|0,0:0|0:0,0:0:0:0:
419,110,81281,1,0,0:0:0:0:
419,110,81452,2,0,P|472:130|504:202,1,110,2|0,0:0|0:0,0:0:0:0:
470,279,82134,2,0,L|254:271,1,165,8|8,0:0|0:0,0:0:0:0:
266,234,82815,6,0,L|122:239,1,110,2|0,0:0|0:0,0:0:0:0:
67,303,83497,2,0,P|59:186|106:139,1,110,2|0,0:0|0:0,0:0:0:0:
84,152,84009,1,0,0:0:0:0:
84,152,84179,2,0,L|228:147,1,110,2|0,0:0|0:0,0:0:0:0:
273,71,84861,2,0,L|417:76,1,110,8|0,0:0|0:0,0:0:0:0:
437,79,85372,1,0,0:0:0:0:
437,79,85543,6,0,P|449:130|444:215,1,110,2|0,0:0|0:0,0:0:0:0:
400,214,86054,1,0,0:0:0:0:
400,214,86224,2,0,P|388:265|393:350,1,110,8|0,0:0|0:0,0:0:0:0:
409,373,86735,1,0,0:0:0:0:
409,373,86906,2,0,L|296:367,2,110,8|0|4,0:0|0:0|0:0,0:0:0:0:
500,172,88270,6,0,L|387:178,1,110,2|0,0:0|0:0,0:0:0:0:
315,258,88952,2,0,L|202:252,1,110,8|0,0:0|0:0,0:0:0:0:
182,201,89463,1,8,0:0:0:0:
182,201,89634,2,0,L|69:207,2,110,2|0|8,0:0|0:0|0:0,0:0:0:0:
268,132,90656,1,0,0:0:0:0:
182,63,90997,6,0,L|69:57,1,110,0|0,0:0|0:0,0:0:0:0:
16,53,91509,1,8,0:0:0:0:
16,53,91679,2,0,P|3:102|2:169,1,110,8|0,0:0|0:0,0:0:0:0:
77,240,92361,2,0,P|90:289|91:356,1,110,2|8,0:0|0:0,0:0:0:0:
197,380,93043,2,0,P|266:377|334:355,1,110,2|0,0:0|0:0,0:0:0:0:
335,320,93554,1,8,0:0:0:0:
335,320,93724,6,0,L|477:326,1,110,2|8,0:0|0:0,0:0:0:0:
479,220,94406,2,0,L|337:214,1,110,8|0,0:0|0:0,0:0:0:0:
331,174,94918,1,8,0:0:0:0:
331,174,95088,2,0,L|189:180,2,110,2|0|8,0:0|0:0|0:0,0:0:0:0:
301,67,96111,2,0,L|230:70,1,55,0|8,0:0|0:0,0:0:0:0:
209,27,96452,6,0,P|121:7|41:73,1,110,2|0,0:0|0:0,0:0:0:0:
143,115,97134,2,0,P|149:191|139:237,1,110,8|0,0:0|0:0,0:0:0:0:
118,273,97645,1,8,0:0:0:0:
118,273,97815,1,2,0:0:0:0:
188,357,98156,6,0,L|324:346,1,110
252,247,98838,2,0,L|388:236,1,110,0|2,0:0|0:0,0:0:0:0:
316,137,99520,2,0,L|452:126,1,110,0|2,0:0|0:0,0:0:0:0:
160,53,100713,5,8,0:0:0:0:
160,53,100884,2,0,L|24:64,2,110,6|0|8,0:0|0:0|0:0,0:0:0:0:
185,102,101736,1,8,0:0:0:0:
185,102,101906,6,0,P|200:169|188:239,1,110,6|0,0:0|0:0,0:0:0:0:
165,255,102418,1,8,0:0:0:0:
165,255,102588,2,0,L|301:244,1,110,8|0,0:0|0:0,0:0:0:0:
381,219,103270,2,0,P|396:286|384:356,1,110,2|8,0:0|0:0,0:0:0:0:
361,372,103782,1,8,0:0:0:0:
361,372,103952,2,0,L|497:361,1,110,2|8,0:0|0:0,0:0:0:0:
512,261,104634,6,0,P|503:207|473:136,2,110,2|8|2,0:0|0:0|0:0,0:0:0:0:
471,363,105656,2,0,L|403:368,1,55,8|0,0:0|0:0,0:0:0:0:
377,327,105997,2,0,P|337:318|265:317,1,110,2|8,0:0|0:0,0:0:0:0:
229,356,106509,1,8,0:0:0:0:
229,356,106679,2,0,P|189:365|117:366,1,110,2|8,0:0|0:0,0:0:0:0:
28,305,107361,5,2,0:0:0:0:
89,213,107702,2,0,L|95:153,1,55
79,105,108043,2,0,P|139:104|235:80,1,110,2|8,0:0|0:0,0:0:0:0:
290,55,108724,1,2,0:0:0:0:
392,95,109065,2,0,P|421:100|470:103,1,55,8|8,0:0|0:0,0:0:0:0:
500,89,109406,2,0,P|489:150|495:245,1,110,2|8,0:0|0:0,0:0:0:0:
510,306,110088,6,0,P|399:263|379:213,2,110,2|0|8,0:0|0:0|0:0,0:0:0:0:
488,198,111111,2,0,L|494:122,1,55,8|8,0:0|0:0,0:0:0:0:
512,91,111452,2,0,P|452:102|402:100,1,110,2|8,0:0|0:0,0:0:0:0:
349,88,111963,1,8,0:0:0:0:
349,88,112134,2,0,L|354:172,1,55,2|8,0:0|0:0,0:0:0:0:
385,186,112474,2,0,L|380:270,1,55,8|0,0:0|0:0,0:0:0:0:
329,258,112815,6,0,P|274:259|220:248,1,110,2|0,0:0|0:0,0:0:0:0:
160,156,113497,2,0,P|105:155|51:166,1,110,8|8,0:0|0:0,0:0:0:0:
4,195,114009,1,8,0:0:0:0:
4,195,114179,2,0,L|15:275,1,55,2|0,0:0|0:0,0:0:0:0:
22,303,114520,2,0,P|75:313|130:312,1,110,0|2,0:0|0:0,0:0:0:0:
230,263,115202,2,0,L|318:273,1,55,8|0,0:0|0:0,0:0:0:0:
320,312,115543,6,0,P|374:313|428:303,1,110,2|0,0:0|0:0,0:0:0:0:
479,281,116054,2,0,P|469:228|470:173,1,110,8|8,0:0|0:0,0:0:0:0:
489,120,116565,2,0,L|485:50,1,55,8|0,0:0|0:0,0:0:0:0:
443,29,116906,2,0,P|402:27|318:42,1,110,2|8,0:0|0:0,0:0:0:0:
231,77,117588,1,8,0:0:0:0:
128,37,117929,2,0,P|100:33|55:33,1,55,8|8,0:0|0:0,0:0:0:0:
18,39,118270,6,0,L|29:174,1,110,6|0,0:0|0:0,0:0:0:0:
109,221,118952,2,8,L|98:356,1,110,0|0,0:0|0:0,0:0:0:0:
138,370,119463,1,8,0:0:0:0:
138,370,119634,2,0,P|175:368|215:360,1,55,2|0,0:0|0:0,0:0:0:0:
235,331,119974,2,0,P|292:333|365:365,1,110,8|8,0:0|0:0,0:0:0:0:
447,382,120656,2,0,L|454:277,1,55,2|0,0:0|0:0,0:0:0:0:
486,285,120997,6,0,L|475:127,1,110,2|8,0:0|0:0,0:0:0:0:
435,140,121509,2,0,L|445:-17,1,110,0|8,0:0|0:0,0:0:0:0:
393,5,122020,2,0,P|361:4|312:22,1,55,8|0,0:0|0:0,0:0:0:0:
292,39,122361,2,0,P|225:38|148:20,1,110,2|0,0:0|0:0,0:0:0:0:
75,8,123043,2,0,L|81:102,1,55,8|0,0:0|0:0,0:0:0:0:
116,102,123384,2,0,L|110:196,1,55,8|0,0:0|0:0,0:0:0:0:
77,199,123724,6,0,P|52:302|164:310,1,220,6|8,0:0|0:0,0:0:0:0:
185,225,124747,2,0,P|213:217|274:215,1,55,8|0,0:0|0:0,0:0:0:0:
272,257,125088,2,0,P|375:282|383:170,1,220,2|2,0:0|0:0,0:0:0:0:
298,149,126111,2,0,P|290:121|288:60,1,55,8|0,0:0|0:0,0:0:0:0:
293,40,126452,6,0,B|235:29|188:59|188:59|141:23|84:29,1,220,6|2,0:0|0:0,0:0:0:0:
25,121,127474,2,0,L|33:204,1,55,8|0,0:0|0:0,0:0:0:0:
68,215,127815,2,0,B|126:226|173:196|173:196|220:232|277:226,1,220,2|2,0:0|0:0,0:0:0:0:
386,213,128838,2,0,L|378:296,1,55,8|0,0:0|0:0,0:0:0:0:
349,312,129179,6,0,P|289:338|214:318,1,110,6|8,0:0|0:0,0:0:0:0:
135,333,129861,2,0,P|80:335|31:311,1,110,2|8,0:0|0:0,0:0:0:0:
7,261,130372,1,8,0:0:0:0:
7,261,130543,2,0,L|15:128,2,110,2|8|2,0:0|0:0|0:0,0:0:0:0:
115,242,131565,2,0,L|119:175,1,55,8|0,0:0|0:0,0:0:0:0:
153,144,131906,6,0,P|198:134|270:131,1,110,6|0,0:0|0:0,0:0:0:0:
302,167,132418,1,8,0:0:0:0:
302,167,132588,2,0,P|347:177|419:180,1,110,8|8,0:0|0:0,0:0:0:0:
449,77,133270,2,0,P|404:67|332:64,1,110,2|0,0:0|0:0,0:0:0:0:
229,63,133952,2,0,P|174:65|120:76,1,110,0|8,0:0|0:0,0:0:0:0:
29,137,134634,6,0,L|44:255,1,110,2|2,0:0|0:0,0:0:0:0:
139,137,137361,6,0,L|155:255,1,110,2|2,0:0|0:0,0:0:0:0:
249,137,140088,6,0,L|265:255,1,110,2|2,0:0|0:0,0:0:0:0:
359,137,142815,6,0,L|375:255,1,110,2|2,0:0|0:0,0:0:0:0:
469,137,145543,6,0,L|485:255,1,110,2|2,0:0|0:0,0:0:0:0:
392,306,146224,2,0,P|336:319|257:315,1,110,8|8,0:0|0:0,0:0:0:0:
240,283,146736,1,8,0:0:0:0:
240,283,146906,2,0,P|185:283|131:296,1,110,8|0,0:0|0:0,0:0:0:0:
82,320,147418,1,8,0:0:0:0:
82,320,147588,2,0,L|-9:307,2,55,8|0|0,0:0|0:0|0:0,0:0:0:0:
96,210,148270,6,0,P|97:149|84:56,1,110,2|0,0:0|0:0,0:0:0:0:
202,82,148952,2,0,P|200:142|214:236,1,110,0|8,0:0|0:0,0:0:0:0:
215,245,149463,1,8,0:0:0:0:
215,245,149634,2,0,L|302:240,1,55,2|0,0:0|0:0,0:0:0:0:
314,210,149974,2,0,L|401:215,1,55,0|0,0:0|0:0,0:0:0:0:
412,246,150315,2,0,P|509:191|524:132,1,110,8|8,0:0|0:0,0:0:0:0:
512,87,150997,5,2,0:0:0:0:
412,139,151338,1,0,0:0:0:0:
312,87,151679,2,0,P|266:77|172:75,1,110,8|8,0:0|0:0,0:0:0:0:
149,84,152190,1,8,0:0:0:0:
149,84,152361,2,0,L|155:208,1,110,0|0,0:0|0:0,0:0:0:0:
191,234,152872,1,8,0:0:0:0:
191,234,153043,2,0,L|185:358,1,110,8|8,0:0|0:0,0:0:0:0:
77,364,153724,6,0,L|83:240,1,110,2|8,0:0|0:0,0:0:0:0:
53,206,154236,1,8,0:0:0:0:
53,206,154406,2,0,L|50:144,1,55,8|8,0:0|0:0,0:0:0:0:
94,118,154747,2,0,L|97:56,1,55,2|0,0:0|0:0,0:0:0:0:
73,13,155088,1,0,0:0:0:0:
257,132,155770,6,0,P|320:84|271:37,1,165,4|0,0:0|0:0,0:0:0:0:
221,55,156452,6,0,P|166:63|99:66,1,110,6|0,0:0|0:0,0:0:0:0:
56,58,156963,1,0,0:0:0:0:
56,58,157134,2,0,L|60:204,1,110,8|8,0:0|0:0,0:0:0:0:
152,225,157815,2,0,P|207:233|274:236,1,110,2|8,0:0|0:0,0:0:0:0:
316,235,158327,1,8,0:0:0:0:
316,235,158497,1,2,0:0:0:0:
395,158,158838,1,8,0:0:0:0:
422,265,159179,6,0,P|309:345|258:329,1,110,6|8,0:0|0:0,0:0:0:0:
293,343,159690,2,0,L|207:337,1,55,8|2,0:0|0:0,0:0:0:0:
261,231,160202,2,0,L|347:237,1,55,8|8,0:0|0:0,0:0:0:0:
340,185,160543,2,0,P|351:123|355:56,1,110,2|8,0:0|0:0,0:0:0:0:
250,40,161224,2,0,P|239:102|235:169,1,110,2|8,0:0|0:0,0:0:0:0:
257,257,161906,6,0,P|141:205|126:136,1,110,6|0,0:0|0:0,0:0:0:0:
119,183,162418,1,8,0:0:0:0:
119,183,162588,2,0,L|100:326,1,110,2|8,0:0|0:0,0:0:0:0:
0,258,163270,2,0,L|19:115,1,110,2|0,0:0|0:0,0:0:0:0:
97,75,163952,1,8,0:0:0:0:
97,75,164122,2,0,P|160:66|253:76,1,110,8|8,0:0|0:0,0:0:0:0:
235,114,164634,6,0,P|298:123|391:113,1,110,6|8,0:0|0:0,0:0:0:0:
389,90,165145,2,0,L|472:98,1,55,8|2,0:0|0:0,0:0:0:0:
457,204,165656,2,0,L|374:196,1,55,8|0,0:0|0:0,0:0:0:0:
360,235,165997,2,0,P|352:304|372:379,2,110,2|8|2,0:0|0:0|0:0,0:0:0:0:
288,151,167020,2,0,L|205:143,1,55,8|8,0:0|0:0,0:0:0:0:
199,189,167361,6,0,P|185:280|192:363,1,165,6|8,0:0|0:0,0:0:0:0:
135,363,168043,2,0,P|80:356|26:344,1,110,2|8,0:0|0:0,0:0:0:0:
0,238,168724,2,0,P|7:180|34:79,2,110,2|8|2,0:0|0:0|0:0,0:0:0:0:
53,253,169577,2,0,P|106:265|161:271,1,110,8|8,0:0|0:0,0:0:0:0:
202,233,170088,6,0,P|255:221|310:215,1,110,6|8,0:0|0:0,0:0:0:0:
365,218,170599,1,8,0:0:0:0:
365,218,170770,2,0,L|370:85,1,110,2|8,0:0|0:0,0:0:0:0:
477,127,171452,2,0,L|472:260,1,110,2|8,0:0|0:0,0:0:0:0:
510,277,171963,2,0,L|512:343,1,55,8|2,0:0|0:0,0:0:0:0:
413,379,172474,1,8,0:0:0:0:
314,331,172815,6,0,P|249:331|188:349,1,110,6|8,0:0|0:0,0:0:0:0:
162,377,173327,1,8,0:0:0:0:
162,377,173497,2,0,P|97:377|36:359,1,110,2|0,0:0|0:0,0:0:0:0:
15,262,174179,2,0,L|24:108,1,110,2|8,0:0|0:0,0:0:0:0:
27,97,174690,1,8,0:0:0:0:
27,97,174861,2,0,P|80:84|135:86,1,110,2|8,0:0|0:0,0:0:0:0:
236,129,175543,6,0,P|301:129|362:111,1,110,6|8,0:0|0:0,0:0:0:0:
388,85,176054,1,8,0:0:0:0:
388,85,176224,2,0,L|396:208,1,110,2|8,0:0|0:0,0:0:0:0:
403,305,176906,1,2,0:0:0:0:
304,257,177247,1,2,0:0:0:0:
205,305,177588,2,0,L|119:301,1,55,2|0,0:0|0:0,0:0:0:0:
108,266,177929,2,8,L|22:270,1,55,10|8,0:0|0:0,0:0:0:0:
10,303,178270,6,0,P|2:230|21:119,1,165,6|0,0:0|0:0,0:0:0:0:
43,92,178952,2,0,L|166:97,1,110,8|8,0:0|0:0,0:0:0:0:
234,171,179634,2,0,L|357:166,1,110,2|0,0:0|0:0,0:0:0:0:
381,125,180145,1,8,0:0:0:0:
381,125,180315,2,0,L|504:130,1,110,8|8,0:0|0:0,0:0:0:0:
479,19,180997,6,0,L|356:14,1,110,2|8,0:0|0:0,0:0:0:0:
280,80,181679,1,2,0:0:0:0:
381,125,182020,2,0,P|389:159|386:214,1,55,8|8,0:0|0:0,0:0:0:0:
367,228,182361,2,0,L|244:223,1,110,2|8,0:0|0:0,0:0:0:0:
212,191,182872,1,8,0:0:0:0:
212,191,183043,2,0,L|89:196,1,110,2|8,0:0|0:0,0:0:0:0:
81,303,183724,6,0,L|204:298,1,110,2|8,0:0|0:0,0:0:0:0:
234,333,184236,2,0,L|295:330,1,55,8|2,0:0|0:0,0:0:0:0:
375,262,184747,1,8,0:0:0:0:
273,221,185088,2,0,P|243:184|233:82,1,110,2|8,0:0|0:0,0:0:0:0:
251,75,185599,2,0,L|328:58,1,55,8|2,0:0|0:0,0:0:0:0:
413,44,186111,1,8,0:0:0:0:
494,117,186452,6,0,P|499:167|483:266,2,110,2|8|2,0:0|0:0|0:0,0:0:0:0:
413,44,187474,2,0,L|336:51,1,55,8|8,0:0|0:0,0:0:0:0:
318,87,187815,1,2,0:0:0:0:
227,24,188156,1,8,0:0:0:0:
136,87,188497,2,0,P|87:88|17:71,1,110,8|8,0:0|0:0,0:0:0:0:
13,184,189179,6,0,P|62:183|132:200,1,110,2|0,0:0|0:0,0:0:0:0:
190,283,189861,2,0,P|239:284|309:267,1,110,8|0,0:0|0:0,0:0:0:0:
387,206,190543,2,0,L|490:214,2,55,2|0|0,0:0|0:0|0:0,0:0:0:0:
380,96,191224,2,0,L|483:104,2,55,2|0|8,0:0|0:0|0:0,0:0:0:0:
333,125,191736,1,8,0:0:0:0:
333,125,191906,6,0,P|264:121|209:96,1,110,2|8,0:0|0:0,0:0:0:0:
172,122,192418,2,0,P|103:118|48:93,1,110,8|8,0:0|0:0,0:0:0:0:
11,119,192929,2,0,L|18:220,1,55,8|8,0:0|0:0,0:0:0:0:
48,217,193270,2,0,L|37:368,2,110,2|8|8,0:0|0:0|0:0,0:0:0:0:
127,140,194293,1,8,0:0:0:0:
206,217,194634,6,0,L|217:368,1,110,2|8,0:0|0:0,0:0:0:0:
320,299,195315,2,0,L|309:148,1,110,8|8,0:0|0:0,0:0:0:0:
235,111,195997,2,0,P|189:108|147:124,1,55,2|0,0:0|0:0,0:0:0:0:
133,138,196338,2,0,P|64:137|2:120,1,110,8|2,0:0|0:0,0:0:0:0:
61,24,197020,2,0,L|115:29,1,55,0|0,0:0|0:0,0:0:0:0:
167,9,197361,6,0,P|220:5|285:18,1,110,8|0,0:0|0:0,0:0:0:0:
310,57,197872,2,0,P|363:61|428:48,1,110,8|8,0:0|0:0,0:0:0:0:
469,27,198384,2,0,L|476:128,1,55,8|8,0:0|0:0,0:0:0:0:
506,125,198725,2,0,L|495:276,1,110,2|8,0:0|0:0,0:0:0:0:
413,305,199406,2,0,P|355:319|273:320,1,110,2|8,0:0|0:0,0:0:0:0:
226,245,200088,6,0,P|128:221|41:235,1,165,6|0,0:0|0:0,0:0:0:0:
11,239,200770,2,0,P|4:161|4:83,1,110,8|8,0:0|0:0,0:0:0:0:
71,43,201452,2,0,P|148:44|268:58,1,165,2|8,0:0|0:0,0:0:0:0:
279,86,202134,2,0,L|419:78,1,110,2|8,0:0|0:0,0:0:0:0:
375,188,202815,6,0,L|235:196,1,110,2|8,0:0|0:0,0:0:0:0:
213,172,203327,2,0,L|143:176,1,55,8|8,0:0|0:0,0:0:0:0:
125,280,203838,2,0,L|195:276,1,55,8|8,0:0|0:0,0:0:0:0:
231,298,204179,2,0,L|301:294,2,55,12|0|8,0:0|0:0|0:0,0:0:0:0:
265,194,204861,1,10,0:0:0:0:
228,90,205202,1,8,0:0:0:0:
327,43,205543,6,0,P|368:41|453:55,1,110,2|0,0:0|0:0,0:0:0:0:
488,68,206054,1,8,0:0:0:0:
488,68,206224,2,0,L|484:204,1,110,8|8,0:0|0:0,0:0:0:0:
385,226,206906,2,0,P|344:228|259:214,1,110,2|8,0:0|0:0,0:0:0:0:
224,201,207417,1,8,0:0:0:0:
224,201,207588,2,0,L|228:65,1,110,10|8,0:0|0:0,0:0:0:0:
118,109,208270,6,0,L|114:245,2,110,2|8|2,0:0|0:0|0:0,0:0:0:0:
157,6,209293,1,8,0:0:0:0:
227,91,209634,2,0,L|223:227,1,110,2|8,0:0|0:0,0:0:0:0:
310,269,210315,2,0,L|394:273,1,55,8|2,0:0|0:0,0:0:0:0:
404,232,210656,2,0,L|488:228,1,55,8|8,0:0|0:0,0:0:0:0:
496,252,210997,5,2,0:0:0:0:
256,192,211082,12,0,213724,0:0:0:0:
