osu file format v14

[General]
AudioFilename: audio.mp3
AudioLeadIn: 0
PreviewTime: 101651
Countdown: 0
SampleSet: Normal
StackLeniency: 0.7
Mode: 1
LetterboxInBreaks: 0
WidescreenStoryboard: 0

[Editor]
Bookmarks: 123628,134538,156356,210901
DistanceSpacing: 1.7
BeatDivisor: 4
GridSize: 8
TimelineZoom: 1.700001

[Metadata]
Title:AIWAGUMA
TitleUnicode:AIWAGUMA
Artist:illion
ArtistUnicode:illion
Creator:Ellyu
Version:Oni
Source:
Tags:UBU Yojiro Noda 野田洋次郎 Folk Rock _Yiiiii Pata-Mon Tenshichan Superstar Tofu1222 Antalf handsome muscle
BeatmapID:1247899
BeatmapSetID:533037

[Difficulty]
HPDrainRate:6
CircleSize:2
OverallDifficulty:5
ApproachRate:5
SliderMultiplier:1.4
SliderTickRate:1

[Events]
//Background and Video events
0,0,"49389130_p0.png",0,0
//Break Periods
2,134834,136161
2,139947,142979
//Storyboard Layer 0 (Background)
//Storyboard Layer 1 (Fail)
//Storyboard Layer 2 (Pass)
//Storyboard Layer 3 (Foreground)
//Storyboard Sound Samples

[TimingPoints]
-366,340.909090909091,4,1,1,50,1,0
827,-166.666666666667,4,1,1,50,0,0
11565,-142.857142857143,4,1,1,50,0,0
11906,-125,4,1,1,50,0,0
21793,-111.111111111111,4,1,1,50,0,0
21963,-100,4,1,1,50,0,0
87503,-100,4,2,10,50,0,0
87673,-100,4,1,1,50,0,0
100116,-100,4,2,10,50,0,0
100457,-100,4,2,11,50,0,0
100628,-100,4,1,1,50,0,0
101906,-100,4,1,1,50,0,1
123724,-100,4,1,1,50,0,0
137361,-166.666666666667,4,1,1,50,0,0
140088,-100,4,1,1,50,0,0
178270,-100,4,1,1,50,0,1
210997,-100,4,1,1,50,0,0
220884,389.61038961039,4,1,1,50,1,8
220884,-87.719298245614,4,1,1,50,0,0
221224,340.909090909091,4,1,1,50,1,8
221735,389.61038961039,4,1,1,50,1,0
221735,-87.719298245614,4,1,1,50,0,0

[HitObjects]
160,112,827,5,8,0:0:0:0:
328,64,997,5,0,0:0:0:0:
328,64,1509,1,8,0:0:0:0:
328,64,1679,1,0,0:0:0:0:
328,64,2020,1,8,0:0:0:0:
328,64,2361,1,0,0:0:0:0:
201,149,2702,1,0,0:0:0:0:
201,149,2872,1,8,0:0:0:0:
328,64,3043,1,0,0:0:0:0:
328,64,3384,1,8,0:0:0:0:
304,136,3724,1,0,0:0:0:0:
144,224,4406,1,8,0:0:0:0:
144,224,4747,1,0,0:0:0:0:
256,208,4918,1,0,0:0:0:0:
256,208,5088,1,8,0:0:0:0:
256,208,5429,1,8,0:0:0:0:
256,208,5599,1,0,0:0:0:0:
256,208,5770,1,0,0:0:0:0:
256,208,6111,1,8,0:0:0:0:
256,208,6452,1,0,0:0:0:0:
208,168,6793,1,8,0:0:0:0:
208,168,6963,1,0,0:0:0:0:
208,168,7134,1,8,0:0:0:0:
208,168,7474,1,8,0:0:0:0:
208,168,7815,1,0,0:0:0:0:
208,168,8156,1,0,0:0:0:0:
208,168,8327,1,0,0:0:0:0:
208,168,8497,1,8,0:0:0:0:
208,168,8838,1,8,0:0:0:0:
208,168,9179,1,0,0:0:0:0:
208,168,9520,1,8,0:0:0:0:
208,168,9861,1,0,0:0:0:0:
208,168,10202,1,8,0:0:0:0:
208,168,10372,1,8,0:0:0:0:
208,168,10543,1,0,0:0:0:0:
208,168,10884,1,8,0:0:0:0:
208,168,11224,1,0,0:0:0:0:
208,168,11565,1,4,0:0:0:0:
208,168,11906,1,4,0:0:0:0:
312,216,12588,1,8,0:0:0:0:
312,216,13270,1,0,0:0:0:0:
312,216,13440,1,8,0:0:0:0:
312,216,13611,1,0,0:0:0:0:
316,210,13952,1,8,0:0:0:0:
128,216,14463,1,8,0:0:0:0:
312,216,14634,1,0,0:0:0:0:
184,200,14974,1,0,0:0:0:0:
184,200,15145,1,8,0:0:0:0:
184,200,15486,1,0,0:0:0:0:
184,200,15656,1,8,0:0:0:0:
240,112,16338,1,0,0:0:0:0:
192,256,16679,1,8,0:0:0:0:
72,176,17020,1,0,0:0:0:0:
80,176,17361,1,8,0:0:0:0:
80,176,18043,1,8,0:0:0:0:
80,176,18724,1,8,0:0:0:0:
80,176,18895,1,0,0:0:0:0:
80,176,19065,1,8,0:0:0:0:
176,208,19747,1,0,0:0:0:0:
176,208,20088,1,8,0:0:0:0:
176,208,20429,1,0,0:0:0:0:
176,208,20599,1,8,0:0:0:0:
176,208,20940,1,8,0:0:0:0:
176,208,21111,1,0,0:0:0:0:
176,208,21452,1,8,0:0:0:0:
176,208,21793,1,0,0:0:0:0:
176,208,21963,1,8,0:0:0:0:
176,208,22048,1,8,0:0:0:0:
312,141,22134,1,0,0:0:0:0:
176,208,22304,1,8,0:0:0:0:
176,208,22474,1,0,0:0:0:0:
312,141,22645,1,8,0:0:0:0:
176,208,22815,1,4,0:0:0:0:
264,264,23327,1,8,0:0:0:0:
64,184,23497,1,0,0:0:0:0:
64,184,23838,1,8,0:0:0:0:
64,184,24179,1,0,0:0:0:0:
298,220,24349,1,0,0:0:0:0:
64,184,24520,1,8,0:0:0:0:
64,184,24690,1,8,0:0:0:0:
64,184,24861,1,0,0:0:0:0:
298,220,25031,1,8,0:0:0:0:
64,184,25202,1,8,0:0:0:0:
216,200,25543,1,8,0:0:0:0:
424,220,25713,1,8,0:0:0:0:
216,200,25884,1,0,0:0:0:0:
216,200,26054,1,8,0:0:0:0:
216,200,26224,1,0,0:0:0:0:
216,200,26565,1,0,0:0:0:0:
216,200,26736,1,8,0:0:0:0:
216,200,26906,1,0,0:0:0:0:
216,200,27247,1,8,0:0:0:0:
216,200,27588,1,8,0:0:0:0:
99,248,27759,1,8,0:0:0:0:
216,200,27929,1,0,0:0:0:0:
216,200,28099,1,8,0:0:0:0:
216,200,28270,1,0,0:0:0:0:
120,176,28781,1,0,0:0:0:0:
120,176,28952,1,8,0:0:0:0:
120,176,29293,1,0,0:0:0:0:
120,176,29463,1,8,0:0:0:0:
120,176,29634,1,0,0:0:0:0:
64,88,29974,1,8,0:0:0:0:
120,176,30145,1,8,0:0:0:0:
240,232,30315,1,0,0:0:0:0:
120,176,30656,1,8,0:0:0:0:
64,88,30997,1,0,0:0:0:0:
64,88,31509,1,0,0:0:0:0:
64,88,31679,1,8,0:0:0:0:
64,88,32020,1,8,0:0:0:0:
64,88,32361,5,0,0:0:0:0:
64,88,32531,1,0,0:0:0:0:
160,168,32702,1,8,0:0:0:0:
64,88,32872,1,8,0:0:0:0:
64,88,33043,1,0,0:0:0:0:
80,232,33384,5,8,0:0:0:0:
80,232,33469,1,8,0:0:0:0:
80,232,33554,1,8,0:0:0:0:
266,176,33724,1,0,0:0:0:0:
368,169,33895,1,8,0:0:0:0:
368,169,34065,1,8,0:0:0:0:
368,169,34236,1,8,0:0:0:0:
368,169,34406,1,0,0:0:0:0:
268,143,34747,1,0,0:0:0:0:
268,143,34918,1,8,0:0:0:0:
305,228,35003,1,8,0:0:0:0:
305,228,35088,1,0,0:0:0:0:
305,228,35259,1,0,0:0:0:0:
305,228,35429,1,8,0:0:0:0:
305,228,35599,1,0,0:0:0:0:
305,228,35770,1,8,0:0:0:0:
305,228,36111,1,8,0:0:0:0:
305,228,36452,1,0,0:0:0:0:
305,228,36622,1,0,0:0:0:0:
305,228,36707,1,0,0:0:0:0:
305,228,36793,1,8,0:0:0:0:
305,228,36963,1,0,0:0:0:0:
305,228,37134,1,0,0:0:0:0:
305,228,37304,1,8,0:0:0:0:
305,228,37474,1,8,0:0:0:0:
305,228,37815,1,0,0:0:0:0:
305,228,37986,1,8,0:0:0:0:
305,228,38071,1,8,0:0:0:0:
305,228,38156,1,0,0:0:0:0:
136,152,38327,1,8,0:0:0:0:
305,228,38497,1,0,0:0:0:0:
128,160,38838,1,8,0:0:0:0:
280,96,39179,1,0,0:0:0:0:
256,224,39349,1,8,0:0:0:0:
256,224,39520,1,8,0:0:0:0:
256,224,39690,1,8,0:0:0:0:
256,224,39861,1,0,0:0:0:0:
160,120,40202,1,0,0:0:0:0:
256,224,40372,1,8,0:0:0:0:
176,304,40543,1,0,0:0:0:0:
176,304,40628,1,0,0:0:0:0:
176,304,40713,1,8,0:0:0:0:
176,304,40884,1,8,0:0:0:0:
176,304,41224,1,0,0:0:0:0:
304,210,41565,1,8,0:0:0:0:
304,210,41906,1,4,0:0:0:0:
88,80,42247,1,0,0:0:0:0:
304,210,42588,1,4,0:0:0:0:
169,146,42929,1,8,0:0:0:0:
169,146,43270,1,4,0:0:0:0:
169,146,43611,1,8,0:0:0:0:
169,146,43952,1,4,0:0:0:0:
176,252,44122,1,0,0:0:0:0:
328,152,44207,1,0,0:0:0:0:
176,252,44293,1,8,0:0:0:0:
328,152,44463,1,0,0:0:0:0:
264,224,44634,1,4,0:0:0:0:
280,288,44804,1,0,0:0:0:0:
280,296,44889,1,0,0:0:0:0:
272,296,44974,1,0,0:0:0:0:
272,296,45145,1,0,0:0:0:0:
272,296,45315,1,8,0:0:0:0:
272,296,45656,1,8,0:0:0:0:
160,208,45827,1,8,0:0:0:0:
160,208,45997,1,0,0:0:0:0:
160,208,46168,1,8,0:0:0:0:
160,208,46253,1,8,0:0:0:0:
160,208,46338,1,0,0:0:0:0:
160,208,46509,1,8,0:0:0:0:
160,208,46679,1,0,0:0:0:0:
160,208,47020,1,8,0:0:0:0:
208,128,47190,1,0,0:0:0:0:
208,128,47361,1,8,0:0:0:0:
208,128,47531,1,0,0:0:0:0:
208,128,47616,1,0,0:0:0:0:
208,128,47702,1,0,0:0:0:0:
208,128,47872,1,0,0:0:0:0:
208,128,48043,1,8,0:0:0:0:
208,128,48213,1,0,0:0:0:0:
216,296,48384,1,0,0:0:0:0:
208,128,48554,1,0,0:0:0:0:
208,128,48724,1,8,0:0:0:0:
208,128,48895,1,0,0:0:0:0:
80,304,49065,1,8,0:0:0:0:
208,128,49406,1,12,0:0:0:0:
296,224,49747,1,0,0:0:0:0:
296,224,49918,1,8,0:0:0:0:
208,240,50088,1,0,0:0:0:0:
208,240,50429,1,8,0:0:0:0:
208,240,50770,1,0,0:0:0:0:
208,240,50940,1,0,0:0:0:0:
208,240,51026,1,0,0:0:0:0:
208,240,51111,1,8,0:0:0:0:
208,240,51281,1,0,0:0:0:0:
112,144,51452,1,0,0:0:0:0:
304,256,51793,1,8,0:0:0:0:
304,256,51963,1,8,0:0:0:0:
304,256,52134,1,0,0:0:0:0:
112,144,52474,1,8,0:0:0:0:
152,184,52815,1,0,0:0:0:0:
152,184,53071,1,0,0:0:0:0:
152,184,53156,1,8,0:0:0:0:
152,184,53327,1,0,0:0:0:0:
152,184,53497,1,8,0:0:0:0:
152,184,53668,1,8,0:0:0:0:
152,184,53838,1,0,0:0:0:0:
152,184,54009,5,8,0:0:0:0:
152,184,54179,1,0,0:0:0:0:
152,184,54349,1,8,0:0:0:0:
152,184,54435,1,8,0:0:0:0:
152,184,54520,1,0,0:0:0:0:
152,184,54605,1,0,0:0:0:0:
152,184,54690,1,8,0:0:0:0:
152,184,54861,1,0,0:0:0:0:
216,304,55202,5,8,0:0:0:0:
216,304,55287,1,8,0:0:0:0:
216,304,55372,1,8,0:0:0:0:
216,304,55543,1,4,0:0:0:0:
208,240,55884,1,0,0:0:0:0:
208,240,56054,1,8,0:0:0:0:
208,240,56224,1,0,0:0:0:0:
208,240,56310,1,0,0:0:0:0:
208,240,56395,1,0,0:0:0:0:
208,240,56565,1,8,0:0:0:0:
156,113,56906,1,8,0:0:0:0:
112,198,57077,1,0,0:0:0:0:
112,198,57162,1,0,0:0:0:0:
112,198,57247,1,8,0:0:0:0:
112,198,57418,1,8,0:0:0:0:
112,198,57588,1,0,0:0:0:0:
208,240,57759,1,0,0:0:0:0:
208,240,57929,1,8,0:0:0:0:
112,198,58099,1,8,0:0:0:0:
296,248,58270,1,0,0:0:0:0:
296,248,58440,1,8,0:0:0:0:
296,248,58526,1,8,0:0:0:0:
296,248,58611,1,8,0:0:0:0:
296,248,58781,1,0,0:0:0:0:
296,248,58952,1,8,0:0:0:0:
296,248,59293,1,0,0:0:0:0:
296,248,59463,1,8,0:0:0:0:
296,248,59634,1,0,0:0:0:0:
158,147,59804,1,8,0:0:0:0:
158,147,59889,1,8,0:0:0:0:
158,147,59974,1,0,0:0:0:0:
296,248,60145,1,8,0:0:0:0:
296,248,60315,1,0,0:0:0:0:
208,272,60656,1,8,0:0:0:0:
160,208,60997,1,8,0:0:0:0:
160,208,61168,1,0,0:0:0:0:
72,256,61338,1,0,0:0:0:0:
72,256,61423,1,0,0:0:0:0:
72,256,61509,1,8,0:0:0:0:
72,256,61679,1,8,0:0:0:0:
72,256,62020,1,8,0:0:0:0:
248,217,62190,1,0,0:0:0:0:
72,256,62361,1,0,0:0:0:0:
72,256,62446,1,0,0:0:0:0:
72,256,62531,1,8,0:0:0:0:
72,256,62702,1,8,0:0:0:0:
248,217,62872,1,0,0:0:0:0:
72,256,63213,1,8,0:0:0:0:
72,272,63384,1,0,0:0:0:0:
72,272,63554,1,8,0:0:0:0:
72,272,63724,1,0,0:0:0:0:
72,272,63810,1,0,0:0:0:0:
72,272,63895,1,8,0:0:0:0:
192,200,64065,1,0,0:0:0:0:
192,200,64236,1,8,0:0:0:0:
192,200,64406,1,0,0:0:0:0:
192,200,64491,1,0,0:0:0:0:
192,200,64577,1,8,0:0:0:0:
192,200,64747,1,0,0:0:0:0:
104,120,64918,1,0,0:0:0:0:
192,200,65088,1,8,0:0:0:0:
192,200,65429,1,0,0:0:0:0:
280,280,65599,1,8,0:0:0:0:
280,280,65685,1,8,0:0:0:0:
192,200,65770,1,8,0:0:0:0:
192,200,65940,1,8,0:0:0:0:
128,160,66111,1,8,0:0:0:0:
128,160,66281,1,0,0:0:0:0:
128,160,66452,1,12,0:0:0:0:
288,176,66793,5,8,0:0:0:0:
288,176,66963,1,0,0:0:0:0:
288,176,67134,1,0,0:0:0:0:
288,176,67474,1,8,0:0:0:0:
288,176,67645,1,0,0:0:0:0:
288,176,67815,1,8,0:0:0:0:
288,176,67986,1,8,0:0:0:0:
288,176,68327,1,8,0:0:0:0:
288,176,68497,1,0,0:0:0:0:
288,176,68838,1,8,0:0:0:0:
288,176,69179,1,0,0:0:0:0:
288,176,69349,1,8,0:0:0:0:
288,176,69520,1,8,0:0:0:0:
288,176,69690,1,0,0:0:0:0:
288,176,69861,1,8,0:0:0:0:
288,176,70202,1,0,0:0:0:0:
288,176,70543,1,0,0:0:0:0:
288,176,70713,1,8,0:0:0:0:
192,96,71054,1,0,0:0:0:0:
192,96,71224,1,8,0:0:0:0:
192,96,71395,1,0,0:0:0:0:
192,96,71480,1,0,0:0:0:0:
192,96,71565,1,8,0:0:0:0:
192,96,71736,1,0,0:0:0:0:
192,96,71906,1,0,0:0:0:0:
264,176,72077,1,8,0:0:0:0:
264,176,72162,1,8,0:0:0:0:
264,176,72247,1,0,0:0:0:0:
264,176,72418,1,0,0:0:0:0:
264,176,72588,1,0,0:0:0:0:
264,176,72759,1,8,0:0:0:0:
56,104,72844,1,8,0:0:0:0:
56,104,72929,1,0,0:0:0:0:
160,208,73099,1,8,0:0:0:0:
264,176,73270,1,0,0:0:0:0:
160,208,73440,1,0,0:0:0:0:
160,208,73611,1,8,0:0:0:0:
136,152,73781,1,8,0:0:0:0:
160,208,73952,1,0,0:0:0:0:
160,208,74293,1,0,0:0:0:0:
160,208,74463,1,8,0:0:0:0:
160,208,74634,1,0,0:0:0:0:
216,64,74804,1,0,0:0:0:0:
128,160,74889,1,0,0:0:0:0:
128,160,74974,1,8,0:0:0:0:
160,208,75145,1,8,0:0:0:0:
56,200,75315,1,0,0:0:0:0:
160,208,75486,1,8,0:0:0:0:
56,200,75656,1,0,0:0:0:0:
240,192,75827,1,0,0:0:0:0:
104,232,75997,5,8,0:0:0:0:
128,248,76082,1,8,0:0:0:0:
128,248,76168,1,8,0:0:0:0:
128,248,76338,1,8,0:0:0:0:
56,200,76679,1,0,0:0:0:0:
128,248,76935,1,8,0:0:0:0:
128,248,77020,1,8,0:0:0:0:
128,248,77190,1,8,0:0:0:0:
208,168,77361,1,4,0:0:0:0:
208,168,78043,1,0,0:0:0:0:
208,168,78724,1,0,0:0:0:0:
208,168,79406,1,8,0:0:0:0:
208,168,80088,1,0,0:0:0:0:
208,168,80770,1,0,0:0:0:0:
208,168,81452,1,0,0:0:0:0:
56,200,82134,1,8,0:0:0:0:
208,168,82645,1,8,0:0:0:0:
208,168,82815,1,0,0:0:0:0:
264,216,83497,1,0,0:0:0:0:
264,216,84179,1,0,0:0:0:0:
264,216,84861,1,8,0:0:0:0:
264,216,85543,1,0,0:0:0:0:
56,136,86224,1,8,0:0:0:0:
264,216,86906,1,8,0:0:0:0:
160,216,87077,1,0,0:0:0:0:
160,216,87247,1,8,0:0:0:0:
264,216,87418,1,8,0:0:0:0:
256,184,87588,1,4,0:0:0:0:
216,184,88270,5,12,0:0:0:0:
120,72,88440,1,0,0:0:0:0:
88,192,88526,1,0,0:0:0:0:
184,80,88611,1,0,0:0:0:0:
240,240,88781,1,0,0:0:0:0:
200,208,88952,1,8,0:0:0:0:
240,240,89293,1,8,0:0:0:0:
72,144,89463,1,0,0:0:0:0:
240,240,89634,1,8,0:0:0:0:
240,240,89804,1,0,0:0:0:0:
240,240,89974,1,0,0:0:0:0:
90,222,90060,1,0,0:0:0:0:
240,240,90145,1,8,0:0:0:0:
149,307,90315,1,0,0:0:0:0:
240,240,90827,1,0,0:0:0:0:
240,240,90997,1,8,0:0:0:0:
240,240,91082,1,8,0:0:0:0:
192,216,91168,1,0,0:0:0:0:
208,136,91338,1,8,0:0:0:0:
208,136,91509,1,0,0:0:0:0:
192,216,91679,1,8,0:0:0:0:
192,216,92020,1,8,0:0:0:0:
144,96,92190,1,0,0:0:0:0:
192,216,92361,1,8,0:0:0:0:
192,216,92446,1,0,0:0:0:0:
192,216,92531,1,0,0:0:0:0:
192,216,92702,1,8,0:0:0:0:
192,216,92872,1,0,0:0:0:0:
192,216,93043,1,8,0:0:0:0:
288,160,93384,1,8,0:0:0:0:
288,160,93554,1,0,0:0:0:0:
288,160,93639,1,0,0:0:0:0:
288,160,93724,1,8,0:0:0:0:
288,160,93895,1,0,0:0:0:0:
288,160,94065,1,0,0:0:0:0:
238,265,94236,1,8,0:0:0:0:
112,192,94406,1,0,0:0:0:0:
112,192,94747,1,8,0:0:0:0:
56,152,94918,1,0,0:0:0:0:
238,265,95088,1,8,0:0:0:0:
238,265,95259,1,0,0:0:0:0:
152,56,95344,1,0,0:0:0:0:
248,80,95429,1,8,0:0:0:0:
248,80,95514,1,8,0:0:0:0:
248,80,95599,1,0,0:0:0:0:
329,287,95770,1,8,0:0:0:0:
95,171,96111,1,8,0:0:0:0:
95,171,96281,1,0,0:0:0:0:
95,171,96366,1,0,0:0:0:0:
95,171,96452,1,8,0:0:0:0:
130,262,96622,1,8,0:0:0:0:
130,262,96793,1,0,0:0:0:0:
130,262,96963,5,0,0:0:0:0:
130,262,97134,1,8,0:0:0:0:
130,262,97304,1,0,0:0:0:0:
130,262,97474,1,8,0:0:0:0:
130,262,97560,1,8,0:0:0:0:
130,262,97645,1,0,0:0:0:0:
130,262,97815,1,8,0:0:0:0:
232,192,98156,5,8,0:0:0:0:
8,128,98497,1,4,0:0:0:0:
232,192,98838,5,8,0:0:0:0:
8,128,99179,1,4,0:0:0:0:
232,192,99520,5,8,0:0:0:0:
8,128,99861,1,4,0:0:0:0:
144,96,100202,1,8,0:0:0:0:
144,96,100543,1,8,0:0:0:0:
144,96,100884,1,4,0:0:0:0:
144,96,101054,1,8,0:0:0:0:
144,96,101224,1,0,0:0:0:0:
200,208,101395,1,8,0:0:0:0:
200,208,101565,1,0,0:0:0:0:
200,208,101736,1,0,0:0:0:0:
200,208,101906,1,4,0:0:0:0:
304,264,102418,1,8,0:0:0:0:
304,264,102588,1,0,0:0:0:0:
304,264,102673,1,0,0:0:0:0:
304,264,102759,1,0,0:0:0:0:
304,264,102929,1,8,0:0:0:0:
192,200,103099,1,8,0:0:0:0:
192,200,103270,1,0,0:0:0:0:
192,200,103440,1,0,0:0:0:0:
192,200,103526,1,0,0:0:0:0:
192,200,103611,1,8,0:0:0:0:
64,240,103781,1,8,0:0:0:0:
104,248,103952,1,0,0:0:0:0:
112,264,104293,1,8,0:0:0:0:
200,296,104634,1,8,0:0:0:0:
272,208,104804,1,0,0:0:0:0:
272,208,104974,1,0,0:0:0:0:
272,208,105145,1,0,0:0:0:0:
120,216,105230,1,0,0:0:0:0:
272,208,105315,1,8,0:0:0:0:
272,208,105486,1,0,0:0:0:0:
128,192,105656,1,8,0:0:0:0:
272,208,105827,1,8,0:0:0:0:
272,208,105997,1,0,0:0:0:0:
144,248,106168,1,8,0:0:0:0:
144,248,106253,1,8,0:0:0:0:
144,248,106338,1,0,0:0:0:0:
144,248,106423,1,0,0:0:0:0:
144,248,106509,1,8,0:0:0:0:
144,248,106679,1,0,0:0:0:0:
144,248,106849,1,0,0:0:0:0:
144,248,107020,1,8,0:0:0:0:
208,320,107361,1,0,0:0:0:0:
208,320,107702,1,0,0:0:0:0:
208,320,107872,1,0,0:0:0:0:
208,320,108043,1,8,0:0:0:0:
208,320,108128,1,8,0:0:0:0:
208,320,108213,1,0,0:0:0:0:
208,320,108384,1,8,0:0:0:0:
208,320,108554,1,8,0:0:0:0:
208,320,108724,1,0,0:0:0:0:
112,216,108895,1,8,0:0:0:0:
208,320,108980,1,8,0:0:0:0:
208,320,109065,1,0,0:0:0:0:
208,320,109236,1,0,0:0:0:0:
120,312,109406,1,8,0:0:0:0:
120,312,109492,1,0,0:0:0:0:
120,312,109577,1,0,0:0:0:0:
120,312,109747,1,8,0:0:0:0:
232,288,110088,1,0,0:0:0:0:
112,216,110429,1,0,0:0:0:0:
128,296,110599,1,8,0:0:0:0:
128,296,110770,1,0,0:0:0:0:
128,296,110855,1,0,0:0:0:0:
128,296,110940,1,0,0:0:0:0:
128,296,111111,1,8,0:0:0:0:
128,296,111281,1,0,0:0:0:0:
184,208,111452,5,8,0:0:0:0:
184,208,111622,1,8,0:0:0:0:
232,288,111707,1,8,0:0:0:0:
184,208,111793,1,0,0:0:0:0:
184,208,111963,1,0,0:0:0:0:
184,208,112134,1,8,0:0:0:0:
136,304,112304,1,0,0:0:0:0:
136,304,112389,1,0,0:0:0:0:
184,208,112474,1,0,0:0:0:0:
136,304,112560,1,0,0:0:0:0:
136,304,112645,1,8,0:0:0:0:
160,160,112815,5,4,0:0:0:0:
322,322,113156,1,0,0:0:0:0:
322,322,113327,1,0,0:0:0:0:
322,322,113497,1,8,0:0:0:0:
322,322,113838,1,8,0:0:0:0:
322,322,114009,1,8,0:0:0:0:
322,322,114179,1,0,0:0:0:0:
305,181,114264,1,0,0:0:0:0:
322,322,114349,1,8,0:0:0:0:
322,322,114520,1,0,0:0:0:0:
322,322,114690,1,0,0:0:0:0:
322,322,114861,1,8,0:0:0:0:
17,59,115202,1,8,0:0:0:0:
354,252,115372,1,8,0:0:0:0:
354,252,115543,1,0,0:0:0:0:
138,211,115884,1,8,0:0:0:0:
138,211,116054,1,0,0:0:0:0:
260,185,116139,1,0,0:0:0:0:
221,131,116224,1,0,0:0:0:0:
160,261,116395,1,0,0:0:0:0:
160,261,116565,1,8,0:0:0:0:
270,317,116736,1,0,0:0:0:0:
160,261,116906,1,0,0:0:0:0:
160,261,117077,1,8,0:0:0:0:
326,196,117247,1,8,0:0:0:0:
160,261,117588,1,0,0:0:0:0:
160,261,117759,1,8,0:0:0:0:
160,261,117844,1,8,0:0:0:0:
160,261,117929,1,8,0:0:0:0:
290,322,118014,1,8,0:0:0:0:
290,322,118099,1,0,0:0:0:0:
35,173,118270,1,8,0:0:0:0:
254,212,118611,1,0,0:0:0:0:
254,212,118781,1,0,0:0:0:0:
254,212,118952,1,8,0:0:0:0:
354,252,119293,1,0,0:0:0:0:
354,252,119463,1,0,0:0:0:0:
354,252,119634,1,8,0:0:0:0:
354,252,119719,1,8,0:0:0:0:
354,252,119804,1,0,0:0:0:0:
160,152,119889,1,0,0:0:0:0:
354,252,119974,1,8,0:0:0:0:
354,252,120145,1,0,0:0:0:0:
354,252,120315,1,8,0:0:0:0:
354,252,120656,1,0,0:0:0:0:
201,248,120997,5,8,0:0:0:0:
209,246,121338,1,0,0:0:0:0:
209,246,121509,1,8,0:0:0:0:
297,291,121679,1,0,0:0:0:0:
170,174,121849,1,0,0:0:0:0:
170,174,121935,1,0,0:0:0:0:
170,174,122020,1,8,0:0:0:0:
170,174,122190,1,0,0:0:0:0:
170,174,122361,1,8,0:0:0:0:
170,174,122702,1,0,0:0:0:0:
170,174,123043,1,8,0:0:0:0:
170,174,123213,1,0,0:0:0:0:
170,174,123384,1,8,0:0:0:0:
170,174,123554,1,8,0:0:0:0:
170,174,123724,1,0,0:0:0:0:
170,174,124065,1,8,0:0:0:0:
170,174,124236,1,8,0:0:0:0:
170,174,124406,1,0,0:0:0:0:
170,174,124747,1,8,0:0:0:0:
170,174,124918,1,8,0:0:0:0:
170,174,125088,1,0,0:0:0:0:
170,174,125259,1,0,0:0:0:0:
170,174,125429,1,8,0:0:0:0:
170,174,125599,1,8,0:0:0:0:
170,174,125770,1,0,0:0:0:0:
170,174,125940,1,0,0:0:0:0:
170,174,126026,1,0,0:0:0:0:
170,174,126111,1,8,0:0:0:0:
170,174,126452,1,0,0:0:0:0:
170,174,126622,1,0,0:0:0:0:
170,174,126793,1,8,0:0:0:0:
101,291,126963,1,8,0:0:0:0:
101,291,127134,1,0,0:0:0:0:
101,291,127219,1,0,0:0:0:0:
101,291,127304,1,0,0:0:0:0:
101,291,127474,1,8,0:0:0:0:
101,291,127560,1,8,0:0:0:0:
101,291,127645,1,8,0:0:0:0:
170,174,127815,1,0,0:0:0:0:
170,174,127986,1,8,0:0:0:0:
170,174,128156,1,8,0:0:0:0:
170,174,128327,1,8,0:0:0:0:
101,291,128497,1,0,0:0:0:0:
101,291,128668,1,8,0:0:0:0:
101,291,128838,1,8,0:0:0:0:
101,291,129179,1,0,0:0:0:0:
101,291,129349,1,8,0:0:0:0:
72,224,129520,1,8,0:0:0:0:
101,291,129690,1,8,0:0:0:0:
101,291,129861,1,0,0:0:0:0:
72,224,129946,1,0,0:0:0:0:
101,291,130031,1,8,0:0:0:0:
72,224,130202,1,0,0:0:0:0:
101,291,130372,1,8,0:0:0:0:
101,291,130543,1,0,0:0:0:0:
72,224,130628,1,0,0:0:0:0:
101,291,130713,1,8,0:0:0:0:
101,291,130884,1,0,0:0:0:0:
101,291,131054,1,8,0:0:0:0:
72,224,131224,1,0,0:0:0:0:
72,224,131565,1,8,0:0:0:0:
328,231,131906,1,0,0:0:0:0:
328,231,132077,1,8,0:0:0:0:
328,231,132162,1,0,0:0:0:0:
328,231,132247,1,0,0:0:0:0:
328,231,132418,1,8,0:0:0:0:
328,231,132588,1,0,0:0:0:0:
328,231,132673,1,0,0:0:0:0:
328,231,132759,5,0,0:0:0:0:
328,231,132929,1,8,0:0:0:0:
328,231,133099,1,0,0:0:0:0:
328,231,133270,1,0,0:0:0:0:
328,231,133440,1,8,0:0:0:0:
328,231,133611,1,0,0:0:0:0:
328,231,133781,1,8,0:0:0:0:
101,291,133952,5,0,0:0:0:0:
101,291,134037,1,0,0:0:0:0:
101,291,134122,1,0,0:0:0:0:
101,291,134207,1,0,0:0:0:0:
101,291,134293,1,8,0:0:0:0:
101,291,134463,1,0,0:0:0:0:
104,270,134548,1,0,0:0:0:0:
101,291,134634,1,8,0:0:0:0:
168,192,137361,5,0,0:0:0:0:
168,192,137702,1,0,0:0:0:0:
168,192,137872,1,8,0:0:0:0:
168,192,138043,1,0,0:0:0:0:
168,192,138384,1,8,0:0:0:0:
248,216,138724,1,0,0:0:0:0:
248,216,139065,1,0,0:0:0:0:
248,216,139406,1,8,0:0:0:0:
248,216,139747,1,0,0:0:0:0:
152,112,144179,5,0,0:0:0:0:
152,112,144690,1,0,0:0:0:0:
152,112,144776,1,0,0:0:0:0:
152,112,145116,1,0,0:0:0:0:
280,176,145543,1,0,0:0:0:0:
356,269,145628,1,0,0:0:0:0:
356,269,145713,1,0,0:0:0:0:
210,299,145884,1,8,0:0:0:0:
210,299,146054,1,0,0:0:0:0:
210,299,146224,1,0,0:0:0:0:
210,299,146395,1,0,0:0:0:0:
356,269,146565,1,8,0:0:0:0:
356,269,146736,1,8,0:0:0:0:
210,299,146906,1,0,0:0:0:0:
332,325,147247,1,8,0:0:0:0:
332,325,147418,1,0,0:0:0:0:
210,299,147588,1,8,0:0:0:0:
210,299,147673,1,8,0:0:0:0:
210,299,147759,1,0,0:0:0:0:
210,299,147929,1,0,0:0:0:0:
210,299,148014,1,8,0:0:0:0:
332,325,148099,1,0,0:0:0:0:
332,325,148270,1,0,0:0:0:0:
332,325,148440,1,8,0:0:0:0:
332,325,148611,1,8,0:0:0:0:
332,325,148781,1,0,0:0:0:0:
332,325,148952,1,8,0:0:0:0:
332,325,149293,1,8,0:0:0:0:
332,325,149378,1,8,0:0:0:0:
332,325,149463,1,0,0:0:0:0:
170,194,149634,1,0,0:0:0:0:
170,194,149804,1,0,0:0:0:0:
170,194,149974,1,0,0:0:0:0:
170,194,150060,1,8,0:0:0:0:
129,92,150145,1,0,0:0:0:0:
170,194,150315,1,0,0:0:0:0:
170,194,150486,1,8,0:0:0:0:
170,194,150656,1,0,0:0:0:0:
170,194,150997,1,0,0:0:0:0:
213,271,151168,1,8,0:0:0:0:
213,271,151338,1,0,0:0:0:0:
213,271,151509,1,0,0:0:0:0:
213,271,151679,1,8,0:0:0:0:
291,240,151849,1,0,0:0:0:0:
213,271,152020,1,8,0:0:0:0:
213,271,152190,1,0,0:0:0:0:
213,271,152361,1,8,0:0:0:0:
213,271,152446,1,0,0:0:0:0:
213,271,152531,1,0,0:0:0:0:
148,130,152702,1,0,0:0:0:0:
148,130,152872,1,8,0:0:0:0:
148,130,153043,1,8,0:0:0:0:
148,130,153128,1,0,0:0:0:0:
148,130,153213,1,8,0:0:0:0:
148,130,153384,1,0,0:0:0:0:
148,130,153554,1,8,0:0:0:0:
148,130,153724,1,0,0:0:0:0:
148,130,153895,1,0,0:0:0:0:
148,130,153980,1,0,0:0:0:0:
148,130,154065,1,8,0:0:0:0:
148,130,154236,1,0,0:0:0:0:
148,130,154406,1,0,0:0:0:0:
148,130,154577,1,0,0:0:0:0:
148,130,154662,1,8,0:0:0:0:
148,130,154747,1,8,0:0:0:0:
256,192,155770,12,0,156281,0:0:0:0:
272,273,156452,5,4,0:0:0:0:
304,211,156793,1,8,0:0:0:0:
304,211,156878,1,8,0:0:0:0:
304,211,156963,1,0,0:0:0:0:
304,211,157134,1,0,0:0:0:0:
304,211,157304,1,0,0:0:0:0:
304,211,157474,1,8,0:0:0:0:
304,211,157815,1,8,0:0:0:0:
244,248,157986,1,0,0:0:0:0:
244,248,158071,1,0,0:0:0:0:
244,248,158156,1,0,0:0:0:0:
244,248,158327,1,0,0:0:0:0:
244,248,158497,1,8,0:0:0:0:
244,248,158582,1,8,0:0:0:0:
244,248,158668,1,0,0:0:0:0:
244,248,158753,1,0,0:0:0:0:
244,248,158838,1,8,0:0:0:0:
244,248,159009,1,0,0:0:0:0:
244,248,159179,1,4,0:0:0:0:
244,248,159349,1,8,0:0:0:0:
244,248,159435,1,8,0:0:0:0:
244,248,159520,1,0,0:0:0:0:
244,248,159690,1,0,0:0:0:0:
244,248,159861,1,8,0:0:0:0:
244,248,160031,1,8,0:0:0:0:
244,248,160202,1,0,0:0:0:0:
244,248,160372,1,0,0:0:0:0:
244,248,160543,1,8,0:0:0:0:
244,248,160884,1,8,0:0:0:0:
144,188,160969,1,8,0:0:0:0:
244,248,161054,1,0,0:0:0:0:
144,188,161224,1,0,0:0:0:0:
244,248,161395,1,0,0:0:0:0:
244,248,161565,1,8,0:0:0:0:
244,248,161906,1,12,0:0:0:0:
244,248,162247,1,8,0:0:0:0:
244,248,162332,1,0,0:0:0:0:
244,248,162418,1,8,0:0:0:0:
244,248,162588,1,0,0:0:0:0:
244,248,162929,1,8,0:0:0:0:
244,248,163099,1,8,0:0:0:0:
244,248,163270,1,0,0:0:0:0:
244,248,163355,1,0,0:0:0:0:
244,248,163440,1,0,0:0:0:0:
244,248,163611,1,8,0:0:0:0:
244,248,163952,1,0,0:0:0:0:
244,248,164122,1,8,0:0:0:0:
244,248,164207,1,8,0:0:0:0:
244,248,164293,1,0,0:0:0:0:
244,248,164463,1,8,0:0:0:0:
244,248,164634,1,4,0:0:0:0:
244,248,164804,1,0,0:0:0:0:
244,248,164974,1,8,0:0:0:0:
244,248,165145,1,8,0:0:0:0:
244,248,165315,1,0,0:0:0:0:
244,248,165486,1,8,0:0:0:0:
244,248,165571,1,8,0:0:0:0:
244,248,165656,1,0,0:0:0:0:
244,248,165827,1,0,0:0:0:0:
244,248,165997,1,8,0:0:0:0:
307,170,166168,1,8,0:0:0:0:
308,182,166253,1,8,0:0:0:0:
94,186,166338,1,0,0:0:0:0:
94,186,166423,1,0,0:0:0:0:
308,182,166509,1,8,0:0:0:0:
130,189,166679,1,0,0:0:0:0:
94,186,166849,1,0,0:0:0:0:
94,186,167020,1,8,0:0:0:0:
94,186,167105,1,8,0:0:0:0:
94,186,167190,1,8,0:0:0:0:
192,163,167361,1,4,0:0:0:0:
186,275,167872,1,0,0:0:0:0:
186,275,168043,1,8,0:0:0:0:
186,275,168384,1,8,0:0:0:0:
186,275,168554,1,0,0:0:0:0:
186,275,168724,1,8,0:0:0:0:
186,275,168895,1,0,0:0:0:0:
110,117,168980,1,0,0:0:0:0:
186,275,169065,1,8,0:0:0:0:
186,275,169151,1,8,0:0:0:0:
186,275,169236,1,8,0:0:0:0:
186,275,169406,1,0,0:0:0:0:
186,275,169577,1,8,0:0:0:0:
120,144,169662,1,8,0:0:0:0:
186,275,169747,1,8,0:0:0:0:
308,182,169918,1,8,0:0:0:0:
262,222,170088,1,4,0:0:0:0:
118,146,170259,1,8,0:0:0:0:
118,146,170344,1,8,0:0:0:0:
118,146,170429,1,0,0:0:0:0:
118,146,170599,1,8,0:0:0:0:
101,274,170770,1,0,0:0:0:0:
101,274,170855,1,0,0:0:0:0:
101,274,170940,1,0,0:0:0:0:
101,274,171111,1,8,0:0:0:0:
101,274,171281,1,0,0:0:0:0:
101,274,171452,1,8,0:0:0:0:
101,274,171622,1,0,0:0:0:0:
308,182,171707,1,0,0:0:0:0:
101,274,171793,1,8,0:0:0:0:
101,274,171963,1,0,0:0:0:0:
101,274,172134,1,8,0:0:0:0:
101,274,172474,1,0,0:0:0:0:
192,163,172815,1,4,0:0:0:0:
40,119,173156,1,8,0:0:0:0:
186,275,173326,1,0,0:0:0:0:
186,275,173667,1,8,0:0:0:0:
186,275,173838,1,0,0:0:0:0:
186,275,174008,1,0,0:0:0:0:
58,244,174179,1,8,0:0:0:0:
248,287,174349,1,0,0:0:0:0:
187,33,174520,1,0,0:0:0:0:
187,33,174605,1,0,0:0:0:0:
186,275,174690,1,8,0:0:0:0:
186,275,174860,1,0,0:0:0:0:
235,213,175031,1,8,0:0:0:0:
186,275,175372,1,8,0:0:0:0:
262,222,175543,1,4,0:0:0:0:
118,146,175713,1,8,0:0:0:0:
118,146,175798,1,8,0:0:0:0:
118,146,175883,1,0,0:0:0:0:
118,146,176053,1,8,0:0:0:0:
101,274,176224,1,0,0:0:0:0:
101,274,176309,1,0,0:0:0:0:
101,274,176394,1,0,0:0:0:0:
101,274,176565,1,8,0:0:0:0:
101,274,176735,1,0,0:0:0:0:
101,274,176906,1,8,0:0:0:0:
101,274,177076,1,0,0:0:0:0:
101,274,177161,1,0,0:0:0:0:
101,274,177247,1,8,0:0:0:0:
101,274,177332,1,8,0:0:0:0:
101,274,177417,1,0,0:0:0:0:
101,274,177588,1,8,0:0:0:0:
58,117,177759,1,0,0:0:0:0:
58,117,177844,1,0,0:0:0:0:
101,274,177928,1,0,0:0:0:0:
76,136,178099,1,8,0:0:0:0:
198,134,178270,1,4,0:0:0:0:
304,264,178782,1,0,0:0:0:0:
304,264,178952,1,8,0:0:0:0:
304,264,179037,1,8,0:0:0:0:
304,264,179123,1,0,0:0:0:0:
304,264,179293,1,8,0:0:0:0:
192,200,179463,1,8,0:0:0:0:
192,200,179634,1,0,0:0:0:0:
192,200,179804,1,0,0:0:0:0:
192,200,179890,1,0,0:0:0:0:
192,200,179975,1,8,0:0:0:0:
106,103,180060,1,8,0:0:0:0:
106,103,180145,1,0,0:0:0:0:
104,248,180316,1,0,0:0:0:0:
112,264,180657,1,8,0:0:0:0:
240,176,180827,1,0,0:0:0:0:
200,296,180998,1,8,0:0:0:0:
272,208,181168,1,0,0:0:0:0:
272,208,181338,1,0,0:0:0:0:
272,208,181509,1,0,0:0:0:0:
120,216,181594,1,0,0:0:0:0:
272,208,181679,1,8,0:0:0:0:
128,192,182020,1,8,0:0:0:0:
272,208,182191,1,8,0:0:0:0:
272,208,182361,1,0,0:0:0:0:
144,248,182532,1,8,0:0:0:0:
144,248,182617,1,8,0:0:0:0:
144,248,182702,1,0,0:0:0:0:
144,248,182787,1,0,0:0:0:0:
144,248,182873,1,8,0:0:0:0:
144,248,183043,1,0,0:0:0:0:
144,248,183213,1,0,0:0:0:0:
144,248,183384,1,8,0:0:0:0:
208,320,183725,1,0,0:0:0:0:
208,320,183980,1,8,0:0:0:0:
208,320,184066,1,0,0:0:0:0:
208,320,184236,1,0,0:0:0:0:
208,320,184407,1,8,0:0:0:0:
208,320,184492,1,8,0:0:0:0:
208,320,184577,1,0,0:0:0:0:
208,320,184748,1,8,0:0:0:0:
208,320,185088,1,0,0:0:0:0:
112,216,185259,1,8,0:0:0:0:
208,320,185344,1,8,0:0:0:0:
208,320,185429,1,0,0:0:0:0:
208,320,185600,1,0,0:0:0:0:
221,144,185685,1,0,0:0:0:0:
127,97,185770,1,8,0:0:0:0:
120,312,185941,1,0,0:0:0:0:
120,312,186111,1,8,0:0:0:0:
221,144,186281,1,8,0:0:0:0:
232,288,186452,1,0,0:0:0:0:
112,216,186708,5,8,0:0:0:0:
112,216,186793,1,0,0:0:0:0:
128,296,186963,1,8,0:0:0:0:
128,296,187134,1,0,0:0:0:0:
128,296,187219,1,0,0:0:0:0:
128,296,187304,1,0,0:0:0:0:
128,296,187475,1,8,0:0:0:0:
128,296,187645,1,0,0:0:0:0:
184,208,187816,5,8,0:0:0:0:
184,208,187986,1,8,0:0:0:0:
232,288,188071,1,8,0:0:0:0:
184,208,188157,1,0,0:0:0:0:
184,208,188327,1,0,0:0:0:0:
184,208,188498,1,8,0:0:0:0:
136,304,188668,1,0,0:0:0:0:
136,304,188753,1,0,0:0:0:0:
184,208,188838,1,0,0:0:0:0:
136,304,188924,1,0,0:0:0:0:
136,304,189009,1,8,0:0:0:0:
246,308,189179,5,12,0:0:0:0:
155,242,189519,1,0,0:0:0:0:
155,242,189690,1,8,0:0:0:0:
155,242,189775,1,0,0:0:0:0:
394,255,189860,1,0,0:0:0:0:
155,242,189946,1,0,0:0:0:0:
155,242,190031,1,8,0:0:0:0:
155,242,190201,1,0,0:0:0:0:
155,242,190372,1,8,0:0:0:0:
155,242,190542,1,0,0:0:0:0:
155,242,190713,1,8,0:0:0:0:
296,191,190884,1,8,0:0:0:0:
155,242,191054,1,0,0:0:0:0:
155,242,191224,1,8,0:0:0:0:
155,242,191565,1,8,0:0:0:0:
194,155,191735,1,8,0:0:0:0:
261,264,191821,1,8,0:0:0:0:
142,231,191906,5,0,0:0:0:0:
142,231,192077,1,8,0:0:0:0:
142,231,192247,1,0,0:0:0:0:
249,172,192417,1,8,0:0:0:0:
249,172,192588,1,0,0:0:0:0:
249,172,192673,1,0,0:0:0:0:
249,172,192758,1,8,0:0:0:0:
142,231,192929,1,0,0:0:0:0:
142,231,193099,1,8,0:0:0:0:
142,231,193269,1,0,0:0:0:0:
64,104,193611,1,8,0:0:0:0:
352,104,193781,1,0,0:0:0:0:
352,104,193866,1,0,0:0:0:0:
352,104,193952,1,0,0:0:0:0:
249,172,194122,1,8,0:0:0:0:
246,308,194292,1,0,0:0:0:0:
246,308,194463,1,0,0:0:0:0:
249,172,194633,5,12,0:0:0:0:
155,242,194974,1,0,0:0:0:0:
155,242,195145,1,8,0:0:0:0:
155,242,195230,1,0,0:0:0:0:
394,255,195315,1,0,0:0:0:0:
155,242,195401,1,0,0:0:0:0:
155,242,195486,1,8,0:0:0:0:
155,242,195656,1,0,0:0:0:0:
155,242,195827,1,8,0:0:0:0:
155,242,195997,1,0,0:0:0:0:
155,242,196168,1,8,0:0:0:0:
155,242,196253,1,8,0:0:0:0:
155,242,196338,1,0,0:0:0:0:
261,264,196509,1,0,0:0:0:0:
261,264,196679,1,8,0:0:0:0:
155,242,197020,1,8,0:0:0:0:
194,155,197190,1,0,0:0:0:0:
142,231,197361,5,0,0:0:0:0:
142,231,197446,1,8,0:0:0:0:
142,231,197616,1,8,0:0:0:0:
142,231,197702,1,0,0:0:0:0:
249,172,197872,1,8,0:0:0:0:
249,172,198043,1,0,0:0:0:0:
249,172,198128,1,0,0:0:0:0:
249,172,198213,1,8,0:0:0:0:
142,231,198384,1,8,0:0:0:0:
142,231,198469,1,8,0:0:0:0:
142,231,198554,1,8,0:0:0:0:
142,231,198724,1,0,0:0:0:0:
142,231,199065,1,0,0:0:0:0:
142,231,199151,1,8,0:0:0:0:
142,231,199321,1,8,0:0:0:0:
142,231,199406,1,0,0:0:0:0:
249,172,199577,1,0,0:0:0:0:
246,308,199747,1,8,0:0:0:0:
246,308,199832,1,8,0:0:0:0:
246,308,199918,1,8,0:0:0:0:
249,172,200088,5,0,0:0:0:0:
35,201,200429,1,8,0:0:0:0:
148,108,200599,1,0,0:0:0:0:
208,144,200685,1,0,0:0:0:0:
148,108,200770,1,8,0:0:0:0:
148,108,200940,1,0,0:0:0:0:
196,171,201111,1,8,0:0:0:0:
196,171,201281,1,8,0:0:0:0:
196,171,201452,1,0,0:0:0:0:
196,171,201622,1,0,0:0:0:0:
246,308,201793,5,0,0:0:0:0:
246,308,201878,1,8,0:0:0:0:
246,308,201963,1,8,0:0:0:0:
246,308,202048,1,8,0:0:0:0:
246,308,202134,1,0,0:0:0:0:
196,171,202304,1,0,0:0:0:0:
196,171,202474,1,8,0:0:0:0:
196,171,202730,1,8,0:0:0:0:
196,171,202815,1,0,0:0:0:0:
196,171,202986,1,8,0:0:0:0:
196,171,203156,1,0,0:0:0:0:
196,171,203327,1,0,0:0:0:0:
196,171,203497,1,8,0:0:0:0:
196,171,203582,1,8,0:0:0:0:
281,144,203753,1,0,0:0:0:0:
281,144,203838,1,8,0:0:0:0:
281,144,204009,1,8,0:0:0:0:
281,144,204179,1,0,0:0:0:0:
281,144,204349,1,8,0:0:0:0:
281,144,204435,1,8,0:0:0:0:
51,161,204520,1,0,0:0:0:0:
51,161,204605,1,8,0:0:0:0:
281,144,204776,1,0,0:0:0:0:
281,144,204861,1,8,0:0:0:0:
176,221,205031,1,0,0:0:0:0:
176,221,205202,1,8,0:0:0:0:
176,221,205287,1,8,0:0:0:0:
176,221,205372,1,8,0:0:0:0:
250,276,205543,1,0,0:0:0:0:
250,276,205884,1,0,0:0:0:0:
250,276,206054,1,8,0:0:0:0:
250,276,206139,1,8,0:0:0:0:
250,276,206224,1,0,0:0:0:0:
250,276,206395,1,8,0:0:0:0:
250,276,206565,1,0,0:0:0:0:
250,276,206736,1,0,0:0:0:0:
250,276,206906,1,8,0:0:0:0:
250,276,207077,1,0,0:0:0:0:
250,276,207162,1,0,0:0:0:0:
250,276,207247,1,8,0:0:0:0:
250,276,207418,1,0,0:0:0:0:
250,276,207588,1,8,0:0:0:0:
250,276,207929,1,8,0:0:0:0:
250,276,208014,1,0,0:0:0:0:
250,276,208099,1,8,0:0:0:0:
250,276,208185,1,8,0:0:0:0:
250,276,208270,1,0,0:0:0:0:
250,276,208440,1,0,0:0:0:0:
250,276,208611,1,8,0:0:0:0:
250,276,208696,1,8,0:0:0:0:
250,276,208866,1,0,0:0:0:0:
250,276,208952,1,8,0:0:0:0:
250,276,209122,1,0,0:0:0:0:
250,276,209293,1,8,0:0:0:0:
250,276,209378,1,8,0:0:0:0:
250,276,209463,1,0,0:0:0:0:
250,276,209634,1,0,0:0:0:0:
250,276,209974,1,8,0:0:0:0:
250,276,210145,1,8,0:0:0:0:
250,276,210315,1,0,0:0:0:0:
250,276,210486,1,0,0:0:0:0:
250,276,210656,1,8,0:0:0:0:
238,255,210741,1,8,0:0:0:0:
250,276,210827,1,8,0:0:0:0:
250,276,210997,1,4,0:0:0:0:
250,276,211509,1,8,0:0:0:0:
250,276,211679,1,0,0:0:0:0:
49,275,212020,1,8,0:0:0:0:
49,275,212361,1,0,0:0:0:0:
49,275,212702,1,8,0:0:0:0:
49,275,212872,1,8,0:0:0:0:
49,275,213043,1,0,0:0:0:0:
49,275,213384,1,8,0:0:0:0:
205,257,213724,1,0,0:0:0:0:
205,257,213895,1,8,0:0:0:0:
205,257,214065,1,8,0:0:0:0:
205,257,214236,1,0,0:0:0:0:
205,257,214406,1,8,0:0:0:0:
205,257,214577,1,0,0:0:0:0:
205,257,214747,1,8,0:0:0:0:
205,257,215088,1,0,0:0:0:0:
205,257,215259,1,0,0:0:0:0:
205,257,215344,1,0,0:0:0:0:
205,257,215429,1,8,0:0:0:0:
205,257,215770,1,0,0:0:0:0:
205,257,216111,1,8,0:0:0:0:
205,257,216281,1,8,0:0:0:0:
205,257,216452,1,0,0:0:0:0:
205,257,216793,1,8,0:0:0:0:
205,257,216963,1,0,0:0:0:0:
205,257,217134,1,8,0:0:0:0:
205,257,217645,1,0,0:0:0:0:
205,257,217815,1,8,0:0:0:0:
205,257,217901,1,8,0:0:0:0:
205,257,217986,1,8,0:0:0:0:
205,257,218156,1,0,0:0:0:0:
205,257,218497,1,8,0:0:0:0:
205,257,218668,1,0,0:0:0:0:
205,257,219009,1,0,0:0:0:0:
205,257,219094,1,0,0:0:0:0:
205,257,219179,1,8,0:0:0:0:
205,257,219349,1,0,0:0:0:0:
205,257,219520,1,8,0:0:0:0:
205,257,219861,1,0,0:0:0:0:
205,257,220202,1,8,0:0:0:0:
205,257,220372,1,8,0:0:0:0:
205,257,220543,1,0,0:0:0:0:
205,257,220884,1,8,0:0:0:0:
205,257,220981,1,8,0:0:0:0:
205,257,221078,1,8,0:0:0:0:
205,257,221224,1,0,0:0:0:0:
205,257,221395,1,0,0:0:0:0:
205,257,221565,1,8,0:0:0:0:
205,257,221736,1,8,0:0:0:0:
205,257,221929,1,0,0:0:0:0:
205,257,222027,1,0,0:0:0:0:
205,257,222124,1,0,0:0:0:0:
205,257,222222,1,0,0:0:0:0:
205,257,222319,1,0,0:0:0:0:
