osu file format v14

[General]
AudioFilename: audio.mp3
AudioLeadIn: 0
PreviewTime: 101651
Countdown: 0
SampleSet: Normal
StackLeniency: 0.7
Mode: 1
LetterboxInBreaks: 0
WidescreenStoryboard: 0

[Editor]
Bookmarks: 123628,134538,156356,210901
DistanceSpacing: 0.8
BeatDivisor: 4
GridSize: 8
TimelineZoom: 1.200001

[Metadata]
Title:AIWAGUMA
TitleUnicode:AIWAGUMA
Artist:illion
ArtistUnicode:illion
Creator:Ellyu
Version:Muzukashii
Source:
Tags:UBU Yojiro Noda 野田洋次郎 Folk Rock _Yiiiii Pata-Mon Tenshichan Superstar Tofu1222 Antalf handsome muscle
BeatmapID:1247898
BeatmapSetID:533037

[Difficulty]
HPDrainRate:6
CircleSize:2
OverallDifficulty:4.5
ApproachRate:5
SliderMultiplier:1.4
SliderTickRate:1

[Events]
//Background and Video events
0,0,"49389130_p0.png",0,0
//Break Periods
2,134834,136161
2,139606,144343
//Storyboard Layer 0 (Background)
//Storyboard Layer 1 (Fail)
//Storyboard Layer 2 (Pass)
//Storyboard Layer 3 (Foreground)
//Storyboard Sound Samples

[TimingPoints]
-366,340.909090909091,4,1,1,50,1,0
827,-133.333333333333,4,1,1,50,0,0
997,-133.333333333333,4,1,1,50,0,0
11224,-117.647058823529,4,1,1,50,0,0
11565,-105.263157894737,4,1,1,50,0,0
11906,-100,4,1,1,50,0,0
87503,-100,4,2,10,50,0,0
87673,-100,4,1,1,50,0,0
100116,-100,4,2,10,50,0,0
100457,-100,4,2,11,50,0,0
100628,-100,4,1,1,50,0,0
101906,-100,4,1,1,50,0,1
123724,-100,4,1,1,50,0,0
178270,-100,4,1,1,50,0,1
210997,-100,4,1,1,50,0,0
220884,389.61038961039,4,1,1,50,1,8
220884,-87.719298245614,4,1,1,50,0,0
221224,340.909090909091,4,1,1,50,1,8
221735,389.61038961039,4,1,1,50,1,0
221735,-87.719298245614,4,1,1,50,0,0

[HitObjects]
152,168,827,5,8,0:0:0:0:
328,64,997,5,0,0:0:0:0:
152,168,1509,1,8,0:0:0:0:
328,64,1679,1,0,0:0:0:0:
328,64,2020,1,8,0:0:0:0:
168,64,2361,1,0,0:0:0:0:
152,168,2702,1,0,0:0:0:0:
152,168,2872,1,0,0:0:0:0:
132,163,3043,1,0,0:0:0:0:
328,64,3384,1,8,0:0:0:0:
230,170,3724,1,0,0:0:0:0:
165,106,4406,1,8,0:0:0:0:
96,224,4747,1,0,0:0:0:0:
152,168,4918,1,0,0:0:0:0:
120,56,5088,1,8,0:0:0:0:
152,168,5770,1,8,0:0:0:0:
256,208,6111,1,8,0:0:0:0:
165,163,6452,1,0,0:0:0:0:
152,168,6793,1,0,0:0:0:0:
152,168,6963,1,8,0:0:0:0:
120,256,7134,1,0,0:0:0:0:
208,168,7474,1,8,0:0:0:0:
252,274,7815,1,0,0:0:0:0:
120,256,8156,1,0,0:0:0:0:
120,256,8327,1,8,0:0:0:0:
112,80,8497,1,0,0:0:0:0:
208,168,8838,1,8,0:0:0:0:
64,149,9179,1,0,0:0:0:0:
64,149,9861,1,8,0:0:0:0:
56,186,10202,1,0,0:0:0:0:
136,256,10372,1,0,0:0:0:0:
56,186,10543,1,8,0:0:0:0:
254,143,10884,1,0,0:0:0:0:
56,186,11224,1,8,0:0:0:0:
136,256,11565,1,0,0:0:0:0:
208,168,11906,1,4,0:0:0:0:
312,216,12588,1,8,0:0:0:0:
312,216,13270,5,0,0:0:0:0:
240,240,13440,1,0,0:0:0:0:
312,216,13611,1,0,0:0:0:0:
200,80,13952,1,8,0:0:0:0:
241,200,14463,1,8,0:0:0:0:
312,216,14634,1,0,0:0:0:0:
184,200,14974,1,0,0:0:0:0:
136,256,15145,1,0,0:0:0:0:
184,200,15486,1,0,0:0:0:0:
72,96,15656,1,8,0:0:0:0:
283,152,15997,1,0,0:0:0:0:
200,80,16679,1,8,0:0:0:0:
208,272,17020,1,0,0:0:0:0:
80,176,17361,1,8,0:0:0:0:
264,232,18043,5,0,0:0:0:0:
80,176,18724,1,8,0:0:0:0:
240,241,18895,1,8,0:0:0:0:
165,282,19065,1,0,0:0:0:0:
208,272,19747,1,0,0:0:0:0:
176,208,20088,1,8,0:0:0:0:
32,240,20429,1,0,0:0:0:0:
208,272,20599,1,0,0:0:0:0:
176,208,20940,1,0,0:0:0:0:
224,344,21111,1,8,0:0:0:0:
176,208,21793,1,8,0:0:0:0:
304,256,21963,1,8,0:0:0:0:
304,256,22048,1,8,0:0:0:0:
304,256,22134,1,8,0:0:0:0:
136,272,22304,1,8,0:0:0:0:
176,208,22474,1,0,0:0:0:0:
136,272,22645,1,0,0:0:0:0:
176,208,22815,1,4,0:0:0:0:
64,184,23497,1,0,0:0:0:0:
64,184,23838,1,8,0:0:0:0:
280,88,24009,1,0,0:0:0:0:
64,184,24179,1,0,0:0:0:0:
170,300,24520,1,0,0:0:0:0:
170,300,24861,1,8,0:0:0:0:
136,272,25202,1,0,0:0:0:0:
216,200,25543,1,0,0:0:0:0:
216,200,25884,1,0,0:0:0:0:
215,282,26054,1,0,0:0:0:0:
216,200,26224,1,8,0:0:0:0:
216,200,26565,1,8,0:0:0:0:
192,40,26906,1,0,0:0:0:0:
216,200,27588,1,8,0:0:0:0:
344,192,27759,1,8,0:0:0:0:
137,249,27929,1,0,0:0:0:0:
344,192,28099,1,0,0:0:0:0:
344,192,28270,1,8,0:0:0:0:
344,192,28781,1,0,0:0:0:0:
120,176,28952,1,8,0:0:0:0:
253,179,29293,1,8,0:0:0:0:
152,176,29463,1,8,0:0:0:0:
120,176,29634,1,0,0:0:0:0:
240,232,29974,1,0,0:0:0:0:
64,88,30315,1,8,0:0:0:0:
64,88,30997,1,0,0:0:0:0:
344,192,31509,1,0,0:0:0:0:
64,88,31679,1,8,0:0:0:0:
64,88,32020,1,8,0:0:0:0:
432,96,32190,1,8,0:0:0:0:
64,88,32361,5,0,0:0:0:0:
160,168,32702,1,0,0:0:0:0:
64,88,33043,1,8,0:0:0:0:
312,248,33384,1,8,0:0:0:0:
312,248,33469,1,8,0:0:0:0:
312,248,33554,1,8,0:0:0:0:
266,176,33724,1,0,0:0:0:0:
124,92,34065,1,0,0:0:0:0:
128,256,34236,1,8,0:0:0:0:
128,256,34406,1,0,0:0:0:0:
192,276,34747,1,8,0:0:0:0:
305,228,35088,1,0,0:0:0:0:
128,256,35259,1,0,0:0:0:0:
305,228,35429,1,8,0:0:0:0:
128,256,35599,1,8,0:0:0:0:
192,276,35770,1,0,0:0:0:0:
128,256,36111,1,8,0:0:0:0:
305,228,36452,1,0,0:0:0:0:
216,56,36793,1,0,0:0:0:0:
240,262,36963,1,0,0:0:0:0:
128,256,37134,1,8,0:0:0:0:
128,256,37304,1,8,0:0:0:0:
128,256,37474,1,0,0:0:0:0:
305,228,37815,1,0,0:0:0:0:
166,225,38156,1,8,0:0:0:0:
305,228,38497,1,0,0:0:0:0:
128,256,38838,1,8,0:0:0:0:
280,96,39179,1,0,0:0:0:0:
128,256,39349,1,0,0:0:0:0:
128,256,39520,1,8,0:0:0:0:
128,256,39690,1,8,0:0:0:0:
256,224,39861,1,0,0:0:0:0:
256,224,40202,1,8,0:0:0:0:
128,256,40372,1,0,0:0:0:0:
176,304,40543,1,0,0:0:0:0:
176,304,40884,1,8,0:0:0:0:
176,304,41224,1,0,0:0:0:0:
128,256,41565,1,8,0:0:0:0:
304,210,41906,1,4,0:0:0:0:
146,161,42418,1,8,0:0:0:0:
304,210,42588,1,4,0:0:0:0:
128,256,42929,1,8,0:0:0:0:
169,146,43270,1,4,0:0:0:0:
169,146,43952,1,4,0:0:0:0:
264,224,44634,1,0,0:0:0:0:
128,256,44804,1,0,0:0:0:0:
272,296,44974,1,0,0:0:0:0:
215,282,45145,1,0,0:0:0:0:
128,256,45315,1,8,0:0:0:0:
272,296,45656,1,8,0:0:0:0:
160,208,45997,1,0,0:0:0:0:
128,256,46168,1,8,0:0:0:0:
160,208,46509,1,8,0:0:0:0:
160,208,46679,1,0,0:0:0:0:
128,256,47020,1,0,0:0:0:0:
128,256,47190,1,8,0:0:0:0:
225,276,47361,1,0,0:0:0:0:
128,256,47702,1,0,0:0:0:0:
128,256,47872,1,0,0:0:0:0:
128,256,48043,1,8,0:0:0:0:
216,296,48384,1,0,0:0:0:0:
128,256,48554,1,0,0:0:0:0:
225,276,48724,1,8,0:0:0:0:
128,256,48895,1,8,0:0:0:0:
128,256,49065,1,0,0:0:0:0:
208,128,49406,1,4,0:0:0:0:
128,256,49747,1,8,0:0:0:0:
208,240,50088,1,0,0:0:0:0:
208,240,50429,1,0,0:0:0:0:
296,216,50770,1,0,0:0:0:0:
225,276,50940,1,8,0:0:0:0:
225,276,51281,1,8,0:0:0:0:
296,216,51452,1,0,0:0:0:0:
304,256,51793,1,8,0:0:0:0:
304,256,52134,1,0,0:0:0:0:
296,216,52474,1,8,0:0:0:0:
152,184,52815,1,0,0:0:0:0:
152,184,53156,1,8,0:0:0:0:
296,216,53497,1,8,0:0:0:0:
296,216,53668,1,0,0:0:0:0:
152,184,53838,1,0,0:0:0:0:
296,216,54009,1,0,0:0:0:0:
225,276,54179,1,8,0:0:0:0:
152,184,54520,1,8,0:0:0:0:
152,184,54861,1,0,0:0:0:0:
296,216,55202,1,8,0:0:0:0:
296,216,55287,1,8,0:0:0:0:
296,216,55372,1,8,0:0:0:0:
216,304,55543,1,4,0:0:0:0:
64,224,55884,1,0,0:0:0:0:
215,282,56054,1,0,0:0:0:0:
208,240,56224,1,0,0:0:0:0:
121,200,56565,1,8,0:0:0:0:
208,240,56906,1,0,0:0:0:0:
296,216,57247,1,0,0:0:0:0:
296,216,57418,1,0,0:0:0:0:
296,216,57588,1,8,0:0:0:0:
296,216,57759,1,8,0:0:0:0:
296,216,57929,1,8,0:0:0:0:
296,216,58099,1,0,0:0:0:0:
296,216,58270,1,0,0:0:0:0:
296,248,58440,1,8,0:0:0:0:
296,216,58781,1,8,0:0:0:0:
229,153,58952,1,0,0:0:0:0:
296,248,59293,1,0,0:0:0:0:
296,216,59463,1,0,0:0:0:0:
164,87,59634,1,8,0:0:0:0:
296,248,59974,1,0,0:0:0:0:
296,216,60145,1,8,0:0:0:0:
296,248,60315,1,0,0:0:0:0:
241,200,60486,1,0,0:0:0:0:
296,216,60656,1,8,0:0:0:0:
160,208,60997,1,8,0:0:0:0:
72,256,61338,1,0,0:0:0:0:
296,216,61509,1,0,0:0:0:0:
72,256,61679,1,0,0:0:0:0:
72,256,62020,1,8,0:0:0:0:
72,256,62361,1,0,0:0:0:0:
217,232,62531,5,0,0:0:0:0:
72,256,62702,1,0,0:0:0:0:
215,282,63213,1,8,0:0:0:0:
296,216,63384,1,0,0:0:0:0:
72,272,63724,1,0,0:0:0:0:
72,272,63895,1,0,0:0:0:0:
192,200,64065,1,8,0:0:0:0:
368,248,64236,1,8,0:0:0:0:
131,78,64406,1,0,0:0:0:0:
368,248,64577,1,0,0:0:0:0:
368,248,64747,1,8,0:0:0:0:
368,248,64918,1,8,0:0:0:0:
368,248,65088,1,0,0:0:0:0:
208,104,65429,1,8,0:0:0:0:
368,248,65599,1,8,0:0:0:0:
241,200,65685,1,8,0:0:0:0:
208,104,65770,1,8,0:0:0:0:
368,248,65940,1,0,0:0:0:0:
368,248,66111,1,8,0:0:0:0:
368,248,66281,1,0,0:0:0:0:
128,160,66452,1,12,0:0:0:0:
288,176,66793,5,8,0:0:0:0:
216,160,66963,1,8,0:0:0:0:
288,176,67134,1,0,0:0:0:0:
288,176,67474,1,8,0:0:0:0:
139,71,67815,1,0,0:0:0:0:
368,248,67986,1,0,0:0:0:0:
368,248,68327,1,0,0:0:0:0:
139,71,68497,1,8,0:0:0:0:
368,248,68838,1,8,0:0:0:0:
288,176,69179,1,0,0:0:0:0:
225,276,69349,1,8,0:0:0:0:
368,248,69690,1,0,0:0:0:0:
368,248,69861,1,8,0:0:0:0:
225,276,70202,1,8,0:0:0:0:
190,315,70543,1,0,0:0:0:0:
190,315,71224,1,0,0:0:0:0:
368,248,71395,1,0,0:0:0:0:
192,96,71565,1,0,0:0:0:0:
368,248,71736,1,8,0:0:0:0:
368,248,71906,1,0,0:0:0:0:
368,248,72077,1,8,0:0:0:0:
368,248,72247,1,0,0:0:0:0:
264,176,72588,1,0,0:0:0:0:
368,248,72929,1,8,0:0:0:0:
368,248,73099,1,8,0:0:0:0:
264,176,73270,1,8,0:0:0:0:
368,248,73440,1,0,0:0:0:0:
368,248,73781,1,0,0:0:0:0:
186,288,73952,1,8,0:0:0:0:
160,208,74293,1,8,0:0:0:0:
189,315,74463,1,8,0:0:0:0:
289,237,74634,1,0,0:0:0:0:
223,128,75145,1,8,0:0:0:0:
289,237,75315,1,0,0:0:0:0:
215,215,75656,1,8,0:0:0:0:
104,232,75997,5,8,0:0:0:0:
72,176,76082,1,8,0:0:0:0:
128,248,76168,1,8,0:0:0:0:
128,248,76338,1,8,0:0:0:0:
56,200,76679,1,0,0:0:0:0:
128,248,77020,1,8,0:0:0:0:
208,168,77361,1,0,0:0:0:0:
208,168,78043,1,0,0:0:0:0:
208,168,78724,1,0,0:0:0:0:
208,168,79406,1,8,0:0:0:0:
208,168,80088,1,0,0:0:0:0:
208,168,80770,1,0,0:0:0:0:
208,168,81452,1,0,0:0:0:0:
56,200,82134,1,8,0:0:0:0:
208,168,82645,1,8,0:0:0:0:
208,168,82815,1,0,0:0:0:0:
264,216,83497,1,0,0:0:0:0:
264,216,84179,1,0,0:0:0:0:
264,216,84861,1,8,0:0:0:0:
264,216,85543,1,0,0:0:0:0:
56,136,86224,1,8,0:0:0:0:
264,216,86906,1,8,0:0:0:0:
376,224,87077,1,0,0:0:0:0:
160,216,87247,1,8,0:0:0:0:
376,224,87418,1,8,0:0:0:0:
286,118,87588,1,4,0:0:0:0:
216,184,88270,5,4,0:0:0:0:
376,224,88440,1,0,0:0:0:0:
184,80,88611,1,0,0:0:0:0:
376,224,88781,1,0,0:0:0:0:
200,208,88952,1,8,0:0:0:0:
376,224,89293,1,8,0:0:0:0:
258,125,89463,1,0,0:0:0:0:
376,224,89634,1,8,0:0:0:0:
376,224,89804,1,0,0:0:0:0:
240,240,89974,1,0,0:0:0:0:
376,224,90145,1,8,0:0:0:0:
376,224,90315,1,0,0:0:0:0:
376,224,90656,1,8,0:0:0:0:
376,224,90997,1,8,0:0:0:0:
376,224,91168,1,0,0:0:0:0:
208,136,91338,1,0,0:0:0:0:
192,216,91509,1,0,0:0:0:0:
192,216,91679,1,8,0:0:0:0:
32,136,92020,1,0,0:0:0:0:
376,224,92190,1,0,0:0:0:0:
376,224,92361,1,8,0:0:0:0:
376,224,92531,1,8,0:0:0:0:
376,224,92702,1,0,0:0:0:0:
376,224,92872,1,8,0:0:0:0:
376,224,93043,1,8,0:0:0:0:
376,224,93554,1,0,0:0:0:0:
288,160,93724,1,8,0:0:0:0:
376,224,93895,1,0,0:0:0:0:
376,224,94065,1,0,0:0:0:0:
376,224,94236,1,8,0:0:0:0:
376,224,94406,1,0,0:0:0:0:
376,224,94747,1,0,0:0:0:0:
376,224,94918,1,8,0:0:0:0:
238,265,95088,1,0,0:0:0:0:
376,224,95259,1,0,0:0:0:0:
376,224,95599,1,8,0:0:0:0:
329,287,95770,1,8,0:0:0:0:
88,91,96281,1,0,0:0:0:0:
95,171,96452,1,8,0:0:0:0:
208,208,96622,1,0,0:0:0:0:
130,262,96793,1,0,0:0:0:0:
208,208,96963,1,0,0:0:0:0:
130,262,97134,1,8,0:0:0:0:
130,262,97474,1,8,0:0:0:0:
208,208,97645,1,8,0:0:0:0:
130,262,97815,1,0,0:0:0:0:
8,128,98497,1,4,0:0:0:0:
8,128,99179,1,4,0:0:0:0:
8,128,99861,1,4,0:0:0:0:
208,208,100202,1,8,0:0:0:0:
208,208,100543,1,8,0:0:0:0:
144,96,100884,1,4,0:0:0:0:
144,305,101054,1,0,0:0:0:0:
144,96,101224,1,0,0:0:0:0:
176,184,101395,1,0,0:0:0:0:
200,208,101565,1,8,0:0:0:0:
176,184,101736,1,8,0:0:0:0:
200,208,101906,1,4,0:0:0:0:
176,184,102418,1,8,0:0:0:0:
304,264,102588,1,0,0:0:0:0:
304,264,102929,1,8,0:0:0:0:
192,200,103270,1,0,0:0:0:0:
256,120,103440,1,0,0:0:0:0:
256,120,103526,1,0,0:0:0:0:
256,120,103611,1,0,0:0:0:0:
256,120,103781,1,0,0:0:0:0:
256,120,103952,1,8,0:0:0:0:
112,264,104293,1,8,0:0:0:0:
110,40,104634,5,0,0:0:0:0:
218,91,104974,1,0,0:0:0:0:
218,91,105145,1,0,0:0:0:0:
272,208,105315,1,8,0:0:0:0:
128,192,105656,1,8,0:0:0:0:
256,120,105827,1,8,0:0:0:0:
272,208,105997,1,0,0:0:0:0:
112,144,106338,1,8,0:0:0:0:
176,184,106509,1,0,0:0:0:0:
176,184,106679,1,0,0:0:0:0:
176,184,107020,1,8,0:0:0:0:
208,320,107361,1,0,0:0:0:0:
176,184,107702,1,0,0:0:0:0:
176,184,107872,1,0,0:0:0:0:
208,320,108043,1,0,0:0:0:0:
176,184,108128,1,0,0:0:0:0:
176,184,108213,1,0,0:0:0:0:
208,320,108384,1,8,0:0:0:0:
208,320,108724,1,0,0:0:0:0:
176,184,109065,1,0,0:0:0:0:
176,184,109236,1,0,0:0:0:0:
120,312,109406,1,0,0:0:0:0:
176,184,109491,1,0,0:0:0:0:
176,184,109577,1,0,0:0:0:0:
199,160,109747,1,8,0:0:0:0:
264,168,110088,1,0,0:0:0:0:
112,216,110429,1,0,0:0:0:0:
160,112,110599,1,0,0:0:0:0:
192,224,110770,1,8,0:0:0:0:
240,248,110940,1,0,0:0:0:0:
192,224,111111,1,8,0:0:0:0:
222,90,111281,1,0,0:0:0:0:
184,208,111452,5,8,0:0:0:0:
192,224,111793,1,8,0:0:0:0:
248,216,111963,1,8,0:0:0:0:
184,208,112134,1,0,0:0:0:0:
240,200,112304,1,8,0:0:0:0:
264,208,112389,1,8,0:0:0:0:
136,304,112474,1,8,0:0:0:0:
184,280,112645,1,0,0:0:0:0:
160,160,112815,5,4,0:0:0:0:
322,322,113497,1,8,0:0:0:0:
176,184,114179,1,0,0:0:0:0:
176,184,114349,1,0,0:0:0:0:
322,322,114520,1,0,0:0:0:0:
80,184,114861,1,8,0:0:0:0:
176,184,115372,1,8,0:0:0:0:
354,252,115543,1,0,0:0:0:0:
275,192,115884,1,0,0:0:0:0:
176,184,116054,1,0,0:0:0:0:
138,211,116395,1,0,0:0:0:0:
160,261,116565,1,8,0:0:0:0:
160,261,116906,1,0,0:0:0:0:
184,128,117247,1,0,0:0:0:0:
272,88,117418,1,0,0:0:0:0:
160,261,117588,1,8,0:0:0:0:
168,208,117759,1,0,0:0:0:0:
176,184,117844,1,0,0:0:0:0:
416,232,117929,1,0,0:0:0:0:
360,216,118099,1,0,0:0:0:0:
35,173,118270,1,8,0:0:0:0:
232,240,118952,1,0,0:0:0:0:
232,240,119634,1,0,0:0:0:0:
232,240,119804,1,0,0:0:0:0:
354,252,119974,1,0,0:0:0:0:
354,252,120315,1,8,0:0:0:0:
232,240,120656,1,0,0:0:0:0:
201,248,120997,5,8,0:0:0:0:
209,246,121338,1,8,0:0:0:0:
232,240,121509,1,0,0:0:0:0:
209,246,121849,1,0,0:0:0:0:
170,174,122020,1,8,0:0:0:0:
0,152,122361,1,0,0:0:0:0:
0,152,122702,1,8,0:0:0:0:
170,174,123043,1,8,0:0:0:0:
250,300,123213,1,8,0:0:0:0:
170,174,123298,1,8,0:0:0:0:
0,152,123384,1,8,0:0:0:0:
0,152,123554,1,0,0:0:0:0:
0,152,123724,1,4,0:0:0:0:
288,160,124236,1,8,0:0:0:0:
288,160,124406,1,0,0:0:0:0:
170,174,124747,1,8,0:0:0:0:
288,160,125088,1,0,0:0:0:0:
170,174,125429,1,8,0:0:0:0:
288,160,125770,1,0,0:0:0:0:
170,174,126111,1,8,0:0:0:0:
170,174,126281,1,0,0:0:0:0:
170,174,126452,1,0,0:0:0:0:
288,160,127134,1,0,0:0:0:0:
101,291,127474,1,8,0:0:0:0:
288,160,127815,1,0,0:0:0:0:
170,174,128156,1,8,0:0:0:0:
101,291,128327,1,8,0:0:0:0:
101,291,128497,1,0,0:0:0:0:
101,291,128838,1,8,0:0:0:0:
288,160,129179,1,0,0:0:0:0:
72,224,129690,1,8,0:0:0:0:
288,160,129861,1,0,0:0:0:0:
72,224,130202,1,8,0:0:0:0:
288,160,130543,1,0,0:0:0:0:
160,120,130884,1,8,0:0:0:0:
101,291,131054,1,8,0:0:0:0:
72,224,131224,1,0,0:0:0:0:
72,224,131565,1,8,0:0:0:0:
288,160,131906,1,0,0:0:0:0:
328,231,132418,1,8,0:0:0:0:
288,160,132588,1,0,0:0:0:0:
176,160,132759,1,0,0:0:0:0:
192,144,132929,1,8,0:0:0:0:
288,160,133270,1,0,0:0:0:0:
328,231,133611,1,8,0:0:0:0:
288,160,133952,1,0,0:0:0:0:
101,291,134293,1,8,0:0:0:0:
101,291,134463,1,8,0:0:0:0:
101,291,134634,1,0,0:0:0:0:
168,192,137361,5,0,0:0:0:0:
168,192,137702,1,0,0:0:0:0:
168,192,137872,1,0,0:0:0:0:
168,192,138043,1,0,0:0:0:0:
168,192,138384,1,8,0:0:0:0:
248,216,138724,1,0,0:0:0:0:
248,216,139065,1,0,0:0:0:0:
248,216,139406,1,8,0:0:0:0:
280,176,145543,5,0,0:0:0:0:
210,299,145884,1,0,0:0:0:0:
210,299,146224,1,0,0:0:0:0:
240,224,146565,1,0,0:0:0:0:
240,224,146736,1,0,0:0:0:0:
240,224,146906,1,8,0:0:0:0:
332,325,147247,1,8,0:0:0:0:
240,224,147418,1,0,0:0:0:0:
210,299,147588,1,8,0:0:0:0:
240,224,147759,1,8,0:0:0:0:
210,299,147929,1,0,0:0:0:0:
240,224,148270,1,0,0:0:0:0:
240,224,148611,1,8,0:0:0:0:
240,224,148781,1,0,0:0:0:0:
240,224,148952,1,8,0:0:0:0:
240,224,149122,1,0,0:0:0:0:
240,224,149463,1,8,0:0:0:0:
240,224,149634,1,0,0:0:0:0:
240,224,149974,1,0,0:0:0:0:
240,224,150145,1,0,0:0:0:0:
240,224,150315,1,8,0:0:0:0:
240,224,150486,1,0,0:0:0:0:
240,224,150656,1,0,0:0:0:0:
170,194,150997,5,0,0:0:0:0:
213,271,151338,1,0,0:0:0:0:
213,271,151679,1,8,0:0:0:0:
213,271,152020,1,0,0:0:0:0:
272,216,152190,1,0,0:0:0:0:
272,216,152361,1,8,0:0:0:0:
272,216,152531,1,0,0:0:0:0:
148,130,152702,1,8,0:0:0:0:
272,216,152872,1,0,0:0:0:0:
148,130,153043,1,8,0:0:0:0:
272,216,153213,1,8,0:0:0:0:
148,130,153384,1,0,0:0:0:0:
148,130,153724,1,8,0:0:0:0:
272,216,153895,1,8,0:0:0:0:
148,130,154065,1,0,0:0:0:0:
148,130,154236,1,0,0:0:0:0:
148,130,154406,1,0,0:0:0:0:
272,216,154577,1,8,0:0:0:0:
272,216,154662,1,8,0:0:0:0:
148,130,154747,1,8,0:0:0:0:
88,80,155770,1,4,0:0:0:0:
272,273,156452,5,4,0:0:0:0:
304,211,156793,1,8,0:0:0:0:
304,211,156963,1,8,0:0:0:0:
64,160,157134,1,0,0:0:0:0:
304,211,157474,1,8,0:0:0:0:
304,211,157815,1,0,0:0:0:0:
64,160,158156,1,0,0:0:0:0:
64,160,158327,1,0,0:0:0:0:
244,248,158497,1,8,0:0:0:0:
64,160,158668,1,0,0:0:0:0:
244,248,158838,1,8,0:0:0:0:
64,160,159009,1,8,0:0:0:0:
244,248,159179,1,4,0:0:0:0:
244,248,159349,1,8,0:0:0:0:
64,160,159690,1,8,0:0:0:0:
244,248,159861,1,0,0:0:0:0:
64,160,160031,1,0,0:0:0:0:
64,160,160202,1,8,0:0:0:0:
64,160,160372,1,0,0:0:0:0:
244,248,160543,1,8,0:0:0:0:
104,52,160884,1,0,0:0:0:0:
64,160,161054,1,0,0:0:0:0:
104,52,161224,1,0,0:0:0:0:
244,248,161906,1,12,0:0:0:0:
244,248,162247,1,8,0:0:0:0:
64,160,162418,1,8,0:0:0:0:
244,248,162588,1,0,0:0:0:0:
244,248,162929,1,8,0:0:0:0:
244,248,163270,1,0,0:0:0:0:
244,248,163440,1,0,0:0:0:0:
244,248,163611,1,8,0:0:0:0:
64,160,163952,1,0,0:0:0:0:
244,248,164122,1,8,0:0:0:0:
244,248,164463,1,8,0:0:0:0:
244,248,164634,1,4,0:0:0:0:
64,160,164804,1,0,0:0:0:0:
244,248,164974,1,8,0:0:0:0:
64,160,165145,1,8,0:0:0:0:
244,248,165315,1,0,0:0:0:0:
64,160,165486,1,0,0:0:0:0:
64,160,165656,1,8,0:0:0:0:
64,160,165827,1,8,0:0:0:0:
64,160,165997,1,0,0:0:0:0:
94,186,166338,1,0,0:0:0:0:
64,160,166509,1,0,0:0:0:0:
94,186,166679,1,8,0:0:0:0:
176,175,167020,1,8,0:0:0:0:
176,175,167105,1,8,0:0:0:0:
176,175,167190,1,8,0:0:0:0:
192,163,167361,1,4,0:0:0:0:
186,275,167872,1,0,0:0:0:0:
250,159,168043,1,8,0:0:0:0:
250,159,168384,1,0,0:0:0:0:
64,160,168554,1,0,0:0:0:0:
64,160,168724,1,8,0:0:0:0:
250,159,169065,1,8,0:0:0:0:
64,160,169236,1,0,0:0:0:0:
186,275,169406,1,0,0:0:0:0:
64,160,169747,1,8,0:0:0:0:
74,191,170088,1,0,0:0:0:0:
208,224,170259,1,0,0:0:0:0:
256,128,170429,1,8,0:0:0:0:
208,224,170599,1,8,0:0:0:0:
240,45,170770,1,0,0:0:0:0:
101,274,171111,1,8,0:0:0:0:
280,160,171281,5,0,0:0:0:0:
101,274,171452,1,0,0:0:0:0:
101,274,171793,1,0,0:0:0:0:
213,210,171963,1,0,0:0:0:0:
162,82,172134,1,8,0:0:0:0:
90,171,172474,1,8,0:0:0:0:
90,171,172560,1,8,0:0:0:0:
90,171,172645,1,8,0:0:0:0:
101,274,172815,1,4,0:0:0:0:
40,119,173156,1,8,0:0:0:0:
280,160,173327,1,0,0:0:0:0:
186,275,173668,1,0,0:0:0:0:
280,160,173838,1,0,0:0:0:0:
280,160,174009,1,0,0:0:0:0:
186,275,174179,1,8,0:0:0:0:
187,33,174520,1,0,0:0:0:0:
186,275,174690,1,8,0:0:0:0:
264,200,174861,1,0,0:0:0:0:
94,169,175031,1,8,0:0:0:0:
94,169,175372,1,8,0:0:0:0:
186,275,175543,1,0,0:0:0:0:
268,99,175884,1,0,0:0:0:0:
94,169,176054,1,0,0:0:0:0:
138,81,176224,1,8,0:0:0:0:
101,274,176565,1,0,0:0:0:0:
259,264,176736,1,0,0:0:0:0:
101,274,176906,1,0,0:0:0:0:
101,274,177247,1,8,0:0:0:0:
101,274,177588,1,8,0:0:0:0:
198,134,178270,1,4,0:0:0:0:
304,264,178781,1,8,0:0:0:0:
304,264,178952,1,0,0:0:0:0:
304,264,179293,1,8,0:0:0:0:
192,200,179634,1,0,0:0:0:0:
192,200,179974,1,0,0:0:0:0:
106,103,180145,1,0,0:0:0:0:
264,96,180315,1,0,0:0:0:0:
112,264,180657,1,8,0:0:0:0:
191,144,180997,1,0,0:0:0:0:
94,169,181082,1,0,0:0:0:0:
94,169,181168,1,0,0:0:0:0:
94,169,181338,1,0,0:0:0:0:
94,169,181509,1,0,0:0:0:0:
272,208,181679,1,8,0:0:0:0:
128,192,182020,1,8,0:0:0:0:
353,288,182190,1,8,0:0:0:0:
272,208,182361,1,0,0:0:0:0:
144,248,182702,1,0,0:0:0:0:
264,200,182872,1,0,0:0:0:0:
264,200,183043,1,8,0:0:0:0:
264,200,183384,1,0,0:0:0:0:
208,320,183725,1,0,0:0:0:0:
208,320,184066,1,0,0:0:0:0:
191,144,184236,1,0,0:0:0:0:
216,160,184321,1,0,0:0:0:0:
264,200,184406,1,0,0:0:0:0:
320,192,184577,1,0,0:0:0:0:
264,200,184747,1,8,0:0:0:0:
208,320,185088,1,0,0:0:0:0:
208,320,185429,1,0,0:0:0:0:
328,208,185599,1,0,0:0:0:0:
304,200,185685,1,0,0:0:0:0:
264,200,185770,1,0,0:0:0:0:
304,200,185940,1,0,0:0:0:0:
264,200,186111,1,8,0:0:0:0:
232,288,186452,1,8,0:0:0:0:
100,166,186537,1,8,0:0:0:0:
216,184,186622,1,8,0:0:0:0:
264,200,186793,1,0,0:0:0:0:
216,184,186963,1,0,0:0:0:0:
128,296,187134,1,8,0:0:0:0:
128,296,187475,1,0,0:0:0:0:
328,208,187645,1,0,0:0:0:0:
184,208,187816,5,8,0:0:0:0:
264,192,188156,1,0,0:0:0:0:
144,128,188497,1,8,0:0:0:0:
192,152,188668,1,0,0:0:0:0:
184,208,188838,1,0,0:0:0:0:
208,208,188923,1,0,0:0:0:0:
336,208,189009,1,0,0:0:0:0:
246,308,189179,5,12,0:0:0:0:
264,192,189690,1,8,0:0:0:0:
264,192,189861,1,0,0:0:0:0:
264,192,190202,1,0,0:0:0:0:
264,200,190372,1,0,0:0:0:0:
140,59,190543,1,8,0:0:0:0:
264,192,190713,1,8,0:0:0:0:
296,191,190884,1,0,0:0:0:0:
264,192,191224,1,8,0:0:0:0:
264,200,191565,1,8,0:0:0:0:
264,192,191736,1,8,0:0:0:0:
142,231,191906,5,0,0:0:0:0:
142,231,192247,1,0,0:0:0:0:
264,192,192418,1,0,0:0:0:0:
336,208,192759,1,0,0:0:0:0:
142,231,192929,1,8,0:0:0:0:
142,231,193269,1,0,0:0:0:0:
216,184,193440,1,8,0:0:0:0:
216,184,193611,1,8,0:0:0:0:
206,172,193781,1,0,0:0:0:0:
142,231,193951,1,8,0:0:0:0:
246,308,194292,1,0,0:0:0:0:
206,172,194463,1,0,0:0:0:0:
249,172,194633,5,12,0:0:0:0:
259,216,195145,1,0,0:0:0:0:
394,255,195315,1,8,0:0:0:0:
264,200,195656,1,0,0:0:0:0:
264,200,195827,1,0,0:0:0:0:
264,200,195912,1,0,0:0:0:0:
155,242,195997,1,0,0:0:0:0:
248,126,196168,1,8,0:0:0:0:
155,242,196338,1,0,0:0:0:0:
272,248,196679,1,8,0:0:0:0:
272,208,196849,1,8,0:0:0:0:
272,248,197020,1,0,0:0:0:0:
142,231,197361,5,8,0:0:0:0:
142,231,197702,1,8,0:0:0:0:
272,248,197872,1,0,0:0:0:0:
224,48,198213,1,0,0:0:0:0:
142,231,198384,1,8,0:0:0:0:
142,231,198724,1,0,0:0:0:0:
216,184,198895,1,0,0:0:0:0:
216,184,199065,1,8,0:0:0:0:
142,231,199406,1,8,0:0:0:0:
206,172,199577,1,8,0:0:0:0:
246,308,199747,1,8,0:0:0:0:
240,280,199832,1,8,0:0:0:0:
208,172,199918,1,8,0:0:0:0:
249,172,200088,5,0,0:0:0:0:
148,108,200429,1,8,0:0:0:0:
353,288,200599,1,8,0:0:0:0:
148,108,200770,1,8,0:0:0:0:
111,217,201111,1,8,0:0:0:0:
196,171,201452,1,0,0:0:0:0:
246,308,201793,5,0,0:0:0:0:
136,240,201963,1,0,0:0:0:0:
246,308,202134,1,8,0:0:0:0:
136,240,202304,1,0,0:0:0:0:
136,240,202645,1,8,0:0:0:0:
196,171,202815,1,0,0:0:0:0:
136,240,203156,1,0,0:0:0:0:
196,171,203497,1,8,0:0:0:0:
136,240,203668,1,8,0:0:0:0:
136,240,204009,1,0,0:0:0:0:
281,144,204179,1,0,0:0:0:0:
51,161,204520,1,8,0:0:0:0:
353,288,204690,1,8,0:0:0:0:
281,144,204861,1,8,0:0:0:0:
176,221,205202,1,8,0:0:0:0:
250,276,205543,1,0,0:0:0:0:
256,176,206054,1,0,0:0:0:0:
138,102,206224,1,8,0:0:0:0:
136,200,206395,1,0,0:0:0:0:
145,95,206565,1,0,0:0:0:0:
136,200,206736,1,8,0:0:0:0:
250,276,206906,1,0,0:0:0:0:
250,276,207247,1,8,0:0:0:0:
353,288,207418,1,8,0:0:0:0:
250,276,207588,1,0,0:0:0:0:
250,276,207929,1,8,0:0:0:0:
250,276,208270,1,0,0:0:0:0:
136,200,208611,1,8,0:0:0:0:
136,200,208781,1,8,0:0:0:0:
250,276,208952,1,0,0:0:0:0:
250,276,209122,1,8,0:0:0:0:
136,200,209463,1,8,0:0:0:0:
250,276,209634,1,0,0:0:0:0:
250,276,209974,1,8,0:0:0:0:
250,276,210315,1,8,0:0:0:0:
336,208,210486,1,8,0:0:0:0:
250,276,210656,1,8,0:0:0:0:
136,200,210827,1,8,0:0:0:0:
250,276,210997,1,4,0:0:0:0:
250,276,211679,1,0,0:0:0:0:
49,275,212020,1,8,0:0:0:0:
136,200,212190,1,8,0:0:0:0:
49,275,212361,1,0,0:0:0:0:
49,275,212702,1,8,0:0:0:0:
49,275,213043,1,0,0:0:0:0:
136,200,213384,1,8,0:0:0:0:
205,257,213724,1,0,0:0:0:0:
136,200,213895,1,0,0:0:0:0:
205,257,214065,1,8,0:0:0:0:
136,200,214236,1,8,0:0:0:0:
136,200,214406,1,0,0:0:0:0:
205,257,214747,1,8,0:0:0:0:
205,257,215088,1,0,0:0:0:0:
136,200,215259,1,0,0:0:0:0:
205,257,215429,1,8,0:0:0:0:
205,257,215770,1,0,0:0:0:0:
136,200,216111,1,8,0:0:0:0:
205,257,216452,1,0,0:0:0:0:
136,200,216793,1,0,0:0:0:0:
136,200,216963,1,0,0:0:0:0:
205,257,217134,1,8,0:0:0:0:
136,200,217645,1,0,0:0:0:0:
205,257,217815,1,8,0:0:0:0:
205,257,218156,1,0,0:0:0:0:
136,200,218497,1,8,0:0:0:0:
136,200,218838,1,8,0:0:0:0:
205,257,219009,1,0,0:0:0:0:
205,257,219179,1,0,0:0:0:0:
205,257,219520,1,8,0:0:0:0:
205,257,219861,1,0,0:0:0:0:
205,257,220202,1,8,0:0:0:0:
136,200,220543,1,0,0:0:0:0:
136,200,220713,1,0,0:0:0:0:
205,257,220884,1,8,0:0:0:0:
136,200,221224,1,0,0:0:0:0:
136,200,221395,1,0,0:0:0:0:
205,257,221565,1,8,0:0:0:0:
205,257,221735,1,0,0:0:0:0:
205,257,221929,1,0,0:0:0:0:
205,257,222124,1,0,0:0:0:0:
205,257,222319,1,0,0:0:0:0:
