osu file format v14

[General]
AudioFilename: audio.mp3
AudioLeadIn: 0
PreviewTime: 101651
Countdown: 0
SampleSet: Soft
StackLeniency: 0.7
Mode: 0
LetterboxInBreaks: 0
WidescreenStoryboard: 0

[Editor]
Bookmarks: 123628,134538,156356,178168,189077,199986,210901
DistanceSpacing: 0.5
BeatDivisor: 4
GridSize: 32
TimelineZoom: 1.900001

[Metadata]
Title:AIWAGUMA
TitleUnicode:AIWAGUMA
Artist:illion
ArtistUnicode:illion
Creator:Ellyu
Version:Hyper
Source:
Tags:UBU Yojiro Noda 野田洋次郎 Folk Rock _Yiiiii Pata-Mon Tenshichan Superstar Tofu1222 Antalf handsome muscle
BeatmapID:1227498
BeatmapSetID:533037

[Difficulty]
HPDrainRate:6
CircleSize:4
OverallDifficulty:6
ApproachRate:8
SliderMultiplier:1.4
SliderTickRate:1

[Events]
//Background and Video events
0,0,"49389130_p0.png",0,0
//Break Periods
2,134834,136611
2,139947,142832
//Storyboard Layer 0 (Background)
//Storyboard Layer 1 (Fail)
//Storyboard Layer 2 (Pass)
//Storyboard Layer 3 (Foreground)
//Storyboard Sound Samples

[TimingPoints]
-366,340.909090909091,4,2,1,30,1,0
997,-111.111111111111,4,2,1,30,0,0
3724,-111.111111111111,4,2,2,30,0,0
3810,-111.111111111111,4,2,1,30,0,0
9179,-111.111111111111,4,2,2,30,0,0
9265,-111.111111111111,4,2,1,30,0,0
11565,-111.111111111111,4,2,99,25,0,0
11651,-111.111111111111,4,2,1,40,0,0
21963,-111.111111111111,4,2,4,50,0,0
22474,-111.111111111111,4,2,99,25,0,0
22560,-111.111111111111,4,2,4,50,0,0
22815,-100,4,2,4,50,0,0
77361,-100,4,2,5,50,0,0
87503,-166.666666666667,4,2,10,50,0,0
88270,-100,4,2,4,50,0,0
99776,-100,4,2,10,50,0,0
100116,-100,4,2,11,50,0,0
100287,-100,4,2,4,50,0,0
101565,-166.666666666667,4,2,4,50,0,0
101906,-83.3333333333333,4,2,4,50,0,1
123724,-83.3333333333333,4,2,4,50,0,0
134719,-125,4,2,4,50,0,0
137361,-125,4,2,4,30,0,0
145543,-90.9090909090909,4,2,4,50,0,0
154747,-166.666666666667,4,2,4,50,0,0
155685,-133.333333333333,4,2,10,20,0,0
156452,-83.3333333333333,4,2,4,60,0,0
167361,-125,4,2,4,60,0,0
167872,-83.3333333333333,4,2,4,60,0,0
178270,-117.647058823529,4,2,4,60,0,1
178611,-83.3333333333333,4,2,4,60,0,1
200088,-117.647058823529,4,2,4,60,0,0
200429,-83.3333333333333,4,2,4,60,0,0
210997,-100,4,2,4,40,0,0
220884,389.61038961039,4,2,4,40,1,0
221224,340.909090909091,4,2,4,40,1,0
221735,389.61038961039,4,2,4,40,1,0

[Colours]
Combo1 : 193,124,239
Combo2 : 112,252,231
Combo3 : 0,105,234
Combo4 : 180,183,241
Combo5 : 251,89,239

[HitObjects]
96,109,827,5,0,0:0:0:0:
96,109,997,2,0,L|79:244,1,125.999996154785,2|0,0:0|0:0,0:0:0:0:
8,274,1509,1,0,0:0:0:0:
8,274,1679,2,0,P|54:313|131:297,1,125.999996154785
229,196,2361,6,0,B|287:173|287:173|349:197,1,125.999996154785,2|0,0:0|0:0,0:0:0:0:
420,250,2872,1,0,0:0:0:0:
420,250,3043,2,0,P|437:173|421:109,1,125.999996154785
281,50,3724,6,0,L|139:38,2,125.999996154785,2|0|0,0:0|0:0|0:0,0:0:0:0:
307,37,4747,2,0,L|313:110,1,62.9999980773926
356,162,5088,6,0,P|293:140|225:152,1,125.999996154785,2|0,0:0|0:0,0:0:0:0:
136,152,5599,1,0,0:0:0:0:
136,152,5770,2,0,L|150:290,1,125.999996154785
317,232,6452,6,0,L|457:264,1,125.999996154785,2|0,0:0|0:0,0:0:0:0:
485,188,6963,1,0,0:0:0:0:
485,188,7134,2,0,L|362:159,1,125.999996154785
195,232,7815,6,0,L|55:264,1,125.999996154785,2|0,0:0|0:0,0:0:0:0:
27,188,8326,1,0,0:0:0:0:
27,188,8497,2,0,L|149:159,1,125.999996154785
309,118,9179,6,0,L|444:148,2,125.999996154785,2|0|0,0:0|0:0|0:0,0:0:0:0:
291,127,10202,2,0,P|259:158|238:161,1,62.9999980773926
169,198,10543,6,0,P|161:138|201:91,1,125.999996154785,2|0,0:0|0:0,0:0:0:0:
328,193,11224,2,0,P|336:253|297:301,1,125.999996154785,2|4,0:0|0:0,0:0:0:0:
53,360,11906,6,0,P|51:250|159:273,2,251.999992309571,6|0|0,0:0|0:0|0:0,0:0:0:0:
86,182,13611,2,0,B|97:224|97:224|85:269|85:269|98:310,1,125.999996154785,8|0,0:0|0:0,0:0:0:0:
251,116,14463,1,0,0:0:0:0:
251,116,14634,6,0,B|301:127|301:127|324:148|324:148|384:161,1,125.999996154785,2|0,0:0|0:0,0:0:0:0:
384,78,15145,2,0,B|426:68|426:68|449:47|449:47|499:36,1,125.999996154785
487,120,15656,2,0,L|468:196,1,62.9999980773926
395,221,15997,6,0,L|429:353,2,125.999996154785,2|0|0,0:0|0:0|0:0,0:0:0:0:
406,211,17020,2,0,L|337:193,1,62.9999980773926
255,165,17361,6,0,B|205:199|135:201|135:201|208:225|252:274,2,251.999992309571,6|0|0,0:0|0:0|0:0,0:0:0:0:
94,265,19065,2,0,P|62:221|81:147,1,125.999996154785,8|0,0:0|0:0,0:0:0:0:
132,30,19747,2,0,P|162:50|208:49,1,62.9999980773926
270,31,20088,6,0,P|351:26|386:56,1,125.999996154785,2|0,0:0|0:0,0:0:0:0:
461,26,20599,2,0,P|472:78|434:152,1,125.999996154785
357,132,21111,2,0,P|354:173|365:199,1,62.9999980773926
420,251,21452,6,0,L|291:227,1,125.999996154785,2|0,0:0|0:0,0:0:0:0:
215,213,21963,6,8,L|221:244,2,31.4999990386963
126,261,22304,1,8,0:0:0:0:
47,219,22474,2,0,L|57:156,1,62.9999980773926,2|0,0:0|0:0,0:0:0:0:
65,34,22815,6,0,P|127:5|210:39,1,140,6|0,0:0|0:0,0:0:0:0:
270,71,23327,1,0,0:0:0:0:
317,1,23497,2,0,L|290:158,1,140,8|0,0:0|0:0,0:0:0:0:
363,222,24009,1,0,0:0:0:0:
439,179,24179,6,0,P|485:171|513:178,1,70,2|0,0:0|0:0,0:0:0:0:
506,263,24520,2,0,P|461:264|432:251,1,70,8|0,0:0|0:0,0:0:0:0:
363,222,24861,1,8,0:0:0:0:
363,222,25031,2,0,B|337:249|337:249|351:369,1,140,8|0,0:0|0:0,0:0:0:0:
245,331,25543,6,0,P|219:292|117:290,1,140,2|0,0:0|0:0,0:0:0:0:
71,346,26054,1,8,0:0:0:0:
37,256,26224,2,0,L|24:113,1,140,8|0,0:0|0:0,0:0:0:0:
42,25,26736,1,0,0:0:0:0:
42,25,26906,6,0,L|126:36,1,70,2|0,0:0|0:0,0:0:0:0:
196,89,27247,2,0,B|262:109|262:109|331:75,1,140,8|0,0:0|0:0,0:0:0:0:
403,26,27759,1,0,0:0:0:0:
472,105,27929,2,0,P|476:141|462:178,1,70
392,129,28270,1,0,0:0:0:0:
395,134,28440,6,0,P|371:165|401:260,1,140,2|0,0:0|0:0,0:0:0:0:
426,351,28952,2,0,B|376:352|376:352|338:332|338:332|289:344,1,140,8|0,0:0|0:0,0:0:0:0:
188,315,29463,1,0,0:0:0:0:
213,224,29634,6,0,L|206:144,1,70,2|0,0:0|0:0,0:0:0:0:
105,158,29974,2,0,L|115:87,1,70
208,44,30315,2,0,P|250:50|305:133,1,140,8|0,0:0|0:0,0:0:0:0:
250,314,30997,6,0,L|405:300,1,140,2|0,0:0|0:0,0:0:0:0:
466,244,31509,1,0,0:0:0:0:
380,198,31679,2,0,L|291:205,1,70,8|0,0:0|0:0,0:0:0:0:
380,111,32020,2,0,L|469:118,1,70
360,25,32361,6,0,P|318:41|295:129,2,140,2|2|8,0:0|0:0|0:0,0:0:0:0:
202,80,33384,2,0,L|169:89,3,35
128,63,33724,6,0,L|140:152,1,70,6|0,0:0|0:0,0:0:0:0:
35,189,34065,2,0,L|49:120,1,70
116,211,34406,2,0,P|86:262|0:265,1,140,2|0,0:0|0:0,0:0:0:0:
43,358,34918,1,8,0:0:0:0:
117,292,35088,6,0,P|151:312|169:350,1,70,2|0,0:0|0:0,0:0:0:0:
261,349,35429,2,0,P|298:324|314:296,1,70,8|0,0:0|0:0,0:0:0:0:
354,215,35770,2,0,L|368:362,1,140,2|0,0:0|0:0,0:0:0:0:
464,193,36452,6,0,L|475:118,1,70,2|0,0:0|0:0,0:0:0:0:
429,36,36793,1,0,0:0:0:0:
429,36,36963,1,8,0:0:0:0:
348,92,37134,2,0,P|313:95|273:79,1,70,2|0,0:0|0:0,0:0:0:0:
202,31,37474,2,0,P|186:74|197:116,1,70
245,163,37815,6,0,L|97:147,2,140,2|8|2,0:0|0:0|0:0,0:0:0:0:
259,193,38838,1,8,0:0:0:0:
275,226,39179,6,0,P|275:261|259:296,1,70,2|0,0:0|0:0,0:0:0:0:
180,334,39520,2,0,L|91:328,1,70
76,245,39861,2,0,L|155:250,1,70,2|0,0:0|0:0,0:0:0:0:
216,189,40202,2,0,P|233:161|226:113,1,70
144,132,40543,5,2,0:0:0:0:
109,44,40713,1,0,0:0:0:0:
212,35,40884,2,0,L|367:52,1,140,8|0,0:0|0:0,0:0:0:0:
334,58,41565,2,0,B|321:95|321:95|337:132,1,70,8|0,0:0|0:0,0:0:0:0:
445,133,41906,5,2,0:0:0:0:
459,141,42247,2,0,B|472:178|472:178|456:215,1,70,8|0,0:0|0:0,0:0:0:0:
351,211,42588,5,2,0:0:0:0:
338,216,42929,2,0,B|325:253|325:253|341:290,1,70,12|0,0:0|0:0,0:0:0:0:
445,289,43270,5,6,0:0:0:0:
455,300,43611,2,0,B|468:337|468:337|452:374,1,70,4|0,0:0|0:0,0:0:0:0:
366,373,43952,5,0,0:0:0:0:
377,282,44123,1,0,0:0:0:0:
300,234,44293,1,0,0:0:0:0:
220,277,44464,1,2,0:0:0:0:
178,353,44634,6,0,P|134:282|160:216,1,140,2|0,0:0|0:0,0:0:0:0:
241,161,45145,1,0,0:0:0:0:
202,77,45315,2,0,B|166:68|166:68|106:81,1,70,8|0,0:0|0:0,0:0:0:0:
82,152,45656,2,0,B|114:158|114:158|150:149,1,70
241,161,45997,5,2,0:0:0:0:
321,204,46168,1,0,0:0:0:0:
398,156,46338,1,0,0:0:0:0:
387,65,46509,1,0,0:0:0:0:
315,0,46679,2,0,P|290:61|315:129,1,140,2|0,0:0|0:0,0:0:0:0:
398,156,47190,1,0,0:0:0:0:
485,90,47361,6,0,L|471:189,1,70,2|0,0:0|0:0,0:0:0:0:
411,232,47702,2,0,L|425:331,1,70
346,356,48043,1,2,0:0:0:0:
346,356,48213,1,0,0:0:0:0:
286,271,48384,2,0,P|240:267|206:283,1,70,8|0,0:0|0:0,0:0:0:0:
142,341,48724,5,2,0:0:0:0:
142,341,48895,1,0,0:0:0:0:
77,255,49065,2,0,L|86:186,1,70,8|0,0:0|0:0,0:0:0:0:
21,120,49406,2,0,P|69:93|151:119,1,140,2|0,0:0|0:0,0:0:0:0:
130,103,50088,6,0,L|120:24,1,70,2|0,0:0|0:0,0:0:0:0:
240,0,50429,2,0,L|226:81,1,70,8|0,0:0|0:0,0:0:0:0:
279,148,50770,1,2,0:0:0:0:
367,129,50940,1,0,0:0:0:0:
432,193,51111,1,0,0:0:0:0:
419,282,51281,1,8,0:0:0:0:
307,295,51452,6,0,P|303:254|315:220,1,70,2|0,0:0|0:0,0:0:0:0:
225,153,51793,2,0,P|221:194|233:228,1,70,8|0,0:0|0:0,0:0:0:0:
188,313,52134,2,0,P|122:332|57:277,1,140,2|0,0:0|0:0,0:0:0:0:
49,306,52815,6,0,L|59:220,1,70,2|0,0:0|0:0,0:0:0:0:
158,169,53156,2,0,L|239:177,1,70
201,85,53497,1,2,0:0:0:0:
111,69,53668,1,0,0:0:0:0:
51,137,53838,1,8,0:0:0:0:
73,225,54009,1,0,0:0:0:0:
177,233,54179,6,0,L|332:211,2,140,6|0|0,0:0|0:0|0:0,0:0:0:0:
187,255,55202,6,0,L|184:302,3,35
187,255,55543,6,0,B|163:183|163:183|192:106,1,140,6|0,0:0|0:0,0:0:0:0:
274,75,56054,1,8,0:0:0:0:
335,146,56224,2,0,P|382:151|463:72,1,140,2|0,0:0|0:0,0:0:0:0:
368,46,56736,1,0,0:0:0:0:
274,75,56906,6,0,L|283:232,1,140,2|0,0:0|0:0,0:0:0:0:
288,320,57418,1,8,0:0:0:0:
384,339,57588,2,0,P|386:284|373:257,1,70,8|0,0:0|0:0,0:0:0:0:
375,178,57929,2,0,L|455:189,1,70,8|0,0:0|0:0,0:0:0:0:
505,135,58270,5,2,0:0:0:0:
421,56,58440,2,0,L|345:68,1,70
280,31,58781,1,8,0:0:0:0:
229,119,58952,2,0,P|233:148|218:190,1,70,2|0,0:0|0:0,0:0:0:0:
142,233,59293,2,0,P|141:193|154:150,1,70
105,98,59634,6,0,P|53:107|-1:39,1,140,2|0,0:0|0:0,0:0:0:0:
72,31,60145,1,8,0:0:0:0:
162,43,60315,2,0,P|182:78|144:168,1,140,2|0,0:0|0:0,0:0:0:0:
134,157,60997,6,0,B|103:207|103:207|125:314,1,140,2|0,0:0|0:0,0:0:0:0:
234,335,61509,1,8,0:0:0:0:
219,233,61679,2,0,L|303:245,1,70,2|0,0:0|0:0,0:0:0:0:
393,250,62020,2,0,P|412:209|402:168,1,70
327,132,62361,5,2,0:0:0:0:
327,132,62531,1,0,0:0:0:0:
408,65,62702,2,0,P|454:61|475:73,1,70
512,158,63043,1,2,0:0:0:0:
445,222,63213,2,0,P|399:226|378:214,1,70
335,141,63554,1,0,0:0:0:0:
251,211,63724,6,0,L|263:285,1,70,2|0,0:0|0:0,0:0:0:0:
172,350,64065,2,0,L|179:276,1,70
140,196,64406,1,2,0:0:0:0:
60,150,64577,1,0,0:0:0:0:
73,60,64747,1,0,0:0:0:0:
159,31,64918,1,8,0:0:0:0:
250,89,65088,6,0,P|303:94|377:33,1,140,2|0,0:0|0:0,0:0:0:0:
482,36,65599,1,8,0:0:0:0:
482,36,65685,1,8,0:0:0:0:
482,36,65770,2,0,L|475:116,1,70,2|0,0:0|0:0,0:0:0:0:
374,146,66111,2,0,L|384:227,1,70,8|0,0:0|0:0,0:0:0:0:
490,290,66452,6,0,P|456:270|341:303,1,140,6|0,0:0|0:0,0:0:0:0:
281,334,66963,1,0,0:0:0:0:
206,251,67134,2,0,P|155:234|71:281,1,140,8|0,0:0|0:0,0:0:0:0:
0,326,67645,1,8,0:0:0:0:
83,365,67815,6,0,P|124:376|170:359,1,70,2|0,0:0|0:0,0:0:0:0:
249,340,68156,2,0,P|300:325|341:346,1,70,2|0,0:0|0:0,0:0:0:0:
410,354,68497,1,8,0:0:0:0:
410,354,68668,1,0,0:0:0:0:
379,255,68838,2,0,P|375:216|370:169,1,70
423,96,69179,6,0,B|369:84|369:84|330:101|330:101|259:87,1,140,2|0,0:0|0:0,0:0:0:0:
292,0,69690,1,8,0:0:0:0:
206,41,69861,2,0,P|175:88|202:171,1,140,8|0,0:0|0:0,0:0:0:0:
293,157,70372,1,8,0:0:0:0:
238,244,70543,6,0,L|160:233,1,70,2|0,0:0|0:0,0:0:0:0:
88,308,70884,2,0,L|160:305,1,70,8|0,0:0|0:0,0:0:0:0:
256,338,71224,1,2,0:0:0:0:
345,318,71395,1,8,0:0:0:0:
386,237,71565,1,8,0:0:0:0:
357,150,71736,1,8,0:0:0:0:
400,65,71906,6,0,P|325:61|274:106,1,140,6|0,0:0|0:0,0:0:0:0:
226,184,72418,1,0,0:0:0:0:
151,115,72588,2,0,B|123:176|123:176|144:261,1,140,2|0,0:0|0:0,0:0:0:0:
236,299,73099,1,8,0:0:0:0:
308,211,73270,6,0,P|305:167|325:126,1,70,2|0,0:0|0:0,0:0:0:0:
401,195,73611,2,0,P|408:225|400:274,1,70,8|0,0:0|0:0,0:0:0:0:
319,298,73952,1,2,0:0:0:0:
319,298,74122,1,0,0:0:0:0:
396,356,74293,2,0,B|435:360|435:360|476:336,1,70
489,250,74634,6,0,B|498:146|498:146|473:177,1,140,2|0,0:0|0:0,0:0:0:0:
398,229,75145,1,8,0:0:0:0:
313,170,75315,2,0,P|308:136|316:96,1,70,8|0,0:0|0:0,0:0:0:0:
396,61,75656,2,0,P|400:109|398:138,1,70,8|0,0:0|0:0,0:0:0:0:
398,229,75997,6,8,L|430:242,2,35
297,246,76338,2,0,P|240:255|183:197,1,140,8|0,0:0|0:0,0:0:0:0:
129,131,76849,1,0,0:0:0:0:
135,114,76935,1,8,0:0:0:0:
151,105,77020,2,0,L|231:100,1,70,8|0,0:0|0:0,0:0:0:0:
259,175,77361,5,2,0:0:0:0:
265,203,78043,1,2,0:0:0:0:
273,235,78724,1,2,0:0:0:0:
370,89,79406,1,8,0:0:0:0:
273,235,80088,5,2,0:0:0:0:
265,203,80769,1,2,0:0:0:0:
259,175,81451,1,2,0:0:0:0:
370,89,82134,1,8,0:0:0:0:
370,89,82645,1,8,0:0:0:0:
435,149,82815,5,2,0:0:0:0:
429,177,83497,1,2,0:0:0:0:
421,209,84178,1,2,0:0:0:0:
267,254,84861,1,10,0:0:0:0:
121,301,85543,5,2,0:0:0:0:
264,250,86224,1,8,0:0:0:0:
268,212,86906,1,8,0:0:0:0:
115,172,87588,6,0,L|133:41,1,125.999996154785,4|0,0:0|0:0,0:0:0:0:
220,22,88270,6,0,P|263:18|294:31,1,70,6|0,0:0|0:0,0:0:0:0:
359,113,88611,2,0,P|311:119|275:109,1,70
234,19,88952,2,0,P|278:19|307:34,1,70,8|0,0:0|0:0,0:0:0:0:
365,120,89293,2,0,P|317:122|282:109,1,70
383,37,89634,5,2,0:0:0:0:
450,106,89804,1,0,0:0:0:0:
419,193,89974,2,0,P|389:230|365:237,1,70
311,183,90315,2,0,L|326:336,1,140,8|0,0:0|0:0,0:0:0:0:
311,338,90997,6,0,L|236:332,1,70,2|0,0:0|0:0,0:0:0:0:
190,248,91338,2,0,L|115:242,1,70,8|0,0:0|0:0,0:0:0:0:
237,338,91679,6,0,L|162:332,1,70,8|0,0:0|0:0,0:0:0:0:
116,248,92020,2,0,L|41:242,1,70,2|0,0:0|0:0,0:0:0:0:
6,133,92361,5,2,0:0:0:0:
72,79,92531,1,0,0:0:0:0:
135,146,92702,2,0,P|174:147|206:129,1,70
237,0,93043,2,0,B|269:15|269:15|286:129,1,140,8|0,0:0|0:0,0:0:0:0:
278,206,93554,1,8,0:0:0:0:
371,184,93724,6,0,P|385:157|385:107,1,70,2|0,0:0|0:0,0:0:0:0:
450,208,94065,2,0,P|464:164|465:124,1,70
487,292,94406,6,0,P|490:329|499:364,1,70,2|0,0:0|0:0,0:0:0:0:
403,271,94747,2,0,P|404:310|410:343,1,70
321,269,95088,5,2,0:0:0:0:
253,330,95259,1,0,0:0:0:0:
212,248,95429,2,0,P|222:195|229:170,1,70,8|0,0:0|0:0,0:0:0:0:
290,89,95770,2,0,B|225:62|225:62|145:96,1,140,2|0,0:0|0:0,0:0:0:0:
89,187,96281,1,8,0:0:0:0:
0,140,96452,6,0,L|8:55,1,70,2|0,0:0|0:0,0:0:0:0:
88,22,96793,2,0,L|79:119,1,70
168,121,97134,6,0,L|176:36,1,70,2|0,0:0|0:0,0:0:0:0:
256,3,97475,2,0,L|247:100,1,70
303,146,97815,5,2,0:0:0:0:
414,59,98156,2,0,L|393:148,1,70,8|0,0:0|0:0,0:0:0:0:
303,146,98497,5,2,0:0:0:0:
433,198,98838,2,0,L|345:224,1,70,8|0,0:0|0:0,0:0:0:0:
303,146,99179,5,2,0:0:0:0:
322,284,99520,2,0,L|255:221,1,70,8|0,0:0|0:0,0:0:0:0:
303,146,99861,5,8,0:0:0:0:
174,127,100202,5,8,0:0:0:0:
182,144,100543,2,0,P|180:191|164:238,1,70,2|4,0:0|0:0,0:0:0:0:
75,158,100884,5,6,0:0:0:0:
90,247,101054,1,0,0:0:0:0:
18,302,101224,1,4,0:0:0:0:
85,363,101395,1,0,0:0:0:0:
176,316,101565,2,0,P|190:289|197:265,1,41.9999987182618,4|0,0:0|0:0,0:0:0:0:
249,166,101906,6,0,P|277:205|393:181,1,167.999994873047,6|0,0:0|0:0,0:0:0:0:
420,122,102418,1,8,0:0:0:0:
319,59,102588,2,0,L|323:152,1,83.9999974365235,2|0,0:0|0:0,0:0:0:0:
224,83,102929,2,0,L|232:-12,1,83.9999974365235,8|0,0:0|0:0,0:0:0:0:
139,67,103270,6,0,P|99:71|57:48,1,83.9999974365235,2|0,0:0|0:0,0:0:0:0:
0,126,103611,1,8,0:0:0:0:
38,211,103781,1,8,0:0:0:0:
110,147,103952,2,0,P|134:196|78:299,1,167.999994873047,8|0,0:0|0:0,0:0:0:0:
78,299,104634,6,0,L|173:289,1,83.9999974365235,6|0,0:0|0:0,0:0:0:0:
236,212,104974,2,0,P|264:247|261:314,1,83.9999974365235,8|0,0:0|0:0,0:0:0:0:
205,355,105315,2,0,B|288:374|288:374|364:316,1,167.999994873047,8|0,0:0|0:0,0:0:0:0:
469,351,105827,1,8,0:0:0:0:
420,259,105997,6,0,P|398:200|480:130,1,167.999994873047,2|0,0:0|0:0,0:0:0:0:
506,38,106509,1,8,0:0:0:0:
416,16,106679,2,0,B|372:8|372:8|335:32,1,83.9999974365235,2|0,0:0|0:0,0:0:0:0:
257,96,107020,1,8,0:0:0:0:
42,11,107361,6,0,B|18:89|18:89|53:178,1,167.999994873047,6|0,0:0|0:0,0:0:0:0:
111,90,107872,1,8,0:0:0:0:
148,177,108043,2,0,P|138:224|114:253,1,83.9999974365235,2|0,0:0|0:0,0:0:0:0:
13,253,108384,2,0,P|14:279|47:347,1,83.9999974365235
181,356,108724,6,0,L|274:344,1,83.9999974365235,2|0,0:0|0:0,0:0:0:0:
276,239,109065,1,8,0:0:0:0:
276,239,109236,1,8,0:0:0:0:
339,322,109406,2,0,P|381:338|430:320,1,83.9999974365235,2|0,0:0|0:0,0:0:0:0:
494,272,109747,1,0,0:0:0:0:
416,98,110088,6,0,B|362:87|362:87|316:119|316:119|246:106,1,167.999994873047,6|0,0:0|0:0,0:0:0:0:
291,0,110599,1,0,0:0:0:0:
171,24,110770,2,0,B|117:35|117:35|71:3|71:3|1:16,1,167.999994873047,2|0,0:0|0:0,0:0:0:0:
43,109,111281,1,0,0:0:0:0:
141,139,111452,6,0,P|151:178|135:224,1,83.9999974365235,2|0,0:0|0:0,0:0:0:0:
33,243,111793,1,8,0:0:0:0:
33,243,111963,1,0,0:0:0:0:
115,307,112134,2,0,P|173:308|232:215,1,167.999994873047,2|0,0:0|0:0,0:0:0:0:
295,165,112645,1,0,0:0:0:0:
207,71,112815,6,0,P|256:32|356:52,1,167.999994873047,6|0,0:0|0:0,0:0:0:0:
418,134,113327,1,0,0:0:0:0:
360,225,113497,2,0,B|345:265|345:265|361:314,1,83.9999974365235,8|0,0:0|0:0,0:0:0:0:
449,364,113838,1,8,0:0:0:0:
433,267,114009,1,8,0:0:0:0:
512,285,114179,6,0,B|516:240|516:240|487:198,1,83.9999974365235,2|0,0:0|0:0,0:0:0:0:
418,135,114520,2,0,L|322:143,1,83.9999974365235,8|0,0:0|0:0,0:0:0:0:
249,180,114861,1,8,0:0:0:0:
249,180,115031,1,8,0:0:0:0:
162,174,115202,2,0,P|140:137|150:89,1,83.9999974365235
221,31,115543,6,0,P|256:73|245:188,1,167.999994873047,6|0,0:0|0:0,0:0:0:0:
173,249,116054,1,8,0:0:0:0:
82,212,116224,2,0,P|60:167|71:111,1,83.9999974365235,2|0,0:0|0:0,0:0:0:0:
26,277,116565,2,0,P|12:317|27:362,1,83.9999974365235,8|0,0:0|0:0,0:0:0:0:
113,315,116906,5,2,0:0:0:0:
113,315,117077,1,0,0:0:0:0:
197,357,117247,2,0,L|282:341,1,83.9999974365235,8|0,0:0|0:0,0:0:0:0:
341,253,117588,2,0,L|243:232,1,83.9999974365235,2|0,0:0|0:0,0:0:0:0:
234,201,117844,1,8,0:0:0:0:
229,160,117929,2,0,P|232:128|274:79,1,83.9999974365235,8|8,0:0|0:0,0:0:0:0:
371,17,118270,6,0,L|186:37,1,167.999994873047,6|0,0:0|0:0,0:0:0:0:
94,28,118781,1,8,0:0:0:0:
133,126,118952,2,0,B|139:165|139:165|124:221,1,83.9999974365235,2|0,0:0|0:0,0:0:0:0:
21,232,119293,1,0,0:0:0:0:
21,232,119463,1,0,0:0:0:0:
101,312,119634,6,0,B|142:328|142:328|205:307,1,83.9999974365235,2|0,0:0|0:0,0:0:0:0:
257,247,119974,2,0,P|314:241|345:267,1,83.9999974365235
413,328,120315,1,8,0:0:0:0:
413,328,120486,1,0,0:0:0:0:
473,244,120656,2,0,L|458:157,1,83.9999974365235,8|0,0:0|0:0,0:0:0:0:
496,65,120997,6,0,B|432:61|432:61|392:88|392:88|328:84,1,167.999994873047,6|0,0:0|0:0,0:0:0:0:
224,59,121509,1,8,0:0:0:0:
240,159,121679,2,0,P|292:173|330:165,1,83.9999974365235,2|0,0:0|0:0,0:0:0:0:
190,235,122020,2,0,P|225:266|287:286,1,83.9999974365235,8|0,0:0|0:0,0:0:0:0:
365,283,122361,5,2,0:0:0:0:
305,358,122531,1,0,0:0:0:0:
199,334,122702,2,0,P|152:332|117:353,1,83.9999974365235
42,276,123043,2,0,L|49:176,1,83.9999974365235,2|0,0:0|0:0,0:0:0:0:
30,154,123298,1,8,0:0:0:0:
12,116,123384,2,0,L|20:24,1,83.9999974365235,8|8,0:0|0:0,0:0:0:0:
118,114,123724,6,0,P|169:139|258:74,1,167.999994873047,6|0,0:0|0:0,0:0:0:0:
345,31,124236,1,0,0:0:0:0:
390,130,124406,2,0,L|481:118,1,83.9999974365235,8|0,0:0|0:0,0:0:0:0:
431,210,124747,1,0,0:0:0:0:
341,193,124918,1,0,0:0:0:0:
372,283,125088,6,0,L|388:365,1,83.9999974365235,2|0,0:0|0:0,0:0:0:0:
295,329,125429,2,8,L|305:374,2,41.9999987182618
196,286,125770,2,0,L|212:368,1,83.9999974365235,2|0,0:0|0:0,0:0:0:0:
112,325,126111,2,0,L|96:243,1,83.9999974365235,8|0,0:0|0:0,0:0:0:0:
21,177,126452,6,0,B|61:120|127:148|127:148|171:216,1,167.999994873047,2|0,0:0|0:0,0:0:0:0:
247,190,126963,1,8,0:0:0:0:
196,286,127134,2,0,P|134:282|96:255,1,83.9999974365235,2|0,0:0|0:0,0:0:0:0:
152,187,127474,2,0,P|111:164|98:127,1,83.9999974365235,8|0,0:0|0:0,0:0:0:0:
105,35,127815,5,2,0:0:0:0:
182,102,127986,1,0,0:0:0:0:
234,23,128156,2,0,L|328:10,1,83.9999974365235,8|0,0:0|0:0,0:0:0:0:
299,115,128497,1,2,0:0:0:0:
376,182,128668,1,0,0:0:0:0:
428,103,128838,2,0,L|522:90,1,83.9999974365235,8|0,0:0|0:0,0:0:0:0:
470,204,129179,6,0,P|485:261|478:297,1,83.9999974365235,2|0,0:0|0:0,0:0:0:0:
386,359,129520,2,0,P|388:306|371:262,1,83.9999974365235
284,203,129861,2,0,B|291:248|291:248|288:295,1,83.9999974365235,2|0,0:0|0:0,0:0:0:0:
192,360,130202,2,0,B|194:318|194:318|182:271,1,83.9999974365235,8|0,0:0|0:0,0:0:0:0:
83,254,130543,5,2,0:0:0:0:
36,174,130713,1,8,0:0:0:0:
90,99,130884,1,8,0:0:0:0:
181,112,131054,1,8,0:0:0:0:
222,194,131224,2,0,P|265:153|237:43,1,167.999994873047,2|0,0:0|0:0,0:0:0:0:
239,31,131906,6,0,L|336:34,1,83.9999974365235,2|0,0:0|0:0,0:0:0:0:
430,5,132247,2,0,L|427:101,1,83.9999974365235
469,175,132588,2,8,L|519:176,3,41.9999987182618
445,174,132929,2,0,P|429:220|362:240,1,83.9999974365235,2|0,0:0|0:0,0:0:0:0:
308,199,133270,5,2,0:0:0:0:
279,291,133440,1,0,0:0:0:0:
198,220,133611,2,8,P|124:216|85:283,1,125.999996154785,0|0,0:0|0:0,0:0:0:0:
57,267,133952,2,8,P|48:245|47:218,3,41.9999987182618
63,184,134293,2,8,P|71:167|66:128,3,41.9999987182618
58,106,134634,5,2,0:0:0:0:
256,64,137361,5,0,0:0:0:0:
256,272,137702,1,0,0:0:0:0:
208,192,137872,1,0,0:0:0:0:
304,192,138043,1,0,0:0:0:0:
256,352,138384,1,0,0:0:0:0:
256,272,138724,1,0,0:0:0:0:
256,192,139065,1,0,0:0:0:0:
256,112,139406,1,0,0:0:0:0:
256,192,139747,1,0,0:0:0:0:
256,192,143582,12,0,145372,0:0:0:0:
282,227,145543,6,0,B|335:238|372:217,1,77.0000023498536,2|0,0:0|0:0,0:0:0:0:
395,142,145884,2,0,B|354:134|354:134|304:145,1,77.0000023498536
225,151,146224,2,0,P|221:117|241:74,1,77.0000023498536,8|0,0:0|0:0,0:0:0:0:
165,23,146565,1,8,0:0:0:0:
165,23,146736,1,8,0:0:0:0:
85,90,146906,6,0,L|99:196,1,77.0000023498536,2|0,0:0|0:0,0:0:0:0:
45,254,147247,1,0,0:0:0:0:
45,254,147418,1,0,0:0:0:0:
148,238,147588,2,0,P|195:232|233:249,1,77.0000023498536,8|0,0:0|0:0,0:0:0:0:
306,316,147929,2,0,P|361:299|412:226,1,115.50000352478,8|8,0:0|0:0,0:0:0:0:
400,257,148270,6,0,L|394:144,1,77.0000023498536,2|0,0:0|0:0,0:0:0:0:
327,93,148611,2,0,L|319:193,1,77.0000023498536,8|0,0:0|0:0,0:0:0:0:
255,241,148952,1,0,0:0:0:0:
225,153,149122,1,0,0:0:0:0:
140,213,149293,2,0,L|48:218,1,77.0000023498536
0,302,149634,5,0,0:0:0:0:
62,368,149804,1,0,0:0:0:0:
126,306,149974,2,0,L|224:320,1,77.0000023498536
307,358,150315,2,0,P|313:308|396:248,1,154.000004699707,8|0,0:0|0:0,0:0:0:0:
483,290,150827,1,8,0:0:0:0:
472,191,150997,6,0,L|443:89,1,77.0000023498536,2|0,0:0|0:0,0:0:0:0:
370,39,151338,2,0,L|347:131,1,77.0000023498536
278,195,151679,2,0,L|252:114,1,77.0000023498536
179,53,152020,1,8,0:0:0:0:
179,53,152190,1,8,0:0:0:0:
149,150,152361,6,0,P|89:181|59:167,1,77.0000023498536,2|0,0:0|0:0,0:0:0:0:
24,110,152702,1,0,0:0:0:0:
24,110,152872,1,0,0:0:0:0:
2,200,153043,2,0,B|-4:212|-4:212|4:304,1,77.0000023498536,8|0,0:0|0:0,0:0:0:0:
87,330,153384,2,8,L|76:378,3,38.5000011749268
114,291,153724,6,0,P|152:293|195:313,1,77.0000023498536
288,365,154065,2,0,P|349:358|377:341,1,77.0000023498536
428,280,154406,2,0,L|419:180,1,77.0000023498536
418,161,154662,1,8,0:0:0:0:
418,161,154747,1,8,0:0:0:0:
412,117,155770,6,0,L|427:289,1,157.500006008148,4|0,0:0|0:0,0:0:0:0:
496,271,156452,6,0,P|473:328|366:311,1,167.999994873047,6|0,0:0|0:0,0:0:0:0:
285,361,156963,1,0,0:0:0:0:
283,271,157134,2,0,L|251:188,1,83.9999974365235,2|0,0:0|0:0,0:0:0:0:
161,151,157474,1,8,0:0:0:0:
161,151,157645,1,8,0:0:0:0:
253,104,157815,6,0,L|291:8,1,83.9999974365235,2|0,0:0|0:0,0:0:0:0:
338,122,158156,2,0,L|375:213,1,83.9999974365235,8|0,0:0|0:0,0:0:0:0:
422,122,158497,2,0,L|463:25,1,83.9999974365235,2|0,0:0|0:0,0:0:0:0:
490,183,158838,2,0,P|474:234|385:259,1,125.999996154785,8|0,0:0|0:0,0:0:0:0:
388,275,159179,5,6,0:0:0:0:
302,224,159349,2,0,P|263:246|245:300,1,83.9999974365235
196,357,159690,1,0,0:0:0:0:
128,285,159861,2,0,L|140:189,1,83.9999974365235,2|0,0:0|0:0,0:0:0:0:
66,146,160202,1,8,0:0:0:0:
36,63,160372,1,8,0:0:0:0:
137,32,160543,6,0,L|228:23,1,83.9999974365235,2|0,0:0|0:0,0:0:0:0:
288,104,160884,2,0,L|394:109,1,83.9999974365235,8|0,0:0|0:0,0:0:0:0:
431,33,161224,2,0,P|465:96|444:171,1,125.999996154785,2|0,0:0|0:0,0:0:0:0:
427,173,161565,2,8,L|442:239,2,41.9999987182618
336,199,161906,6,0,B|285:211|285:211|218:184|218:184|150:199,1,167.999994873047,6|0,0:0|0:0,0:0:0:0:
100,263,162418,1,8,0:0:0:0:
158,330,162588,2,0,P|188:318|216:267,1,83.9999974365235,2|0,0:0|0:0,0:0:0:0:
278,363,162929,2,0,P|300:323|302:275,1,83.9999974365235,8|0,0:0|0:0,0:0:0:0:
398,271,163270,5,2,0:0:0:0:
342,192,163440,1,0,0:0:0:0:
431,151,163611,2,0,P|431:103|410:59,1,83.9999974365235,8|0,0:0|0:0,0:0:0:0:
338,24,163952,1,0,0:0:0:0:
258,72,164122,2,0,L|175:65,1,83.9999974365235
69,92,164463,1,8,0:0:0:0:
69,92,164548,1,8,0:0:0:0:
69,92,164634,6,0,B|59:138|59:138|74:202,1,83.9999974365235,6|0,0:0|0:0,0:0:0:0:
0,254,164974,2,0,B|3:298|3:298|33:338,1,83.9999974365235,8|0,0:0|0:0,0:0:0:0:
118,274,165315,2,0,P|161:258|213:273,1,83.9999974365235,2|0,0:0|0:0,0:0:0:0:
275,361,165656,2,0,P|215:369|172:347,1,83.9999974365235,8|0,0:0|0:0,0:0:0:0:
280,265,165997,6,0,B|360:250|360:250|439:285,1,167.999994873047,2|0,0:0|0:0,0:0:0:0:
509,230,166509,1,8,0:0:0:0:
413,187,166679,2,0,P|384:145|398:84,1,83.9999974365235,2|0,0:0|0:0,0:0:0:0:
451,33,167020,1,0,0:0:0:0:
453,53,167105,1,0,0:0:0:0:
455,73,167190,1,0,0:0:0:0:
457,94,167276,1,0,0:0:0:0:
459,125,167361,6,0,B|463:168|463:168|435:214|435:214|440:299,1,168,6|0,0:0|0:0,0:0:0:0:
331,262,168043,2,0,P|312:217|314:176,1,83.9999974365235,2|0,0:0|0:0,0:0:0:0:
332,91,168384,1,8,0:0:0:0:
332,91,168554,1,8,0:0:0:0:
231,53,168724,6,0,L|133:38,1,83.9999974365235,2|0,0:0|0:0,0:0:0:0:
165,139,169065,2,0,L|70:124,1,83.9999974365235,8|0,0:0|0:0,0:0:0:0:
95,225,169406,2,0,L|0:210,1,83.9999974365235,2|0,0:0|0:0,0:0:0:0:
46,306,169747,2,0,P|106:316|149:378,1,125.999996154785,8|0,0:0|0:0,0:0:0:0:
145,364,170088,6,0,B|189:367|189:367|230:340,1,83.9999974365235,6|0,0:0|0:0,0:0:0:0:
250,250,170429,2,0,B|293:250|293:250|332:282,1,83.9999974365235
385,355,170770,2,0,P|420:305|386:200,1,167.999994873047,8|0,0:0|0:0,0:0:0:0:
293,167,171281,1,8,0:0:0:0:
373,108,171452,6,0,B|489:125|489:125|445:87,1,167.999994873047,2|0,0:0|0:0,0:0:0:0:
375,22,171963,1,0,0:0:0:0:
280,63,172134,2,0,P|265:104|283:157,1,83.9999974365235,2|0,0:0|0:0,0:0:0:0:
196,204,172474,2,8,L|188:266,2,41.9999987182618
151,118,172815,6,0,P|96:114|1:190,1,167.999994873047,6|0,0:0|0:0,0:0:0:0:
0,270,173327,1,8,0:0:0:0:
90,317,173497,2,0,P|137:309|164:279,1,83.9999974365235,2|0,0:0|0:0,0:0:0:0:
219,199,173838,1,8,0:0:0:0:
219,199,174009,1,8,0:0:0:0:
298,267,174179,6,0,P|327:282|380:280,1,83.9999974365235,2|0,0:0|0:0,0:0:0:0:
351,195,174520,2,0,P|404:187|430:168,1,83.9999974365235,8|0,0:0|0:0,0:0:0:0:
366,107,174861,2,0,P|401:66|406:35,1,83.9999974365235,2|0,0:0|0:0,0:0:0:0:
317,34,175202,2,0,L|172:50,1,125.999996154785,8|0,0:0|0:0,0:0:0:0:
168,59,175543,6,0,B|160:103|160:103|172:141,1,83.9999974365235,6|0,0:0|0:0,0:0:0:0:
253,205,175884,1,8,0:0:0:0:
253,205,176054,1,8,0:0:0:0:
170,266,176224,2,0,L|57:259,1,83.9999974365235,2|0,0:0|0:0,0:0:0:0:
18,336,176565,1,8,0:0:0:0:
18,336,176736,1,8,0:0:0:0:
123,358,176906,6,0,L|303:341,2,167.999994873047,2|0|0,0:0|0:0|0:0,0:0:0:0:
111,340,177929,2,8,L|117:274,1,41.9999987182618
189,267,178099,2,8,L|185:217,1,41.9999987182618
132,162,178270,6,0,L|276:183,1,119.000002269745,2|0,0:0|0:0,0:0:0:0:
349,139,178781,1,0,0:0:0:0:
265,81,178952,2,0,P|272:40|295:5,1,83.9999974365235,8|0,0:0|0:0,0:0:0:0:
405,3,179293,2,0,P|427:38|434:79,1,83.9999974365235,8|0,0:0|0:0,0:0:0:0:
349,139,179634,6,0,B|329:263|329:263|373:227,1,167.999994873047,2|0,0:0|0:0,0:0:0:0:
460,228,180145,1,0,0:0:0:0:
392,314,180315,2,0,P|346:342|308:343,1,83.9999974365235,8|0,0:0|0:0,0:0:0:0:
235,262,180656,2,8,L|226:221,2,41.9999987182618
172,338,180997,6,0,L|74:334,1,83.9999974365235,6|0,0:0|0:0,0:0:0:0:
48,307,181253,1,0,0:0:0:0:
23,273,181338,2,0,P|16:224|36:180,1,83.9999974365235,8|0,0:0|0:0,0:0:0:0:
118,119,181679,2,0,B|166:136|166:136|232:116|232:116|268:64,1,167.999994873047,2|0,0:0|0:0,0:0:0:0:
172,38,182190,1,8,0:0:0:0:
62,46,182361,6,0,P|30:87|30:129,1,83.9999974365235,2|0,0:0|0:0,0:0:0:0:
119,182,182702,2,0,P|139:227|133:272,1,83.9999974365235,8|0,0:0|0:0,0:0:0:0:
50,343,183043,1,2,0:0:0:0:
50,343,183213,1,0,0:0:0:0:
168,338,183384,2,8,L|150:393,2,41.9999987182618
247,274,183724,6,0,P|308:289|401:231,1,167.999994873047,2|0,0:0|0:0,0:0:0:0:
398,150,184236,1,0,0:0:0:0:
490,126,184406,2,0,P|516:172|513:205,1,83.9999974365235,8|0,0:0|0:0,0:0:0:0:
477,291,184747,1,8,0:0:0:0:
397,241,184918,1,8,0:0:0:0:
398,150,185088,6,0,P|337:165|244:107,1,167.999994873047,2|0,0:0|0:0,0:0:0:0:
247,26,185600,1,0,0:0:0:0:
155,2,185770,2,0,P|129:48|132:81,1,83.9999974365235
168,167,186111,1,8,0:0:0:0:
248,117,186282,1,8,0:0:0:0:
313,203,186452,6,4,L|321:254,2,41.9999987182618,6|4|4,0:0|0:0|0:0,0:0:0:0:
227,282,186793,2,0,L|195:382,1,83.9999974365235
118,271,187134,2,0,P|77:243|0:257,1,125.999996154785,2|0,0:0|0:0,0:0:0:0:
4,253,187474,2,0,L|23:155,1,83.9999974365235,8|0,0:0|0:0,0:0:0:0:
17,62,187815,6,0,P|71:43|110:63,1,83.9999974365235,2|0,0:0|0:0,0:0:0:0:
181,105,188156,1,8,0:0:0:0:
229,13,188327,1,0,0:0:0:0:
281,102,188497,2,0,L|268:202,1,83.9999974365235,2|0,0:0|0:0,0:0:0:0:
370,221,188838,1,8,0:0:0:0:
366,237,188923,1,8,0:0:0:0:
362,254,189009,1,8,0:0:0:0:
358,270,189094,1,8,0:0:0:0:
354,287,189179,6,0,P|422:320|502:254,1,167.999994873047,6|0,0:0|0:0,0:0:0:0:
466,171,189690,1,0,0:0:0:0:
361,156,189861,2,0,L|260:175,1,83.9999974365235,8|0,0:0|0:0,0:0:0:0:
339,65,190202,2,0,L|428:81,1,83.9999974365235,8|0,0:0|0:0,0:0:0:0:
502,27,190543,5,2,0:0:0:0:
502,27,190713,1,0,0:0:0:0:
508,124,190884,2,0,L|513:212,1,83.9999974365235,8|0,0:0|0:0,0:0:0:0:
479,232,191139,1,8,0:0:0:0:
443,237,191224,2,0,P|381:229|343:189,1,83.9999974365235,2|0,0:0|0:0,0:0:0:0:
310,137,191565,2,0,B|274:125|274:125|170:137,1,125.999996154785,8|0,0:0|0:0,0:0:0:0:
160,160,191906,6,0,P|127:119|126:64,1,83.9999974365235,6|0,0:0|0:0,0:0:0:0:
24,53,192247,2,0,P|4:97|0:153,1,83.9999974365235,8|0,0:0|0:0,0:0:0:0:
1,248,192588,1,2,0:0:0:0:
59,333,192759,1,0,0:0:0:0:
109,246,192929,2,0,L|207:239,1,83.9999974365235,8|0,0:0|0:0,0:0:0:0:
271,320,193270,6,0,L|360:337,1,83.9999974365235,2|0,0:0|0:0,0:0:0:0:
373,240,193611,2,0,P|355:189|375:140,1,83.9999974365235
389,132,193866,1,8,0:0:0:0:
425,115,193952,2,0,L|510:125,1,83.9999974365235,2|0,0:0|0:0,0:0:0:0:
488,229,194293,1,8,0:0:0:0:
474,219,194378,1,8,0:0:0:0:
457,217,194463,1,8,0:0:0:0:
440,219,194548,1,8,0:0:0:0:
424,227,194634,6,4,P|371:238|303:149,1,167.999994873047,6|4,0:0|0:0,0:0:0:0:
308,64,195145,1,0,0:0:0:0:
205,59,195315,2,0,B|161:51|161:51|111:70,1,83.9999974365235,8|0,0:0|0:0,0:0:0:0:
26,143,195656,2,0,B|62:163|62:163|105:157,1,83.9999974365235
195,213,195997,5,2,0:0:0:0:
106,254,196168,1,0,0:0:0:0:
201,306,196338,2,0,P|252:296|280:259,1,83.9999974365235,8|0,0:0|0:0,0:0:0:0:
298,242,196594,1,8,0:0:0:0:
333,221,196679,2,0,L|420:234,1,83.9999974365235,2|0,0:0|0:0,0:0:0:0:
495,309,197020,2,0,B|513:287|513:287|496:218|496:218|520:180,1,125.999996154785,8|0,0:0|0:0,0:0:0:0:
510,195,197361,6,0,B|496:134,1,41.9999987182618,6|0,0:0|0:0,0:0:0:0:
439,23,197702,2,0,P|379:20|332:43,1,83.9999974365235,8|0,0:0|0:0,0:0:0:0:
315,114,198043,2,0,L|185:90,1,125.999996154785,2|0,0:0|0:0,0:0:0:0:
151,110,198384,2,8,L|163:169,1,41.9999987182618
92,194,198554,2,8,L|80:252,1,41.9999987182618
142,299,198724,6,0,P|197:322|229:304,1,83.9999974365235,2|0,0:0|0:0,0:0:0:0:
314,273,199065,2,8,L|314:330,1,41.9999987182618
451,230,199406,2,0,L|435:131,1,83.9999974365235,2|0,0:0|0:0,0:0:0:0:
394,61,199747,2,8,L|414:16,3,41.9999987182618
365,67,200088,6,0,L|233:47,1,119.000002269745,2|0,0:0|0:0,0:0:0:0:
139,42,200599,1,0,0:0:0:0:
73,133,200770,2,0,P|58:180|90:278,1,125.999996154785,8|0,0:0|0:0,0:0:0:0:
88,264,201111,1,8,0:0:0:0:
174,185,201281,1,8,0:0:0:0:
270,249,201452,6,0,P|288:307|252:376,1,125.999996154785,2|0,0:0|0:0,0:0:0:0:
264,365,201793,2,8,L|199:351,1,41.9999987182618
154,322,201963,2,8,L|106:327,1,41.9999987182618
38,362,202134,6,0,B|31:318|31:318|40:224,1,125.999996154785,2|0,0:0|0:0,0:0:0:0:
38,236,202474,2,8,L|35:167,1,41.9999987182618
7,58,202815,6,0,P|52:37|138:108,1,167.999994873047,6|0,0:0|0:0,0:0:0:0:
217,170,203327,1,0,0:0:0:0:
245,72,203497,2,8,L|294:60,1,41.9999987182618
393,18,203753,1,8,0:0:0:0:
410,32,203838,2,8,P|426:79|416:121,1,83.9999974365235,8|0,0:0|0:0,0:0:0:0:
331,169,204179,6,0,P|319:214|337:274,1,83.9999974365235,2|0,0:0|0:0,0:0:0:0:
324,250,204435,2,8,L|384:257,1,41.9999987182618
423,310,204605,2,8,L|469:301,1,41.9999987182618
278,339,204861,2,0,P|233:317|147:351,1,125.999996154785
162,334,205202,2,0,L|111:318,1,41.9999987182618
35,212,205543,6,0,B|18:150|42:102|42:102|89:74,1,167.999994873047,6|0,0:0|0:0,0:0:0:0:
172,140,206054,1,0,0:0:0:0:
213,47,206224,2,0,P|246:38|301:52,1,83.9999974365235,8|0,0:0|0:0,0:0:0:0:
340,130,206565,2,0,P|390:132|432:104,1,83.9999974365235,2|0,0:0|0:0,0:0:0:0:
477,48,206906,6,0,L|462:209,1,125.999996154785,2|0,0:0|0:0,0:0:0:0:
464,193,207247,1,8,0:0:0:0:
499,288,207418,1,8,0:0:0:0:
375,253,207588,2,0,B|310:235|310:235|227:264,1,125.999996154785,2|0,0:0|0:0,0:0:0:0:
254,254,207929,2,8,L|257:313,1,41.9999987182618
174,239,208099,2,8,L|183:183,1,41.9999987182618
100,210,208270,6,0,B|84:248|111:286|111:286|109:333,1,125.999996154785,6|0,0:0|0:0,0:0:0:0:
96,335,208611,2,0,L|42:319,1,41.9999987182618
3,204,208952,2,0,L|17:69,1,125.999996154785,2|0,0:0|0:0,0:0:0:0:
31,71,209293,2,0,P|83:75|122:101,1,83.9999974365235,8|0,0:0|0:0,0:0:0:0:
180,177,209634,6,0,B|241:177|241:177|311:133,1,125.999996154785,2|0,0:0|0:0,0:0:0:0:
304,133,209974,1,8,0:0:0:0:
364,53,210145,1,8,0:0:0:0:
421,143,210315,2,0,L|405:240,1,83.9999974365235,8|0,0:0|0:0,0:0:0:0:
509,271,210656,1,0,0:0:0:0:
509,291,210741,1,0,0:0:0:0:
509,312,210827,1,0,0:0:0:0:
510,332,210912,1,0,0:0:0:0:
496,351,210997,6,0,B|438:340|438:340|405:348|405:348|340:336,1,140,2|0,0:0|0:0,0:0:0:0:
397,255,211509,1,0,0:0:0:0:
270,252,211679,2,0,B|212:263|212:263|179:255|179:255|114:267,1,140,8|0,0:0|0:0,0:0:0:0:
165,359,212191,1,0,0:0:0:0:
61,305,212361,6,0,P|51:264|60:223,1,70,2|0,0:0|0:0,0:0:0:0:
139,171,212702,2,0,L|-8:185,2,140,2|8|0,0:0|0:0|0:0,0:0:0:0:
219,103,213554,1,8,0:0:0:0:
322,83,213724,6,0,L|331:6,1,70,2|0,0:0|0:0,0:0:0:0:
402,165,214065,1,8,0:0:0:0:
402,165,214236,1,8,0:0:0:0:
296,189,214406,2,0,P|255:212|239:311,1,140,2|0,0:0|0:0,0:0:0:0:
295,372,214918,1,0,0:0:0:0:
338,282,215088,6,0,P|375:273|417:291,1,70,2|0,0:0|0:0,0:0:0:0:
425,296,215344,1,8,0:0:0:0:
425,296,215429,1,8,0:0:0:0:
485,144,215770,2,0,L|476:51,1,70,2|0,0:0|0:0,0:0:0:0:
376,23,216111,2,8,L|384:111,1,70,8|0,0:0|0:0,0:0:0:0:
327,174,216452,6,0,P|259:130|183:156,1,140,2|0,0:0|0:0,0:0:0:0:
133,207,216963,1,0,0:0:0:0:
67,127,217134,1,8,0:0:0:0:
51,143,217645,2,8,L|57:189,1,35
29,228,217815,6,0,L|9:376,2,140,2|8|2,0:0|0:0|0:0,0:0:0:0:
132,180,218668,1,0,0:0:0:0:
200,274,218838,2,0,L|191:359,1,70,8|0,0:0|0:0,0:0:0:0:
234,371,219094,1,8,0:0:0:0:
280,353,219179,6,0,P|346:334|416:369,1,140,2|0,0:0|0:0,0:0:0:0:
488,274,219690,1,8,0:0:0:0:
383,232,219861,2,0,L|390:152,1,70,2|0,0:0|0:0,0:0:0:0:
466,88,220202,1,8,0:0:0:0:
466,88,220372,1,8,0:0:0:0:
356,45,220543,6,0,P|297:31|254:55,1,105,2|0,0:0|0:0,0:0:0:0:
233,82,220884,2,8,L|241:136,2,35
133,67,221224,2,0,P|79:56|18:87,1,105,2|0,0:0|0:0,0:0:0:0:
12,107,221565,1,8,0:0:0:0:
34,202,221736,2,0,L|21:260,1,35
43,276,221929,6,0,L|34:327,4,35
