osu file format v14

[General]
AudioFilename: audio.mp3
AudioLeadIn: 0
PreviewTime: 101651
Countdown: 0
SampleSet: Soft
StackLeniency: 0.2
Mode: 0
LetterboxInBreaks: 0
WidescreenStoryboard: 0

[Editor]
Bookmarks: 77259,123628,134538,156356,178168,189077,199986,210901
DistanceSpacing: 0.9
BeatDivisor: 8
GridSize: 16
TimelineZoom: 1.900001

[Metadata]
Title:AIWAGUMA
TitleUnicode:AIWAGUMA
Artist:illion
ArtistUnicode:illion
Creator:Ellyu
Version:E=mc^2
Source:
Tags:UBU Yojiro Noda 野田洋次郎 Folk Rock _Yiiiii Pata-Mon Tenshichan Superstar Tofu1222 Antalf handsome muscle
BeatmapID:1231091
BeatmapSetID:533037

[Difficulty]
HPDrainRate:4
CircleSize:3.8
OverallDifficulty:8.6
ApproachRate:9.4
SliderMultiplier:1.6
SliderTickRate:1

[Events]
//Background and Video events
0,0,"49389130_p0.png",0,0
//Break Periods
2,134834,136821
2,140088,145003
//Storyboard Layer 0 (Background)
//Storyboard Layer 1 (Fail)
//Storyboard Layer 2 (Pass)
//Storyboard Layer 3 (Foreground)
//Storyboard Sound Samples

[TimingPoints]
-366,340.909090909091,4,1,0,50,1,0
827,-100,4,2,1,30,0,0
997,-111.111111111111,4,2,1,30,0,0
3724,-111.111111111111,4,2,2,30,0,0
3810,-111.111111111111,4,2,1,30,0,0
7134,-166.666666666667,4,2,1,30,0,0
7474,-76.9230769230769,4,2,1,30,0,0
7815,-111.111111111111,4,2,1,30,0,0
8497,-166.666666666667,4,2,1,30,0,0
8838,-76.9230769230769,4,2,1,30,0,0
9179,-111.111111111111,4,2,2,30,0,0
9265,-111.111111111111,4,2,1,30,0,0
10884,-100,4,2,1,30,0,0
11224,-90.9090909090909,4,2,1,30,0,0
11565,-83.3333333333333,4,2,99,25,0,0
11906,-100,4,2,1,40,0,0
21963,-100,4,2,4,50,0,0
22474,-100,4,2,99,50,0,0
22560,-100,4,2,4,50,0,0
22815,-90.9090909090909,4,2,4,50,0,0
33384,-90.9090909090909,4,2,1,50,0,0
33724,-90.9090909090909,4,2,4,50,0,0
42247,-83.3333333333333,4,2,4,50,0,0
42929,-76.9230769230769,4,2,4,50,0,0
43611,-71.4285714285714,4,2,4,50,0,0
44634,-90.9090909090909,4,2,4,50,0,0
55202,-90.9090909090909,4,2,1,50,0,0
55287,-90.9090909090909,4,2,4,50,0,0
77361,-90.9090909090909,4,2,5,50,0,0
87545,-133.333333333333,4,2,10,50,0,0
88270,-90.9090909090909,4,2,4,50,0,0
100159,-90.9090909090909,4,2,10,50,0,0
100500,-133.333333333333,4,2,11,50,0,0
100628,-133.333333333333,4,2,4,50,0,0
101565,-166.666666666667,4,2,4,50,0,0
101906,-83.3333333333333,4,2,4,50,0,1
123724,-100,4,2,4,50,0,0
132929,-76.9230769230769,4,2,4,50,0,0
134719,-125,4,2,4,50,0,0
137361,-125,4,2,4,30,0,0
145543,-90.9090909090909,4,2,4,60,0,0
154747,-166.666666666667,4,2,4,60,0,0
155727,-500,4,2,10,30,0,0
156452,-76.9230769230769,4,2,4,60,0,0
167361,-125,4,2,4,60,0,0
167872,-76.9230769230769,4,2,4,60,0,0
177247,-66.6666666666667,4,2,4,60,0,0
177588,-58.8235294117647,4,2,4,60,0,0
177929,-50,4,2,4,60,0,0
178270,-166.666666666667,4,2,4,60,0,1
178611,-76.9230769230769,4,2,4,60,0,1
200088,-166.666666666667,4,2,4,60,0,0
200429,-71.4285714285714,4,2,4,60,0,0
205543,-66.6666666666667,4,2,4,60,0,0
206906,-62.5,4,2,4,60,0,0
208270,-58.8235294117647,4,2,4,60,0,0
209634,-55.5555555555556,4,2,4,60,0,0
210315,-52.6315789473684,4,2,4,60,0,0
210997,-100,4,2,4,40,0,0
220884,389.61038961039,4,2,4,40,1,0
221224,340.909090909091,4,2,4,40,1,0
221735,389.61038961039,4,2,4,40,1,0
223293,-66.6666666666667,4,2,4,40,0,0

[Colours]
Combo1 : 193,124,239
Combo2 : 112,252,231
Combo3 : 0,105,234
Combo4 : 180,183,241
Combo5 : 251,89,239

[HitObjects]
121,228,827,5,0,0:0:0:0:
54,287,997,6,0,P|90:312|189:286,1,143.999995605469,2|0,0:0|0:0,0:0:0:0:
310,242,1509,1,0,0:0:0:0:
304,48,1679,1,0,0:0:0:0:
337,68,2020,2,0,P|383:54|449:85,1,107.999996704102
486,133,2361,6,0,L|482:235,1,71.9999978027344,2|0,0:0|0:0,0:0:0:0:
342,254,2702,1,0,0:0:0:0:
438,328,2872,1,0,0:0:0:0:
268,295,3043,2,0,P|258:260|268:208,1,71.9999978027344
196,109,3384,2,0,P|201:155|184:200,1,71.9999978027344
167,80,3724,6,0,B|232:86|232:86|270:68|270:68|334:76,1,143.999995605469,2|0,0:0|0:0,0:0:0:0:
314,90,4406,1,0,0:0:0:0:
322,112,4747,5,0,0:0:0:0:
342,0,4918,1,0,0:0:0:0:
442,76,5088,6,0,P|455:143|439:222,1,143.999995605469,2|0,0:0|0:0,0:0:0:0:
469,310,5599,1,0,0:0:0:0:
272,284,5770,2,0,B|215:274|215:274|158:292,1,107.999996704102
99,238,6111,2,0,P|82:279|94:326,1,71.9999978027344
329,340,6452,6,0,P|349:292|330:232,1,107.999996704102,2|0,0:0|0:0,0:0:0:0:
263,188,6793,1,0,0:0:0:0:
241,42,6963,1,0,0:0:0:0:
376,133,7134,2,0,B|403:155|403:155|452:153,1,71.9999978027344
512,155,7474,2,0,L|385:122,1,103.999995239258
241,42,7815,6,0,P|198:63|197:144,1,107.999996704102,2|0,0:0|0:0,0:0:0:0:
201,190,8156,1,0,0:0:0:0:
58,82,8327,1,0,0:0:0:0:
89,199,8497,2,0,P|95:221|82:271,1,71.9999978027344
56,374,8838,2,0,P|43:339|72:253,1,103.999995239258
320,240,9179,6,0,P|256:264|160:240,2,143.999995605469,2|0|0,0:0|0:0|0:0,0:0:0:0:
312,235,10202,5,0,0:0:0:0:
382,310,10372,1,0,0:0:0:0:
366,163,10543,6,0,P|369:126|363:75,1,71.9999978027344,2|0,0:0|0:0,0:0:0:0:
148,29,10884,2,0,P|142:79|149:128,1,80
114,266,11224,2,0,L|27:281,1,88.000002685547
192,206,11565,6,0,B|230:268|192:323|192:323|170:290,1,143.999995605469,4|0,0:0|0:0,0:0:0:0:
128,173,11906,6,0,L|294:199,1,160,6|0,0:0|0:0,0:0:0:0:
408,173,12418,1,0,0:0:0:0:
307,77,12588,2,0,P|302:21|312:-7,1,80
472,111,12929,2,0,P|498:172|480:215,1,80
405,295,13270,5,0,0:0:0:0:
408,173,13440,1,0,0:0:0:0:
314,306,13611,2,0,P|316:266|336:232,1,80
496,252,13952,2,0,P|506:295|445:387,1,160,8|0,0:0|0:0,0:0:0:0:
405,295,14463,1,0,0:0:0:0:
249,342,14634,6,0,B|197:331|197:331|148:348|148:348|87:335,1,160,2|0,0:0|0:0,0:0:0:0:
19,236,15145,2,0,P|22:178|40:149,1,80
139,265,15486,1,0,0:0:0:0:
207,134,15656,2,0,P|198:89|179:51,1,80
16,36,15997,5,2,0:0:0:0:
23,66,16338,1,0,0:0:0:0:
32,96,16679,1,8,0:0:0:0:
39,127,17020,6,0,L|50:36,1,80
300,49,17361,6,0,P|248:28|162:108,1,160,2|2,0:0|0:0,0:0:0:0:
244,111,17872,1,0,0:0:0:0:
388,30,18043,2,0,L|402:132,1,80
304,237,18384,2,0,L|315:141,1,80
430,212,18724,5,0,0:0:0:0:
404,347,18895,1,0,0:0:0:0:
271,256,19065,2,0,P|224:245|115:313,1,160,0|8,0:0|0:0,0:0:0:0:
149,290,19747,2,0,P|181:267|232:264,1,80
457,138,20088,6,0,P|388:115|276:133,1,160,2|0,0:0|0:0,0:0:0:0:
97,114,20599,2,0,B|88:82|88:82|102:38,1,80
160,211,20940,1,0,0:0:0:0:
302,122,21111,2,0,B|311:79|311:79|301:22,1,80
250,224,21452,6,0,P|306:239|400:155,1,160,2|0,0:0|0:0,0:0:0:0:
388,188,21963,5,8,0:0:0:0:
387,240,22048,1,8,0:0:0:0:
386,292,22134,1,8,0:0:0:0:
280,145,22304,1,4,0:0:0:0:
486,189,22474,1,4,0:0:0:0:
307,362,22645,1,0,0:0:0:0:
303,166,22815,6,0,P|236:150|150:212,1,176.000005371094,6|0,0:0|0:0,0:0:0:0:
115,315,23327,1,0,0:0:0:0:
13,173,23497,2,0,L|23:68,1,88.000002685547,2|0,0:0|0:0,0:0:0:0:
249,155,23838,2,0,P|206:185|137:167,1,88.000002685547
279,33,24179,5,2,0:0:0:0:
327,194,24349,1,0,0:0:0:0:
417,87,24520,2,0,B|425:44|425:44|413:-2,1,88.000002685547
273,50,24861,5,8,0:0:0:0:
325,170,25031,1,0,0:0:0:0:
411,104,25202,2,0,B|419:61|419:61|407:15,1,88.000002685547,8|0,0:0|0:0,0:0:0:0:
267,68,25543,5,2,0:0:0:0:
302,275,25713,2,0,L|291:99,1,176.000005371094
198,262,26224,1,8,0:0:0:0:
146,208,26565,2,0,P|185:186|255:214,1,88.000002685547
406,256,26906,5,2,0:0:0:0:
295,157,27077,1,0,0:0:0:0:
178,358,27247,2,0,P|221:363|258:341,1,88.000002685547,8|0,0:0|0:0,0:0:0:0:
23,285,27588,1,0,0:0:0:0:
23,285,27673,1,0,0:0:0:0:
23,285,27759,1,0,0:0:0:0:
204,280,27929,1,0,0:0:0:0:
73,178,28099,1,0,0:0:0:0:
59,362,28270,5,2,0:0:0:0:
155,195,28440,2,0,P|141:127|85:94,1,132.00000402832,8|0,0:0|0:0,0:0:0:0:
56,99,28781,1,0,0:0:0:0:
109,274,28952,2,0,B|168:284|168:284|216:266|216:266|288:276,1,176.000005371094,10|0,0:0|0:0,0:0:0:0:
412,164,29463,1,0,0:0:0:0:
356,309,29634,5,2,0:0:0:0:
328,169,29804,1,0,0:0:0:0:
464,279,29974,2,0,P|478:324|475:380,1,88.000002685547,8|0,0:0|0:0,0:0:0:0:
331,187,30315,5,10,0:0:0:0:
408,141,30656,2,0,P|418:187|405:239,1,88.000002685547
276,295,30997,6,0,P|192:284|139:349,1,176.000005371094,2|0,0:0|0:0,0:0:0:0:
223,364,31509,1,0,0:0:0:0:
354,215,31679,5,10,0:0:0:0:
348,193,32020,1,0,0:0:0:0:
209,250,32190,1,0,0:0:0:0:
107,96,32361,6,0,L|85:207,1,88.000002685547,2|0,0:0|0:0,0:0:0:0:
206,36,32702,2,0,L|228:147,1,88.000002685547,8|0,0:0|0:0,0:0:0:0:
103,7,33043,1,8,0:0:0:0:
229,148,33213,1,0,0:0:0:0:
306,26,33384,6,0,P|293:22|278:17,1,22.0000006713867,4|0,0:0|0:0,0:0:0:0:
323,39,33469,6,0,P|311:31|303:22,1,22.0000006713867
336,56,33554,6,0,L|314:28,1,22.0000006713867
342,76,33639,6,0,L|332:45,1,22.0000006713867
309,143,33724,6,0,P|340:151|394:131,1,88.000002685547,6|0,0:0|0:0,0:0:0:0:
487,124,34065,1,0,0:0:0:0:
509,32,34236,1,0,0:0:0:0:
491,259,34406,2,0,P|445:230|366:243,1,132.00000402832,8|0,0:0|0:0,0:0:0:0:
300,266,34747,2,0,L|300:354,1,88.000002685547
193,339,35088,5,2,0:0:0:0:
131,252,35259,1,0,0:0:0:0:
155,149,35429,1,0,0:0:0:0:
248,101,35599,1,0,0:0:0:0:
95,88,35770,2,0,P|107:33|151:-4,1,88.000002685547,8|0,0:0|0:0,0:0:0:0:
0,162,36111,2,0,L|24:329,1,132.00000402832
30,362,36452,5,2,0:0:0:0:
134,376,36622,1,0,0:0:0:0:
218,312,36793,1,0,0:0:0:0:
232,207,36963,1,0,0:0:0:0:
108,258,37134,1,8,0:0:0:0:
298,282,37304,1,0,0:0:0:0:
337,127,37474,2,0,P|323:74|294:43,1,88.000002685547
136,150,37815,6,0,L|300:133,1,132.00000402832,2|0,0:0|0:0,0:0:0:0:
337,127,38156,1,8,0:0:0:0:
355,138,38497,2,0,P|344:187|358:242,1,88.000002685547,8|0,0:0|0:0,0:0:0:0:
493,331,38838,2,0,P|495:272|481:226,1,88.000002685547
366,335,39179,5,2,0:0:0:0:
264,305,39349,1,0,0:0:0:0:
218,209,39520,1,0,0:0:0:0:
252,109,39690,1,0,0:0:0:0:
165,337,39861,2,0,P|137:284|143:230,1,88.000002685547,8|0,0:0|0:0,0:0:0:0:
142,112,40202,1,0,0:0:0:0:
246,14,40372,1,0,0:0:0:0:
36,138,40543,5,2,0:0:0:0:
105,20,40713,1,8,0:0:0:0:
33,258,40884,1,2,0:0:0:0:
33,258,41224,2,0,B|73:278|73:278|119:264,1,88.000002685547,8|0,0:0|0:0,0:0:0:0:
285,180,41565,2,0,P|285:140|251:92,1,88.000002685547,8|0,0:0|0:0,0:0:0:0:
186,205,41906,6,0,P|159:264|212:340,1,132.00000402832,6|0,0:0|0:0,0:0:0:0:
262,383,42247,1,0,0:0:0:0:
234,281,42418,1,0,0:0:0:0:
156,208,42588,6,0,P|137:272|200:341,1,143.999995605469,2|0,0:0|0:0,0:0:0:0:
267,372,42929,1,4,0:0:0:0:
223,260,43100,1,0,0:0:0:0:
86,312,43270,6,0,L|-37:297,1,103.999995239258,6|0,0:0|0:0,0:0:0:0:
92,184,43611,1,8,0:0:0:0:
174,357,43781,1,0,0:0:0:0:
302,253,43952,6,0,L|429:237,1,111.999996582031,6|0,0:0|0:0,0:0:0:0:
300,135,44293,1,8,0:0:0:0:
241,310,44463,1,0,0:0:0:0:
153,70,44634,6,0,P|79:69|41:104,1,88.000002685547,6|0,0:0|0:0,0:0:0:0:
53,227,44974,1,0,0:0:0:0:
115,142,45145,1,0,0:0:0:0:
3,293,45315,2,0,P|75:309|129:259,1,132.00000402832,8|0,0:0|0:0,0:0:0:0:
164,241,45656,2,0,B|204:252|204:252|265:225,1,88.000002685547
267,124,45997,5,2,0:0:0:0:
378,149,46168,1,0,0:0:0:0:
433,248,46338,1,0,0:0:0:0:
395,356,46509,1,0,0:0:0:0:
475,128,46679,2,0,P|447:81|312:82,1,176.000005371094,8|0,0:0|0:0,0:0:0:0:
187,203,47190,1,0,0:0:0:0:
395,356,47361,5,2,0:0:0:0:
433,248,47532,1,0,0:0:0:0:
378,149,47702,1,0,0:0:0:0:
267,124,47873,1,8,0:0:0:0:
153,262,48043,2,0,B|196:274|196:274|237:260,1,88.000002685547,2|0,0:0|0:0,0:0:0:0:
314,54,48384,2,0,B|272:36|272:36|232:47,1,88.000002685547
67,138,48724,5,2,0:0:0:0:
237,259,48895,1,0,0:0:0:0:
231,47,49065,5,0,0:0:0:0:
136,186,49236,1,0,0:0:0:0:
353,182,49406,6,0,P|368:150|313:33,1,176.000005371094,8|0,0:0|0:0,0:0:0:0:
312,32,50088,6,0,P|341:79|344:119,1,88.000002685547,2|0,0:0|0:0,0:0:0:0:
307,299,50429,1,0,0:0:0:0:
271,179,50599,1,8,0:0:0:0:
240,346,50770,2,0,P|288:380|339:373,1,88.000002685547,2|0,0:0|0:0,0:0:0:0:
171,217,51111,1,0,0:0:0:0:
152,360,51281,1,8,0:0:0:0:
381,269,51452,5,2,0:0:0:0:
232,272,51622,1,0,0:0:0:0:
388,263,51793,1,8,0:0:0:0:
239,266,51963,1,0,0:0:0:0:
430,180,52134,2,0,B|436:159|436:159|427:82,1,88.000002685547,2|0,0:0|0:0,0:0:0:0:
262,135,52474,2,0,P|196:138|143:63,1,132.00000402832
61,55,52815,6,0,B|46:73|46:73|36:159,1,88.000002685547,2|0,0:0|0:0,0:0:0:0:
206,328,53156,2,0,B|214:304|214:304|202:221,1,88.000002685547
52,359,53497,1,8,0:0:0:0:
110,218,53668,1,0,0:0:0:0:
51,345,53838,1,0,0:0:0:0:
109,204,54009,1,0,0:0:0:0:
187,347,54179,5,2,0:0:0:0:
28,230,54349,1,0,0:0:0:0:
40,338,54520,5,0,0:0:0:0:
162,150,54690,1,2,0:0:0:0:
289,348,54861,6,0,P|347:357|400:305,1,132.00000402832,8|0,0:0|0:0,0:0:0:0:
470,331,55202,6,0,L|467:362,1,22.0000006713867,4|0,0:0|0:0,0:0:0:0:
477,264,55287,6,0,L|474:295,1,22.0000006713867
483,197,55372,6,0,L|480:228,1,22.0000006713867
489,130,55457,6,0,L|486:161,1,22.0000006713867
428,65,55543,6,0,P|360:54|283:151,1,176.000005371094,6|0,0:0|0:0,0:0:0:0:
251,286,56054,1,0,0:0:0:0:
74,130,56224,2,0,B|51:86|51:86|64:9,1,88.000002685547,8|0,0:0|0:0,0:0:0:0:
67,250,56565,1,0,0:0:0:0:
208,105,56736,1,0,0:0:0:0:
223,271,56906,6,0,P|157:248|144:194,1,88.000002685547,2|0,0:0|0:0,0:0:0:0:
208,105,57247,1,0,0:0:0:0:
162,13,57418,1,0,0:0:0:0:
264,171,57588,5,2,0:0:0:0:
297,17,57759,1,0,0:0:0:0:
370,233,57929,5,8,0:0:0:0:
424,65,58099,1,0,0:0:0:0:
469,221,58270,5,2,0:0:0:0:
270,181,58440,2,0,B|264:141|264:141|278:84,1,88.000002685547
277,289,58781,1,8,0:0:0:0:
414,79,58952,5,2,0:0:0:0:
358,227,59122,1,0,0:0:0:0:
293,29,59292,5,0,0:0:0:0:
266,191,59463,1,0,0:0:0:0:
151,54,59634,6,0,P|104:73|86:140,1,88.000002685547,2|0,0:0|0:0,0:0:0:0:
133,229,59974,1,8,0:0:0:0:
176,72,60145,1,8,0:0:0:0:
21,250,60315,1,0,0:0:0:0:
5,141,60486,1,2,0:0:0:0:
41,363,60656,2,0,B|83:355|83:355|131:376|131:376|182:368,1,132.00000402832,8|0,0:0|0:0,0:0:0:0:
226,283,60997,6,0,P|274:269|352:322,1,132.00000402832,2|0,0:0|0:0,0:0:0:0:
364,379,61338,1,0,0:0:0:0:
249,192,61509,1,0,0:0:0:0:
466,271,61679,2,0,B|480:299|480:299|474:366,1,88.000002685547,8|0,0:0|0:0,0:0:0:0:
262,217,62020,2,0,B|248:189|248:189|254:122,1,88.000002685547,8|0,0:0|0:0,0:0:0:0:
317,14,62361,5,2,0:0:0:0:
357,179,62531,1,0,0:0:0:0:
173,137,62702,1,0,0:0:0:0:
298,0,62872,1,8,0:0:0:0:
261,236,63043,1,2,0:0:0:0:
99,98,63213,2,0,B|90:70|90:70|94:43|107:3,1,88.000002685547
247,241,63554,1,0,0:0:0:0:
61,169,63724,5,2,0:0:0:0:
161,349,63895,1,0,0:0:0:0:
60,182,64065,5,8,0:0:0:0:
160,362,64236,1,0,0:0:0:0:
178,135,64406,5,2,0:0:0:0:
85,309,64577,1,0,0:0:0:0:
168,138,64747,5,8,0:0:0:0:
75,312,64918,1,0,0:0:0:0:
85,113,65088,6,0,B|76:85|76:85|80:58|93:18,1,88.000002685547,2|0,0:0|0:0,0:0:0:0:
224,250,65429,1,0,0:0:0:0:
320,119,65599,1,8,0:0:0:0:
282,106,65685,1,8,0:0:0:0:
243,112,65770,1,8,0:0:0:0:
224,250,65940,1,8,0:0:0:0:
270,263,66026,1,8,0:0:0:0:
318,254,66111,1,8,0:0:0:0:
435,171,66281,1,0,0:0:0:0:
315,21,66452,6,0,B|289:2|255:10|255:10|224:35|219:91|247:116,1,176.000005371094,6|0,0:0|0:0,0:0:0:0:
370,183,66963,1,0,0:0:0:0:
318,336,67134,2,0,L|206:324,1,88.000002685547,8|0,0:0|0:0,0:0:0:0:
140,188,67474,1,0,0:0:0:0:
153,354,67645,1,0,0:0:0:0:
32,197,67815,5,2,0:0:0:0:
52,102,67986,1,8,0:0:0:0:
133,50,68156,1,0,0:0:0:0:
229,61,68327,1,8,0:0:0:0:
201,278,68497,2,0,B|159:283|159:283|115:253,1,88.000002685547,2|0,0:0|0:0,0:0:0:0:
305,130,68838,2,0,P|338:158|349:222,1,88.000002685547,8|0,0:0|0:0,0:0:0:0:
240,340,69179,6,0,B|178:365|178:365|105:350,1,132.00000402832,2|0,0:0|0:0,0:0:0:0:
70,338,69520,1,8,0:0:0:0:
107,192,69690,1,0,0:0:0:0:
292,265,69861,2,0,P|327:310|330:363,1,88.000002685547,8|0,0:0|0:0,0:0:0:0:
176,260,70202,2,0,P|185:200|218:169,1,88.000002685547
257,93,70543,5,0,0:0:0:0:
339,122,70713,1,0,0:0:0:0:
419,85,70884,1,0,0:0:0:0:
451,3,71054,1,0,0:0:0:0:
212,17,71224,5,2,0:0:0:0:
278,229,71395,1,8,0:0:0:0:
60,93,71565,5,8,0:0:0:0:
246,131,71736,1,8,0:0:0:0:
89,293,71906,6,0,P|50:290|8:161,1,176.000005371094,2|0,0:0|0:0,0:0:0:0:
19,374,72418,1,0,0:0:0:0:
77,209,72588,5,8,0:0:0:0:
173,271,72759,1,0,0:0:0:0:
285,251,72929,1,0,0:0:0:0:
344,153,73099,1,8,0:0:0:0:
239,36,73270,5,2,0:0:0:0:
245,61,73440,1,0,0:0:0:0:
432,160,73611,5,0,0:0:0:0:
437,118,73781,1,0,0:0:0:0:
192,128,73952,5,8,0:0:0:0:
209,207,74122,1,0,0:0:0:0:
449,340,74293,5,0,0:0:0:0:
462,242,74463,1,0,0:0:0:0:
174,279,74634,6,0,P|232:286|280:174,1,176.000005371094,2|0,0:0|0:0,0:0:0:0:
360,276,75145,1,8,0:0:0:0:
210,94,75315,2,0,P|169:79|111:99,1,88.000002685547,2|0,0:0|0:0,0:0:0:0:
77,166,75656,1,0,0:0:0:0:
206,3,75827,1,0,0:0:0:0:
232,195,75997,5,10,0:0:0:0:
233,243,76082,1,8,0:0:0:0:
235,291,76168,1,8,0:0:0:0:
346,134,76338,2,0,B|363:110|363:110|355:26,1,88.000002685547,8|0,0:0|0:0,0:0:0:0:
128,227,76679,2,0,B|122:285|122:285|139:309,1,88.000002685547,8|0,0:0|0:0,0:0:0:0:
187,300,76935,1,0,0:0:0:0:
235,291,77020,1,8,0:0:0:0:
137,137,77190,1,0,0:0:0:0:
311,353,77361,5,2,0:0:0:0:
110,354,78043,5,2,0:0:0:0:
323,333,78724,5,2,0:0:0:0:
101,334,79406,6,0,L|98:307,1,22.0000006713867,8|0,0:0|0:0,0:0:0:0:
328,307,80088,5,2,0:0:0:0:
106,308,80770,5,2,0:0:0:0:
341,285,81451,5,2,0:0:0:0:
101,284,82133,6,0,L|98:256,1,22.0000006713867,8|0,0:0|0:0,0:0:0:0:
101,284,82645,2,0,L|98:256,1,22.0000006713867,8|0,0:0|0:0,0:0:0:0:
171,41,82815,5,2,0:0:0:0:
224,348,83497,5,2,0:0:0:0:
193,43,84179,5,2,0:0:0:0:
248,357,84861,6,0,L|245:322,1,22.0000006713867,8|0,0:0|0:0,0:0:0:0:
206,45,85543,5,2,0:0:0:0:
268,363,86225,6,0,L|265:328,1,22.0000006713867,8|0,0:0|0:0,0:0:0:0:
288,372,86906,6,0,L|285:337,1,22.0000006713867,8|0,0:0|0:0,0:0:0:0:
270,272,87077,6,0,P|272:238|284:205,1,44.0000013427735
302,159,87247,2,0,P|313:142|350:121,1,44.0000013427735
405,110,87418,2,0,P|428:110|466:122,1,44.0000013427735
310,267,87588,6,0,P|331:170|429:155,1,210.000008010865,4|0,0:0|0:0,0:0:0:0:
497,199,88270,5,2,0:0:0:0:
377,359,88440,1,0,0:0:0:0:
390,236,88611,1,0,0:0:0:0:
405,110,88781,1,0,0:0:0:0:
269,42,88952,2,0,P|213:44|158:141,1,176.000005371094,8|0,0:0|0:0,0:0:0:0:
264,241,89463,1,0,0:0:0:0:
402,141,89634,5,2,0:0:0:0:
246,129,89804,1,0,0:0:0:0:
86,114,89974,1,0,0:0:0:0:
197,0,90145,1,0,0:0:0:0:
38,51,90315,2,0,P|6:127|62:190,1,176.000005371094,8|0,0:0|0:0,0:0:0:0:
28,50,90997,5,0,0:0:0:0:
138,104,91167,1,0,0:0:0:0:
248,159,91338,1,0,0:0:0:0:
134,14,91509,1,0,0:0:0:0:
52,199,91679,2,0,P|5:162|39:54,1,176.000005371094,8|0,0:0|0:0,0:0:0:0:
122,0,92190,1,0,0:0:0:0:
71,124,92361,5,2,0:0:0:0:
225,154,92531,1,0,0:0:0:0:
384,179,92702,1,8,0:0:0:0:
398,352,92872,1,8,0:0:0:0:
464,173,93043,2,0,P|440:121|316:135,1,176.000005371094,2|0,0:0|0:0,0:0:0:0:
250,64,93554,1,8,0:0:0:0:
410,62,93724,5,2,0:0:0:0:
381,182,93895,1,0,0:0:0:0:
352,301,94065,1,8,0:0:0:0:
268,209,94236,1,0,0:0:0:0:
446,293,94406,2,0,B|454:318|454:318|448:381,1,88.000002685547,8|0,0:0|0:0,0:0:0:0:
254,211,94747,2,0,B|236:188|236:188|230:108,1,88.000002685547
419,31,95088,5,2,0:0:0:0:
261,52,95259,1,0,0:0:0:0:
104,74,95429,1,0,0:0:0:0:
181,245,95599,1,0,0:0:0:0:
49,123,95770,2,0,P|31:63|125:2,1,176.000005371094,8|0,0:0|0:0,0:0:0:0:
193,63,96281,1,8,0:0:0:0:
325,9,96452,5,2,0:0:0:0:
315,131,96622,1,0,0:0:0:0:
305,254,96793,1,0,0:0:0:0:
456,224,96963,1,0,0:0:0:0:
377,74,97134,2,0,P|340:50|284:53,1,88.000002685547,8|0,0:0|0:0,0:0:0:0:
144,130,97474,1,0,0:0:0:0:
128,311,97645,1,0,0:0:0:0:
125,101,97815,5,2,0:0:0:0:
125,101,98156,6,0,P|175:57|244:81,1,132.00000402832
286,129,98497,1,2,0:0:0:0:
338,19,98668,1,0,0:0:0:0:
499,211,98838,6,0,P|449:167|380:191,1,132.00000402832
338,239,99179,1,2,0:0:0:0:
286,129,99350,1,0,0:0:0:0:
125,321,99520,6,0,P|175:277|244:301,1,132.00000402832
286,349,99861,1,2,0:0:0:0:
338,239,100032,1,0,0:0:0:0:
404,354,100202,5,8,0:0:0:0:
404,354,100543,6,0,P|425:319|430:274,1,60.0000022888184,8|8,0:0|0:0,0:0:0:0:
336,22,100884,5,6,0:0:0:0:
285,130,101054,1,0,0:0:0:0:
339,242,101224,1,0,0:0:0:0:
286,348,101395,1,0,0:0:0:0:
404,354,101565,6,0,P|433:345|453:322,1,47.9999985351563,8|0,0:0|0:0,0:0:0:0:
291,238,101906,6,0,P|308:318|422:348,1,191.999994140625,6|0,0:0|0:0,0:0:0:0:
476,237,102418,1,8,0:0:0:0:
347,114,102588,2,0,P|300:108|232:129,1,95.9999970703126,8|0,0:0|0:0,0:0:0:0:
158,222,102929,1,0,0:0:0:0:
174,62,103099,1,0,0:0:0:0:
74,207,103270,5,2,0:0:0:0:
98,337,103440,1,8,0:0:0:0:
239,308,103611,1,8,0:0:0:0:
215,178,103781,1,8,0:0:0:0:
176,374,103952,5,2,0:0:0:0:
373,309,104122,1,8,0:0:0:0:
240,127,104293,5,8,0:0:0:0:
303,372,104463,1,8,0:0:0:0:
311,108,104634,6,0,P|284:64|234:52,1,95.9999970703126,2|0,0:0|0:0,0:0:0:0:
435,148,104974,1,8,0:0:0:0:
332,243,105145,1,8,0:0:0:0:
378,60,105315,2,0,P|404:10|533:24,1,191.999994140625,2|0,0:0|0:0,0:0:0:0:
512,132,105827,1,0,0:0:0:0:
319,209,105997,5,2,0:0:0:0:
311,71,106168,1,0,0:0:0:0:
174,77,106338,1,8,0:0:0:0:
181,214,106509,1,0,0:0:0:0:
371,150,106679,5,0,0:0:0:0:
244,26,106849,1,8,0:0:0:0:
173,220,107020,2,0,P|198:257|256:272,1,95.9999970703126,8|0,0:0|0:0,0:0:0:0:
418,193,107361,6,0,P|323:146|235:218,1,191.999994140625,2|0,0:0|0:0,0:0:0:0:
207,334,107872,1,8,0:0:0:0:
82,164,108043,1,8,0:0:0:0:
36,302,108213,1,0,0:0:0:0:
181,164,108384,2,0,P|225:137|286:143,1,95.9999970703126,8|0,0:0|0:0,0:0:0:0:
464,189,108724,5,2,0:0:0:0:
443,64,108895,1,0,0:0:0:0:
361,230,109065,1,8,0:0:0:0:
512,257,109236,1,8,0:0:0:0:
339,132,109406,1,2,0:0:0:0:
394,324,109577,1,0,0:0:0:0:
236,240,109747,2,0,P|180:231|139:256,1,95.9999970703126,8|0,0:0|0:0,0:0:0:0:
11,357,110088,6,0,B|-8:304|-8:304|18:148,1,191.999994140625,2|0,0:0|0:0,0:0:0:0:
0,34,110599,1,0,0:0:0:0:
158,126,110770,2,0,B|202:136|202:136|253:111,1,95.9999970703126,8|0,0:0|0:0,0:0:0:0:
323,3,111111,1,8,0:0:0:0:
316,178,111281,1,8,0:0:0:0:
425,41,111452,6,0,P|472:59|505:120,1,95.9999970703126,2|0,0:0|0:0,0:0:0:0:
325,193,111793,2,0,P|278:211|245:272,1,95.9999970703126,8|0,0:0|0:0,0:0:0:0:
378,370,112134,1,2,0:0:0:0:
457,243,112304,1,8,0:0:0:0:
451,200,112389,1,8,0:0:0:0:
446,157,112474,1,8,0:0:0:0:
330,279,112645,1,8,0:0:0:0:
180,53,112815,6,0,P|116:27|33:139,1,191.999994140625,2|0,0:0|0:0,0:0:0:0:
110,227,113327,1,0,0:0:0:0:
299,138,113497,2,0,P|299:88|294:22,1,95.9999970703126,8|0,0:0|0:0,0:0:0:0:
167,158,113838,1,8,0:0:0:0:
288,257,114009,1,8,0:0:0:0:
416,57,114179,5,2,0:0:0:0:
464,217,114349,1,0,0:0:0:0:
296,176,114520,1,0,0:0:0:0:
415,45,114690,1,8,0:0:0:0:
366,239,114861,5,2,0:0:0:0:
240,78,115031,1,0,0:0:0:0:
254,240,115202,5,8,0:0:0:0:
284,0,115372,1,8,0:0:0:0:
122,248,115543,6,0,B|87:271|46:257|46:257|-6:210|15:138,1,191.999994140625,2|0,0:0|0:0,0:0:0:0:
112,42,116054,1,0,0:0:0:0:
283,185,116224,2,0,P|288:245|272:286,1,95.9999970703126,8|0,0:0|0:0,0:0:0:0:
124,26,116565,1,0,0:0:0:0:
269,75,116736,1,0,0:0:0:0:
108,214,116906,5,2,0:0:0:0:
192,107,117077,1,0,0:0:0:0:
276,278,117247,2,0,B|235:306|235:306|148:304,1,95.9999970703126,8|0,0:0|0:0,0:0:0:0:
108,214,117588,1,8,0:0:0:0:
292,195,117759,1,8,0:0:0:0:
292,195,117844,1,8,0:0:0:0:
292,195,117929,1,8,0:0:0:0:
278,366,118099,1,8,0:0:0:0:
401,122,118270,6,0,B|436:71|402:-13|402:-13|369:47,1,191.999994140625,6|0,0:0|0:0,0:0:0:0:
392,228,118781,1,0,0:0:0:0:
216,119,118952,2,8,P|188:87|124:81,1,95.9999970703126,2|0,0:0|0:0,0:0:0:0:
34,195,119293,1,0,0:0:0:0:
146,156,119463,1,0,0:0:0:0:
228,290,119634,5,8,0:0:0:0:
132,373,119804,1,2,0:0:0:0:
101,247,119974,1,0,0:0:0:0:
233,281,120145,1,8,0:0:0:0:
58,329,120315,1,0,0:0:0:0:
171,143,120486,1,2,0:0:0:0:
297,336,120656,2,0,P|249:364|194:351,1,95.9999970703126,8|0,0:0|0:0,0:0:0:0:
79,247,120997,6,0,L|73:125,1,95.9999970703126,2|0,0:0|0:0,0:0:0:0:
124,58,121253,1,0,0:0:0:0:
149,100,121339,1,8,0:0:0:0:
143,148,121424,1,8,0:0:0:0:
103,175,121509,1,8,0:0:0:0:
10,373,121679,2,0,B|-3:326|-3:326|12:281,1,95.9999970703126,2|0,0:0|0:0,0:0:0:0:
199,279,122020,1,0,0:0:0:0:
88,332,122190,1,0,0:0:0:0:
264,220,122361,6,0,B|290:263|290:263|281:321,1,95.9999970703126,2|0,0:0|0:0,0:0:0:0:
88,332,122702,1,0,0:0:0:0:
189,157,122872,1,0,0:0:0:0:
325,370,123043,2,0,P|270:383|231:362,1,95.9999970703126,8|0,0:0|0:0,0:0:0:0:
181,303,123298,1,8,0:0:0:0:
173,249,123384,1,8,0:0:0:0:
273,130,123554,1,0,0:0:0:0:
398,361,123724,6,0,P|318:368|266:288,1,160,6|0,0:0|0:0,0:0:0:0:
306,126,124236,1,0,0:0:0:0:
352,285,124406,1,0,0:0:0:0:
472,212,124577,1,8,0:0:0:0:
507,346,124747,1,0,0:0:0:0:
471,192,124918,1,8,0:0:0:0:
335,361,125088,6,0,B|296:370|296:370|252:344,1,80,2|0,0:0|0:0,0:0:0:0:
210,206,125429,1,8,0:0:0:0:
210,206,125514,1,8,0:0:0:0:
210,206,125599,1,8,0:0:0:0:
180,375,125770,1,2,0:0:0:0:
210,206,125940,1,0,0:0:0:0:
103,333,126111,2,0,P|51:326|-6:378,1,120,8|0,0:0|0:0,0:0:0:0:
0,364,126452,6,0,B|13:329|13:329|4:260,1,80,6|0,0:0|0:0,0:0:0:0:
135,213,126793,1,8,0:0:0:0:
180,375,126963,1,8,0:0:0:0:
282,212,127134,6,0,B|295:177|295:177|286:108,1,80,2|0,0:0|0:0,0:0:0:0:
416,3,127475,1,8,0:0:0:0:
442,220,127645,1,8,0:0:0:0:
192,162,127815,5,2,0:0:0:0:
288,1,127986,1,0,0:0:0:0:
466,103,128156,1,8,0:0:0:0:
370,264,128327,1,0,0:0:0:0:
176,41,128497,5,2,0:0:0:0:
392,129,128668,1,0,0:0:0:0:
152,205,128838,1,8,0:0:0:0:
380,143,129009,1,0,0:0:0:0:
94,104,129179,6,0,B|84:83|84:83|83:15,1,80,6|0,0:0|0:0,0:0:0:0:
167,286,129520,1,8,0:0:0:0:
182,88,129690,1,8,0:0:0:0:
8,293,129861,2,0,P|56:322|106:312,1,80,2|0,0:0|0:0,0:0:0:0:
21,105,130202,1,8,0:0:0:0:
167,286,130372,1,8,0:0:0:0:
254,89,130543,5,2,0:0:0:0:
21,105,130713,1,8,0:0:0:0:
134,44,130884,1,0,0:0:0:0:
1,231,131054,1,0,0:0:0:0:
152,182,131224,5,2,0:0:0:0:
122,322,131395,1,0,0:0:0:0:
264,206,131565,5,8,0:0:0:0:
267,312,131736,1,0,0:0:0:0:
228,120,131906,6,0,P|289:115|357:193,1,160,6|0,0:0|0:0,0:0:0:0:
346,298,132418,1,2,0:0:0:0:
457,166,132588,1,8,0:0:0:0:
433,133,132673,1,0,0:0:0:0:
457,100,132759,1,0,0:0:0:0:
436,65,132844,1,0,0:0:0:0:
463,36,132929,6,0,B|489:29|489:29|526:41,1,51.999997619629,8|0,0:0|0:0,0:0:0:0:
508,167,133099,2,0,B|484:174|484:174|458:167,1,51.999997619629,8|0,0:0|0:0,0:0:0:0:
332,76,133270,5,2,0:0:0:0:
316,229,133440,1,0,0:0:0:0:
149,65,133611,1,0,0:0:0:0:
177,191,133781,1,0,0:0:0:0:
35,130,133952,1,0,0:0:0:0:
4,184,134037,1,0,0:0:0:0:
40,234,134122,1,0,0:0:0:0:
14,290,134207,1,0,0:0:0:0:
59,333,134293,6,0,B|84:340|84:340|111:328,1,51.999997619629,8|0,0:0|0:0,0:0:0:0:
84,127,134463,2,0,B|58:120|58:120|34:129,1,51.999997619629,8|0,0:0|0:0,0:0:0:0:
40,234,134634,5,2,0:0:0:0:
183,168,137361,5,0,0:0:0:0:
285,259,137702,1,0,0:0:0:0:
297,193,137872,1,0,0:0:0:0:
310,127,138043,1,0,0:0:0:0:
183,168,138384,1,0,0:0:0:0:
285,259,138724,5,0,0:0:0:0:
310,127,139065,1,0,0:0:0:0:
183,168,139406,1,0,0:0:0:0:
298,194,139747,1,0,0:0:0:0:
138,126,145543,6,0,L|128:78,2,44.0000013427735,2|0|0,0:0|0:0|0:0,0:0:0:0:
209,217,145884,1,0,0:0:0:0:
270,128,146054,1,0,0:0:0:0:
281,244,146224,2,0,P|242:289|202:295,1,88.000002685547,8|0,0:0|0:0,0:0:0:0:
106,242,146565,2,0,L|102:198,1,44.0000013427735,8|0,0:0|0:0,0:0:0:0:
122,325,146736,2,0,L|116:368,1,44.0000013427735,8|0,0:0|0:0,0:0:0:0:
216,295,146906,6,0,P|281:296|308:315,1,88.000002685547
333,335,147162,1,0,0:0:0:0:
341,351,147247,1,0,0:0:0:0:
295,184,147418,1,0,0:0:0:0:
394,262,147588,2,0,P|426:234|531:253,1,132.00000402832,8|0,0:0|0:0,0:0:0:0:
511,236,147929,2,0,B|518:219|518:219|510:145,1,88.000002685547
500,90,148185,1,8,0:0:0:0:
446,64,148270,6,0,P|394:44|348:60,1,88.000002685547,2|0,0:0|0:0,0:0:0:0:
329,78,148526,1,0,0:0:0:0:
319,93,148611,1,0,0:0:0:0:
225,17,148781,1,0,0:0:0:0:
207,134,148952,2,0,L|218:187,1,44.0000013427735,0|8,0:0|0:0,0:0:0:0:
239,264,149122,1,0,0:0:0:0:
116,199,149293,2,0,L|111:248,1,44.0000013427735,8|0,0:0|0:0,0:0:0:0:
96,327,149463,1,0,0:0:0:0:
33,162,149634,6,0,B|17:141|17:141|7:66,1,88.000002685547,2|0,0:0|0:0,0:0:0:0:
4,36,149889,1,0,0:0:0:0:
0,19,149974,1,0,0:0:0:0:
101,114,150145,1,0,0:0:0:0:
137,0,150315,1,8,0:0:0:0:
207,72,150486,1,0,0:0:0:0:
300,5,150656,1,8,0:0:0:0:
327,33,150741,1,8,0:0:0:0:
341,70,150827,1,8,0:0:0:0:
339,109,150912,1,8,0:0:0:0:
318,142,150997,6,0,L|248:158,2,44.0000013427735,2|0|0,0:0|0:0|0:0,0:0:0:0:
387,248,151338,1,0,0:0:0:0:
259,281,151509,1,0,0:0:0:0:
458,306,151679,2,0,P|476:262|456:188,1,88.000002685547,8|0,0:0|0:0,0:0:0:0:
403,162,152020,2,0,P|369:151|356:139,1,44.0000013427735,8|0,0:0|0:0,0:0:0:0:
490,138,152190,2,0,P|504:111|526:90,1,44.0000013427735,8|0,0:0|0:0,0:0:0:0:
474,223,152361,6,0,P|468:263|489:320,1,88.000002685547
506,358,152616,1,0,0:0:0:0:
511,375,152702,1,0,0:0:0:0:
365,269,152872,1,0,0:0:0:0:
372,372,153043,1,8,0:0:0:0:
271,322,153213,1,0,0:0:0:0:
249,205,153384,1,8,0:0:0:0:
272,173,153469,1,8,0:0:0:0:
310,162,153554,1,8,0:0:0:0:
349,167,153639,1,8,0:0:0:0:
393,192,153724,6,0,P|374:217|352:231,1,44.0000013427735,2|0,0:0|0:0,0:0:0:0:
201,272,153895,1,0,0:0:0:0:
179,238,153980,1,0,0:0:0:0:
175,198,154065,2,0,P|186:164|196:148,1,44.0000013427735,8|0,0:0|0:0,0:0:0:0:
243,100,154236,2,0,P|265:88|300:83,1,44.0000013427735,8|0,0:0|0:0,0:0:0:0:
362,75,154406,2,0,P|388:80|411:92,1,44.0000013427735,8|0,0:0|0:0,0:0:0:0:
432,188,154577,1,8,0:0:0:0:
425,163,154662,1,8,0:0:0:0:
417,136,154747,6,0,P|349:105|200:209,1,263.99999194336
291,197,155770,6,0,P|309:197|347:181,1,56,4|0,0:0|0:0,0:0:0:0:
394,111,156452,6,0,P|294:98|208:168,1,207.999990478516,6|0,0:0|0:0,0:0:0:0:
199,270,156963,1,0,0:0:0:0:
40,164,157134,2,0,P|26:113|31:55,1,103.999995239258,10|0,0:0|0:0,0:0:0:0:
118,228,157474,1,8,0:0:0:0:
91,6,157645,1,0,0:0:0:0:
286,162,157815,6,0,P|345:180|409:164,1,103.999995239258,2|0,0:0|0:0,0:0:0:0:
475,56,158156,1,8,0:0:0:0:
500,237,158327,1,0,0:0:0:0:
506,218,158412,1,0,0:0:0:0:
512,199,158497,1,10,0:0:0:0:
380,284,158668,1,0,0:0:0:0:
369,99,158838,1,8,0:0:0:0:
357,73,158923,1,8,0:0:0:0:
287,231,159094,1,8,0:0:0:0:
268,270,159179,6,0,P|219:299|171:296,1,103.999995239258,6|0,0:0|0:0,0:0:0:0:
111,248,159435,1,0,0:0:0:0:
95,210,159520,1,8,0:0:0:0:
21,350,159690,1,0,0:0:0:0:
14,146,159861,2,0,B|60:124|60:124|116:137,1,103.999995239258,2|0,0:0|0:0,0:0:0:0:
301,187,160202,2,0,L|295:238,1,51.999997619629,8|0,0:0|0:0,0:0:0:0:
223,81,160372,2,0,L|230:29,1,51.999997619629,8|0,0:0|0:0,0:0:0:0:
394,74,160543,6,0,B|445:66|445:66|499:84,1,103.999995239258,2|0,0:0|0:0,0:0:0:0:
295,238,160884,2,0,L|301:185,1,51.999997619629,8|0,0:0|0:0,0:0:0:0:
224,82,161054,1,8,0:0:0:0:
228,58,161139,1,0,0:0:0:0:
230,33,161224,1,2,0:0:0:0:
100,143,161395,1,0,0:0:0:0:
175,253,161565,1,8,0:0:0:0:
198,290,161651,1,8,0:0:0:0:
237,309,161736,1,8,0:0:0:0:
280,311,161821,1,8,0:0:0:0:
350,261,161906,6,0,L|335:385,1,103.999995239258,6|0,0:0|0:0,0:0:0:0:
433,188,162247,1,0,0:0:0:0:
465,306,162418,1,8,0:0:0:0:
498,115,162588,2,0,P|426:89|355:132,1,155.999992858887,2|0,0:0|0:0,0:0:0:0:
272,203,162929,2,0,B|249:157|249:157|256:70,1,103.999995239258,8|0,0:0|0:0,0:0:0:0:
108,238,163270,5,2,0:0:0:0:
180,35,163440,1,2,0:0:0:0:
192,224,163611,1,0,0:0:0:0:
0,139,163781,1,8,0:0:0:0:
22,103,163866,1,8,0:0:0:0:
59,82,163952,2,0,L|189:69,1,103.999995239258,10|0,0:0|0:0,0:0:0:0:
230,208,164293,1,8,0:0:0:0:
192,224,164378,2,0,L|103:217,1,51.999997619629,8|0,0:0|0:0,0:0:0:0:
66,306,164548,1,8,0:0:0:0:
100,332,164634,6,0,P|156:350|221:319,1,103.999995239258,6|0,0:0|0:0,0:0:0:0:
278,278,164889,1,0,0:0:0:0:
301,244,164974,2,0,P|308:218|306:184,1,51.999997619629,8|0,0:0|0:0,0:0:0:0:
219,120,165145,2,0,P|212:94|214:60,1,51.999997619629,8|0,0:0|0:0,0:0:0:0:
326,31,165315,6,0,B|373:13|373:13|426:22,1,103.999995239258,2|0,0:0|0:0,0:0:0:0:
393,105,165571,1,0,0:0:0:0:
354,117,165656,2,0,B|326:123|326:123|303:116,1,51.999997619629,8|0,0:0|0:0,0:0:0:0:
145,30,165827,2,0,B|120:21|120:21|94:25,1,51.999997619629
0,222,165997,6,0,P|62:246|144:200,1,155.999992858887,2|0,0:0|0:0,0:0:0:0:
200,142,166338,2,0,P|207:119|205:68,1,51.999997619629,8|0,0:0|0:0,0:0:0:0:
213,260,166509,1,0,0:0:0:0:
213,260,166594,1,0,0:0:0:0:
213,260,166679,1,2,0:0:0:0:
65,148,166849,1,0,0:0:0:0:
48,276,167020,1,8,0:0:0:0:
76,315,167105,1,8,0:0:0:0:
123,327,167190,1,8,0:0:0:0:
169,311,167276,1,8,0:0:0:0:
207,242,167361,6,0,P|246:323|194:386,1,160,6|0,0:0|0:0,0:0:0:0:
196,158,167872,1,8,0:0:0:0:
293,320,168043,2,0,B|266:361|266:361|203:378,1,103.999995239258,2|0,0:0|0:0,0:0:0:0:
196,158,168384,1,8,0:0:0:0:
350,258,168554,1,8,0:0:0:0:
416,23,168724,6,0,P|354:10|300:30,1,103.999995239258,2|0,0:0|0:0,0:0:0:0:
155,93,169065,1,8,0:0:0:0:
296,203,169236,1,8,0:0:0:0:
144,86,169406,1,2,0:0:0:0:
285,196,169577,1,0,0:0:0:0:
74,181,169747,1,8,0:0:0:0:
63,201,169832,1,8,0:0:0:0:
223,98,170003,1,8,0:0:0:0:
260,122,170088,6,0,P|275:77|250:17,1,103.999995239258,6|0,0:0|0:0,0:0:0:0:
182,0,170344,1,0,0:0:0:0:
140,0,170429,1,8,0:0:0:0:
153,174,170599,1,0,0:0:0:0:
358,87,170770,2,0,P|403:81|468:110,1,103.999995239258,2|0,0:0|0:0,0:0:0:0:
470,249,171111,2,0,P|475:273|473:313,1,51.999997619629,8|0,0:0|0:0,0:0:0:0:
332,379,171281,2,0,P|338:352|341:312,1,51.999997619629,8|0,0:0|0:0,0:0:0:0:
237,248,171452,6,0,P|183:233|133:244,1,103.999995239258,2|0,0:0|0:0,0:0:0:0:
332,379,171793,2,0,P|338:352|342:309,1,51.999997619629,8|0,0:0|0:0,0:0:0:0:
475,300,171963,1,0,0:0:0:0:
475,275,172048,1,0,0:0:0:0:
470,250,172134,1,2,0:0:0:0:
298,204,172304,1,0,0:0:0:0:
457,121,172474,1,8,0:0:0:0:
437,84,172560,1,8,0:0:0:0:
399,69,172645,1,8,0:0:0:0:
358,73,172730,1,8,0:0:0:0:
290,125,172815,6,0,L|300:21,1,103.999995239258,6|0,0:0|0:0,0:0:0:0:
181,219,173156,1,8,0:0:0:0:
155,99,173327,1,8,0:0:0:0:
124,280,173497,2,0,P|156:300|222:290,1,103.999995239258,2|0,0:0|0:0,0:0:0:0:
341,256,173838,1,0,0:0:0:0:
314,112,174009,1,8,0:0:0:0:
295,123,174094,1,8,0:0:0:0:
277,136,174179,6,0,L|289:33,1,103.999995239258,2|0,0:0|0:0,0:0:0:0:
212,233,174520,1,8,0:0:0:0:
155,100,174691,1,8,0:0:0:0:
157,296,174861,2,0,P|193:315|255:305,1,103.999995239258,2|0,0:0|0:0,0:0:0:0:
391,255,175202,1,8,0:0:0:0:
387,297,175287,2,0,L|380:360,1,51.999997619629,8|0,0:0|0:0,0:0:0:0:
491,233,175457,1,8,0:0:0:0:
480,192,175543,6,0,P|453:159|371:153,1,103.999995239258,6|0,0:0|0:0,0:0:0:0:
318,180,175798,1,0,0:0:0:0:
292,204,175884,2,0,L|298:269,1,51.999997619629,8|0,0:0|0:0,0:0:0:0:
240,105,176054,2,0,L|244:50,1,51.999997619629,8|0,0:0|0:0,0:0:0:0:
9,193,176224,6,0,P|39:159|118:152,1,103.999995239258,2|0,0:0|0:0,0:0:0:0:
169,178,176479,1,0,0:0:0:0:
198,201,176565,2,0,L|193:270,1,51.999997619629,8|0,0:0|0:0,0:0:0:0:
251,104,176735,2,0,L|244:50,1,51.999997619629
385,205,176906,6,0,L|376:328,1,103.999995239258,2|0,0:0|0:0,0:0:0:0:
103,346,177247,6,0,L|111:216,1,120.000004577637,2|0,0:0|0:0,0:0:0:0:
411,98,177588,6,0,L|402:236,1,136.000002593994,2|0,0:0|0:0,0:0:0:0:
86,216,177929,6,8,L|91:127,1,80,10|8,0:0|0:0,0:0:0:0:
113,29,178099,1,8,0:0:0:0:
201,18,178185,1,8,0:0:0:0:
250,94,178270,6,0,B|246:137|246:137|261:167|261:167|266:193|257:218,1,119.999996337891,6|0,0:0|0:0,0:0:0:0:
190,252,178781,1,0,0:0:0:0:
328,112,178952,2,0,P|381:109|432:154,1,103.999995239258,8|0,0:0|0:0,0:0:0:0:
420,271,179293,1,8,0:0:0:0:
343,17,179463,1,8,0:0:0:0:
181,187,179634,6,0,P|111:176|80:140,1,103.999995239258,2|0,0:0|0:0,0:0:0:0:
79,326,179974,1,0,0:0:0:0:
244,133,180145,1,0,0:0:0:0:
246,375,180315,1,8,0:0:0:0:
254,159,180486,1,0,0:0:0:0:
391,280,180656,5,8,0:0:0:0:
408,250,180741,1,8,0:0:0:0:
350,105,180912,1,8,0:0:0:0:
318,64,180997,6,0,P|275:44|208:63,1,103.999995239258,2|0,0:0|0:0,0:0:0:0:
146,50,181253,1,8,0:0:0:0:
136,35,181338,1,0,0:0:0:0:
69,157,181509,1,0,0:0:0:0:
63,174,181594,1,0,0:0:0:0:
84,210,181679,2,0,P|132:246|199:235,1,103.999995239258,2|0,0:0|0:0,0:0:0:0:
83,328,182020,1,8,0:0:0:0:
256,185,182190,1,8,0:0:0:0:
32,263,182361,6,0,P|-14:188|17:102,1,155.999992858887,2|0,0:0|0:0,0:0:0:0:
46,72,182702,1,8,0:0:0:0:
222,172,182872,1,8,0:0:0:0:
91,175,183043,1,2,0:0:0:0:
255,57,183213,1,0,0:0:0:0:
311,208,183384,1,8,0:0:0:0:
311,208,183469,1,8,0:0:0:0:
311,208,183554,1,8,0:0:0:0:
185,11,183724,6,0,P|133:41|116:105,1,103.999995239258,2|0,0:0|0:0,0:0:0:0:
183,257,184065,1,8,0:0:0:0:
200,94,184236,1,0,0:0:0:0:
249,322,184406,1,2,0:0:0:0:
60,131,184577,1,0,0:0:0:0:
35,351,184747,2,0,P|81:365|136:330,1,103.999995239258,8|0,0:0|0:0,0:0:0:0:
344,167,185088,6,0,L|235:157,1,103.999995239258,2|0,0:0|0:0,0:0:0:0:
493,319,185429,1,8,0:0:0:0:
346,134,185599,1,0,0:0:0:0:
390,380,185770,1,2,0:0:0:0:
460,155,185940,1,0,0:0:0:0:
317,285,186111,1,8,0:0:0:0:
286,296,186196,1,8,0:0:0:0:
349,95,186366,1,8,0:0:0:0:
390,113,186452,6,0,B|404:62|404:62|386:1,1,103.999995239258,2|0,0:0|0:0,0:0:0:0:
302,2,186707,1,8,0:0:0:0:
287,14,186793,1,8,0:0:0:0:
146,73,186963,1,0,0:0:0:0:
152,90,187048,1,0,0:0:0:0:
163,124,187134,2,0,B|117:104|117:104|53:118,1,103.999995239258,2|0,0:0|0:0,0:0:0:0:
13,183,187389,1,0,0:0:0:0:
13,239,187474,2,0,L|17:300,1,51.999997619629,8|0,0:0|0:0,0:0:0:0:
135,329,187645,2,0,L|129:380,1,51.999997619629,8|0,0:0|0:0,0:0:0:0:
258,281,187815,6,0,L|268:177,1,103.999995239258,2|0,0:0|0:0,0:0:0:0:
362,370,188156,1,8,0:0:0:0:
401,142,188327,1,8,0:0:0:0:
401,142,188412,1,8,0:0:0:0:
401,142,188497,1,8,0:0:0:0:
177,225,188668,1,0,0:0:0:0:
289,72,188838,5,8,0:0:0:0:
260,22,188923,1,8,0:0:0:0:
206,0,189009,1,8,0:0:0:0:
149,8,189094,1,8,0:0:0:0:
142,98,189179,6,0,B|194:107|194:107|239:87|239:87|287:99|287:99|347:78,1,207.999990478516,2|0,0:0|0:0,0:0:0:0:
490,162,189690,1,8,0:0:0:0:
284,276,189861,1,10,0:0:0:0:
468,265,190031,1,0,0:0:0:0:
300,156,190202,1,0,0:0:0:0:
430,381,190372,1,0,0:0:0:0:
181,261,190543,6,0,P|187:205|236:161,1,103.999995239258,2|0,0:0|0:0,0:0:0:0:
390,245,190884,1,0,0:0:0:0:
254,349,191054,1,8,0:0:0:0:
254,349,191139,1,8,0:0:0:0:
254,349,191224,2,0,L|134:337,1,103.999995239258,2|0,0:0|0:0,0:0:0:0:
374,143,191565,1,8,0:0:0:0:
366,189,191651,1,8,0:0:0:0:
329,217,191736,1,8,0:0:0:0:
282,218,191821,1,8,0:0:0:0:
217,170,191906,6,0,B|205:218|205:218|227:288,1,103.999995239258,2|0,0:0|0:0,0:0:0:0:
268,346,192162,1,8,0:0:0:0:
249,383,192247,1,8,0:0:0:0:
108,215,192418,1,0,0:0:0:0:
96,175,192503,1,0,0:0:0:0:
152,128,192588,2,0,L|269:117,1,103.999995239258,2|0,0:0|0:0,0:0:0:0:
425,147,192929,1,8,0:0:0:0:
304,246,193099,1,8,0:0:0:0:
499,205,193270,6,0,P|518:153|502:97,1,103.999995239258,2|0,0:0|0:0,0:0:0:0:
362,0,193611,1,8,0:0:0:0:
393,235,193781,1,8,0:0:0:0:
393,235,193866,1,8,0:0:0:0:
393,235,193952,1,8,0:0:0:0:
303,69,194122,1,0,0:0:0:0:
329,317,194293,1,8,0:0:0:0:
307,281,194378,1,0,0:0:0:0:
268,264,194463,1,0,0:0:0:0:
226,267,194548,1,0,0:0:0:0:
185,308,194634,6,0,P|120:320|52:318,1,103.999995239258,2|0,0:0|0:0,0:0:0:0:
215,126,194974,1,8,0:0:0:0:
255,348,195145,1,0,0:0:0:0:
355,159,195315,2,0,P|414:166|463:189,1,103.999995239258,8|0,0:0|0:0,0:0:0:0:
479,301,195656,1,8,0:0:0:0:
501,76,195827,1,8,0:0:0:0:
310,241,195997,6,0,B|258:253|258:253|201:239,1,103.999995239258,2|0,0:0|0:0,0:0:0:0:
97,69,196338,1,0,0:0:0:0:
44,253,196509,1,8,0:0:0:0:
44,253,196594,1,8,0:0:0:0:
44,253,196679,2,0,L|33:364,1,103.999995239258,2|0,0:0|0:0,0:0:0:0:
204,331,197020,2,0,P|252:352|328:292,1,155.999992858887
335,181,197361,5,8,0:0:0:0:
397,223,197446,2,0,B|411:248|411:248|402:338,1,103.999995239258,10|0,0:0|0:0,0:0:0:0:
396,368,197702,1,0,0:0:0:0:
447,128,197872,1,0,0:0:0:0:
245,208,198043,2,0,B|229:187|229:187|238:74,1,103.999995239258,2|0,0:0|0:0,0:0:0:0:
224,90,198298,1,0,0:0:0:0:
168,32,198384,5,8,0:0:0:0:
114,31,198469,1,8,0:0:0:0:
64,65,198554,1,8,0:0:0:0:
50,138,198639,1,8,0:0:0:0:
103,200,198724,6,0,L|86:315,1,103.999995239258,2|0,0:0|0:0,0:0:0:0:
259,379,199065,1,8,0:0:0:0:
224,342,199151,2,0,L|210:235,1,103.999995239258,8|0,0:0|0:0,0:0:0:0:
229,135,199406,2,0,P|275:115|339:132,1,103.999995239258,2|0,0:0|0:0,0:0:0:0:
434,281,199747,1,8,0:0:0:0:
438,218,199832,1,8,0:0:0:0:
442,155,199918,1,8,0:0:0:0:
446,92,200003,1,8,0:0:0:0:
391,20,200088,6,0,P|347:6|309:19,1,71.9999978027344,6|0,0:0|0:0,0:0:0:0:
275,0,200429,6,0,L|264:87,1,55.9999982910157,2|0,0:0|0:0,0:0:0:0:
268,148,200599,2,0,L|260:203,1,55.9999982910157,2|0,0:0|0:0,0:0:0:0:
334,253,200770,2,0,P|287:287|179:240,1,167.999994873047,8|0,0:0|0:0,0:0:0:0:
121,181,201111,2,0,B|112:153|112:153|113:118,1,55.9999982910157,8|0,0:0|0:0,0:0:0:0:
58,310,201281,2,0,B|71:338|71:338|68:374,1,55.9999982910157,8|0,0:0|0:0,0:0:0:0:
189,256,201452,6,0,P|259:251|348:333,1,167.999994873047,2|0,0:0|0:0,0:0:0:0:
393,380,201793,1,8,0:0:0:0:
424,344,201878,1,8,0:0:0:0:
431,287,201963,1,8,0:0:0:0:
403,225,202048,1,8,0:0:0:0:
328,194,202134,2,0,B|299:150|299:150|317:85,1,111.999996582031,2|0,0:0|0:0,0:0:0:0:
492,20,202474,1,8,0:0:0:0:
512,54,202560,2,0,B|520:85|520:85|502:125,1,55.9999982910157,8|0,0:0|0:0,0:0:0:0:
398,145,202730,1,0,0:0:0:0:
391,71,202815,6,0,P|360:27|294:18,1,111.999996582031,2|0,0:0|0:0,0:0:0:0:
238,19,203071,1,8,0:0:0:0:
203,46,203156,1,8,0:0:0:0:
163,177,203327,1,0,0:0:0:0:
308,240,203497,1,8,0:0:0:0:
336,212,203582,2,0,L|406:200,1,55.9999982910157,8|0,0:0|0:0,0:0:0:0:
479,334,203753,1,8,0:0:0:0:
446,356,203838,2,0,L|359:345,1,55.9999982910157,8|0,0:0|0:0,0:0:0:0:
276,378,204009,2,0,L|184:366,1,55.9999982910157,8|0,0:0|0:0,0:0:0:0:
104,273,204179,6,0,P|72:334|103:388,1,111.999996582031,12|0,0:0|0:0,0:0:0:0:
209,294,204435,1,8,0:0:0:0:
218,242,204520,1,8,0:0:0:0:
188,187,204605,1,8,0:0:0:0:
116,155,204690,2,0,L|29:169,1,55.9999982910157,8|0,0:0|0:0,0:0:0:0:
0,8,204861,2,0,L|113:27,1,111.999996582031,10|0,0:0|0:0,0:0:0:0:
318,32,205202,1,8,0:0:0:0:
379,63,205287,2,0,L|256:83,1,111.999996582031,8|0,0:0|0:0,0:0:0:0:
116,155,205543,6,0,P|100:222|169:307,1,180.000006866455,2|0,0:0|0:0,0:0:0:0:
255,218,205884,2,0,P|225:213|196:212,1,60.0000022888184,2|0,0:0|0:0,0:0:0:0:
32,300,206054,2,0,P|61:294|91:292,1,60.0000022888184,2|0,0:0|0:0,0:0:0:0:
291,340,206224,2,0,B|333:369|380:375|425:345|425:345|378:318,1,180.000006866455,8|0,0:0|0:0,0:0:0:0:
320,196,206565,2,0,L|330:130,1,60.0000022888184,8|0,0:0|0:0,0:0:0:0:
465,0,206736,2,0,L|476:73,1,60.0000022888184,8|0,0:0|0:0,0:0:0:0:
411,202,206906,6,0,B|349:224|349:224|290:198,1,128,2|0,0:0|0:0,0:0:0:0:
227,112,207162,1,8,0:0:0:0:
149,125,207247,2,0,P|133:160|134:224,1,64,8|0,0:0|0:0,0:0:0:0:
87,326,207418,2,0,B|119:304|175:303,1,64,8|0,0:0|0:0,0:0:0:0:
290,296,207588,2,0,B|312:340|312:340|290:185,1,192,10|0,0:0|0:0,0:0:0:0:
319,114,207929,1,8,0:0:0:0:
374,99,208014,1,8,0:0:0:0:
438,117,208099,1,8,0:0:0:0:
482,181,208185,1,8,0:0:0:0:
498,275,208270,6,0,L|514:127,1,136.000002593994,2|0,0:0|0:0,0:0:0:0:
319,114,208611,1,8,0:0:0:0:
353,190,208696,2,0,L|333:329,1,136.000002593994,8|0,0:0|0:0,0:0:0:0:
210,267,208952,2,0,P|141:229|75:254,1,136.000002593994,2|0,0:0|0:0,0:0:0:0:
30,313,209207,1,8,0:0:0:0:
0,383,209293,2,0,L|11:304,1,68.0000012969971,8|0,0:0|0:0,0:0:0:0:
41,75,209463,1,0,0:0:0:0:
201,168,209634,6,0,B|266:139|266:139|343:156,1,143.999995605469,2|0,0:0|0:0,0:0:0:0:
469,294,209974,1,8,0:0:0:0:
263,321,210145,1,8,0:0:0:0:
194,303,210230,1,8,0:0:0:0:
160,235,210315,2,0,L|171:156,1,75.9999979705811,2|0,0:0|0:0,0:0:0:0:
398,18,210486,2,0,L|385:94,1,75.9999979705811
140,47,210656,1,8,0:0:0:0:
82,50,210741,1,8,0:0:0:0:
26,89,210827,1,8,0:0:0:0:
0,161,210912,1,8,0:0:0:0:
2,254,210997,6,0,L|172:234,1,160,2|0,0:0|0:0,0:0:0:0:
264,176,211509,1,8,0:0:0:0:
389,316,211679,2,0,P|336:351|250:309,1,160,8|0,0:0|0:0,0:0:0:0:
264,176,212190,1,8,0:0:0:0:
135,78,212361,6,0,L|40:93,1,80,2|0,0:0|0:0,0:0:0:0:
9,193,212702,1,2,0:0:0:0:
1,203,213043,2,0,P|-13:254|-5:297,1,80,8|0,0:0|0:0,0:0:0:0:
147,349,213384,2,0,P|144:306|127:258,1,80,8|0,0:0|0:0,0:0:0:0:
99,134,213724,5,2,0:0:0:0:
170,37,213895,1,0,0:0:0:0:
288,52,214065,1,0,0:0:0:0:
347,156,214236,1,0,0:0:0:0:
278,253,214406,2,0,P|350:280|427:248,1,160,8|0,0:0|0:0,0:0:0:0:
347,156,214918,1,0,0:0:0:0:
200,216,215088,6,0,L|192:315,1,80,2|0,0:0|0:0,0:0:0:0:
190,336,215344,1,8,0:0:0:0:
190,346,215429,1,8,0:0:0:0:
190,348,215770,2,0,P|131:355|96:338,1,80,8|0,0:0|0:0,0:0:0:0:
26,214,216111,2,0,P|69:205|125:210,1,80,8|0,0:0|0:0,0:0:0:0:
278,256,216452,6,0,L|263:110,1,120,2|0,0:0|0:0,0:0:0:0:
252,95,216793,2,0,P|209:69|158:79,1,80
58,126,217134,1,8,0:0:0:0:
188,160,217304,1,2,0:0:0:0:
200,168,217645,2,0,L|193:229,1,40,8|0,0:0|0:0,0:0:0:0:
182,305,217815,5,2,0:0:0:0:
300,282,217986,1,0,0:0:0:0:
417,260,218156,2,0,L|426:130,1,120
411,111,218497,2,0,P|353:84|319:95,1,80,8|0,0:0|0:0,0:0:0:0:
256,162,218838,1,0,0:0:0:0:
176,41,219009,2,0,L|179:94,1,40
174,202,219179,6,0,P|215:247|320:233,1,160,2|0,0:0|0:0,0:0:0:0:
357,154,219690,1,8,0:0:0:0:
468,227,219861,2,0,L|466:343,1,80,2|0,0:0|0:0,0:0:0:0:
376,339,220202,1,0,0:0:0:0:
358,168,220372,1,8,0:0:0:0:
270,342,220543,6,0,L|168:353,1,80,2|0,0:0|0:0,0:0:0:0:
65,278,220884,1,8,0:0:0:0:
65,278,220981,1,8,0:0:0:0:
65,278,221078,1,8,0:0:0:0:
168,344,221224,2,0,L|247:335,1,80,2|0,0:0|0:0,0:0:0:0:
65,278,221565,1,0,0:0:0:0:
176,129,221735,5,0,0:0:0:0:
215,131,221832,1,0,0:0:0:0:
244,157,221929,1,0,0:0:0:0:
249,196,222027,1,0,0:0:0:0:
234,233,222124,1,0,0:0:0:0:
200,255,222222,1,0,0:0:0:0:
160,251,222319,1,0,0:0:0:0:
