osu file format v14

[General]
AudioFilename: audio.mp3
AudioLeadIn: 0
PreviewTime: 101651
Countdown: 0
SampleSet: Soft
StackLeniency: 0.7
Mode: 3
LetterboxInBreaks: 0
SpecialStyle: 1
WidescreenStoryboard: 1

[Editor]
Bookmarks: 113327,123628,134538,156356,210901
DistanceSpacing: 0.8
BeatDivisor: 4
GridSize: 8
TimelineZoom: 2.100001

[Metadata]
Title:AIWAGUMA
TitleUnicode:AIWAGUMA
Artist:illion
ArtistUnicode:illion
Creator:Ellyu
Version:Antalf's HD
Source:
Tags:UBU Yojiro Noda 野田洋次郎 Folk Rock _Yiiiii Pata-Mon Tenshichan Superstar Tofu1222 Antalf handsome muscle
BeatmapID:1324329
BeatmapSetID:533037

[Difficulty]
HPDrainRate:7.5
CircleSize:4
OverallDifficulty:7.5
ApproachRate:5
SliderMultiplier:1.4
SliderTickRate:1

[Events]
//Background and Video events
0,0,"49389130_p0.png",0,0
//Break Periods
//Storyboard Layer 0 (Background)
//Storyboard Layer 1 (Fail)
//Storyboard Layer 2 (Pass)
//Storyboard Layer 3 (Foreground)
//Storyboard Sound Samples
Sample,29122,0,"soft-hitclap4.wav",30
Sample,36793,0,"soft-hitclap11.wav",70
Sample,42247,0,"soft-hitclap11.wav",70
Sample,44974,0,"soft-hitclap11.wav",70
Sample,47702,0,"soft-hitclap11.wav",70
Sample,51111,0,"soft-hitclap11.wav",70
Sample,54861,0,"soft-hitwhistle2.wav",70
Sample,55202,0,"soft-hitclap10.wav",70
Sample,77361,0,"Crash.wav",70
Sample,88611,0,"hihat.wav",20
Sample,91338,0,"soft-hitclap11.wav",70
Sample,91338,0,"hihat.wav",20
Sample,94065,0,"soft-hitclap11.wav",70
Sample,94065,0,"hihat.wav",20
Sample,96793,0,"hihat.wav",20
Sample,101565,0,"soft-hitwhistle4.wav",70
Sample,156793,0,"hihat.wav",20
Sample,215344,0,"LR3_Snare ShotH.wav",30
Sample,217730,0,"LR3_Snare ShotH.wav",50
Sample,220981,0,"LR3_Snare ShotH.wav",50
Sample,221078,0,"LR3_Snare ShotH.wav",50
Sample,221832,0,"LR3_Snare ShotH.wav",50
Sample,221929,0,"LR3_Snare ShotH.wav",50
Sample,222027,0,"LR3_Snare ShotH.wav",50
Sample,222124,0,"LR3_Snare ShotH.wav",50
Sample,222222,0,"LR3_Snare ShotH.wav",50
Sample,222319,0,"LR3_Snare ShotH.wav",50

[TimingPoints]
-366,340.909090909091,4,2,1,20,1,0
101906,-100,4,2,1,20,0,1
123724,-100,4,2,1,20,0,0
178270,-100,4,2,1,20,0,1
210997,-100,4,2,1,20,0,0
220884,389.61038961039,4,2,1,20,1,0
220884,-87.719298245614,4,2,1,20,0,0
221224,340.909090909091,4,2,1,20,1,0
221735,389.61038961039,4,2,1,20,1,0
221735,-87.719298245614,4,2,1,20,0,0

[HitObjects]
448,192,11565,128,0,11906:0:0:0:70:soft-hitfinish4.wav
320,192,11565,1,0,0:0:0:0:
192,192,11906,1,0,0:0:0:70:soft-hitfinish.wav
64,192,11906,128,0,12247:0:0:0:70:soft-hitfinish4.wav
192,192,12247,128,0,12588:0:0:0:0:
320,192,12247,1,0,0:0:0:0:
448,192,12588,128,0,12929:0:0:0:0:
64,192,12929,128,0,13270:0:0:0:0:
320,192,13270,128,0,13611:0:0:0:0:
448,192,13611,128,0,13952:0:0:0:0:
64,192,13952,128,0,14293:0:0:0:0:
320,192,14293,128,0,14634:0:0:0:0:
192,192,14634,128,0,14974:0:0:0:70:soft-hitfinish4.wav
64,192,14634,1,0,0:0:0:0:
448,192,14974,128,0,15315:0:0:0:70:soft-hitfinish4.wav
320,192,14974,1,0,0:0:0:0:
64,192,15315,128,0,15656:0:0:0:0:
192,192,15656,128,0,15997:0:0:0:0:
448,192,15997,128,0,16338:0:0:0:0:
320,192,16338,128,0,16679:0:0:0:0:
64,192,16679,128,0,17020:0:0:0:0:
192,192,17020,128,0,17361:0:0:0:0:
320,192,17361,1,0,0:0:0:70:soft-hitfinish4.wav
448,192,17361,128,0,17702:0:0:0:0:
192,192,17702,1,0,0:0:0:70:soft-hitfinish4.wav
64,192,17702,128,0,18043:0:0:0:0:
320,192,18043,128,0,18384:0:0:0:0:
448,192,18384,128,0,18724:0:0:0:0:
192,192,18724,128,0,19065:0:0:0:0:
64,192,19065,128,0,19406:0:0:0:0:
320,192,19406,128,0,19747:0:0:0:0:
448,192,19747,128,0,20088:0:0:0:0:
64,192,20088,128,0,20429:0:0:0:70:soft-hitfinish4.wav
192,192,20088,1,0,0:0:0:0:
448,192,20429,128,0,20770:0:0:0:70:soft-hitfinish4.wav
320,192,20429,1,0,0:0:0:0:
192,192,20770,128,0,21111:0:0:0:0:
320,192,21111,128,0,21452:0:0:0:0:
64,192,21452,128,0,21793:0:0:0:0:
448,192,21793,128,0,22134:0:0:0:0:
320,192,21963,1,0,0:0:0:40:R_J Hit Pong Drop.wav
192,192,22027,1,0,0:0:0:40:R_J Hit Pong Drop.wav
64,192,22134,128,0,22474:0:0:0:40:R_J Hit Pong Drop.wav
192,192,22304,1,0,0:0:0:40:R_J Hit Pong Drop.wav
320,192,22474,1,0,0:0:0:70:soft-hitfinish4.wav
448,192,22474,128,0,22815:0:0:0:0:
192,192,22645,1,0,0:0:0:0:
64,192,22815,1,0,0:0:0:70:soft-hitwhistle5.wav
192,192,22815,1,0,0:0:0:70:Crash.wav
320,192,22815,128,0,23838:0:0:0:0:
192,192,23327,1,0,0:0:0:30:soft-hitclap4.wav
64,192,23497,1,0,0:0:0:70:soft-hitwhistle5.wav
448,192,23497,1,0,0:0:0:0:
448,192,23838,128,0,24861:0:0:0:0:
192,192,24009,1,0,0:0:0:30:soft-hitclap4.wav
64,192,24179,1,0,0:0:0:70:soft-hitwhistle5.wav
320,192,24179,1,0,0:0:0:0:
192,192,24349,1,0,0:0:0:0:
64,192,24520,1,0,0:0:0:30:soft-hitclap4.wav
320,192,24861,1,0,0:0:0:70:soft-hitwhistle5.wav
192,192,24861,128,0,25543:0:0:0:0:
64,192,25031,1,0,0:0:0:0:
320,192,25202,1,0,0:0:0:30:soft-hitclap4.wav
448,192,25543,1,0,0:0:0:70:soft-hitwhistle5.wav
320,192,25543,128,0,26565:0:0:0:0:
64,192,25713,1,0,0:0:0:0:
448,192,25884,1,0,0:0:0:0:
192,192,26054,1,0,0:0:0:30:soft-hitclap4.wav
64,192,26224,1,0,0:0:0:70:soft-hitwhistle5.wav
448,192,26224,1,0,0:0:0:0:
192,192,26395,1,0,0:0:0:0:
448,192,26565,1,0,0:0:0:30:soft-hitclap4.wav
64,192,26565,128,0,27588:0:0:0:0:
192,192,26736,1,0,0:0:0:30:soft-hitclap4.wav
320,192,26906,1,0,0:0:0:70:soft-hitwhistle5.wav
448,192,26906,1,0,0:0:0:0:
192,192,27077,1,0,0:0:0:0:
448,192,27247,1,0,0:0:0:30:soft-hitclap4.wav
320,192,27418,1,0,0:0:0:0:
448,192,27588,128,0,27673:0:0:0:70:soft-hitwhistle5.wav
192,192,27588,1,0,0:0:0:0:
320,192,27673,128,0,27759:0:0:0:0:
192,192,27759,128,0,27929:0:0:0:0:
320,192,27929,128,0,28099:0:0:0:30:soft-hitclap4.wav
448,192,27929,1,0,0:0:0:0:
64,192,28099,128,0,28270:0:0:0:0:
448,192,28270,128,0,32361:0:0:0:70:soft-hitwhistle5.wav
192,192,28270,1,0,0:0:0:0:
320,192,28440,1,0,0:0:0:0:
64,192,28611,1,0,0:0:0:30:soft-hitclap4.wav
192,192,28781,1,0,0:0:0:30:soft-hitclap4.wav
64,192,28952,1,0,0:0:0:70:soft-hitwhistle5.wav
192,192,28952,1,0,0:0:0:0:
320,192,28952,1,0,0:0:0:0:
192,192,29463,1,0,0:0:0:30:soft-hitclap4.wav
64,192,29634,1,0,0:0:0:70:soft-hitwhistle5.wav
320,192,29634,1,0,0:0:0:0:
192,192,29804,1,0,0:0:0:0:
320,192,29974,1,0,0:0:0:30:soft-hitclap4.wav
64,192,30145,1,0,0:0:0:0:
320,192,30315,1,0,0:0:0:70:soft-hitwhistle5.wav
192,192,30315,1,0,0:0:0:0:
64,192,30486,1,0,0:0:0:0:
192,192,30656,1,0,0:0:0:30:soft-hitclap4.wav
64,192,30997,1,0,0:0:0:70:soft-hitwhistle5.wav
320,192,30997,1,0,0:0:0:0:
320,192,31338,1,0,0:0:0:0:
192,192,31509,1,0,0:0:0:30:soft-hitclap4.wav
320,192,31679,1,0,0:0:0:70:soft-hitwhistle5.wav
192,192,31679,1,0,0:0:0:0:
64,192,31679,1,0,0:0:0:0:
64,192,32020,1,0,0:0:0:30:soft-hitclap4.wav
320,192,32190,1,0,0:0:0:0:
64,192,32361,1,0,0:0:0:70:soft-hitwhistle5.wav
192,192,32361,1,0,0:0:0:0:
320,192,32531,1,0,0:0:0:0:
64,192,32702,1,0,0:0:0:30:soft-hitclap4.wav
448,192,32872,1,0,0:0:0:0:
320,192,33043,1,0,0:0:0:70:soft-hitwhistle5.wav
192,192,33043,1,0,0:0:0:0:
64,192,33213,1,0,0:0:0:0:
448,192,33384,1,0,0:0:0:70:soft-hitclap5.wav
320,192,33384,128,0,33724:0:0:0:0:
192,192,33554,1,0,0:0:0:0:
64,192,33724,1,0,0:0:0:70:soft-hitwhistle5.wav
448,192,33724,1,0,0:0:0:0:
192,192,33724,1,0,0:0:0:0:
320,192,33895,1,0,0:0:0:0:
192,192,34065,1,0,0:0:0:70:soft-hitclap11.wav
64,192,34236,1,0,0:0:0:0:
320,192,34406,1,0,0:0:0:70:soft-hitwhistle5.wav
448,192,34406,1,0,0:0:0:0:
192,192,34406,1,0,0:0:0:0:
64,192,34747,1,0,0:0:0:70:soft-hitclap11.wav
192,192,34918,1,0,0:0:0:0:
448,192,35088,1,0,0:0:0:70:soft-hitwhistle5.wav
320,192,35088,1,0,0:0:0:0:
64,192,35088,1,0,0:0:0:0:
192,192,35259,1,0,0:0:0:0:
320,192,35429,1,0,0:0:0:70:soft-hitclap11.wav
64,192,35770,1,0,0:0:0:70:soft-hitwhistle5.wav
448,192,35770,1,0,0:0:0:0:
192,192,35770,1,0,0:0:0:0:
320,192,36111,1,0,0:0:0:70:soft-hitclap11.wav
192,192,36111,1,0,0:0:0:0:
448,192,36452,1,0,0:0:0:70:soft-hitwhistle5.wav
320,192,36452,1,0,0:0:0:0:
192,192,36452,1,0,0:0:0:0:
320,192,36963,1,0,0:0:0:0:
64,192,36963,1,0,0:0:0:0:
448,192,37134,1,0,0:0:0:70:soft-hitwhistle5.wav
64,192,37134,1,0,0:0:0:0:
192,192,37134,1,0,0:0:0:0:
320,192,37474,1,0,0:0:0:70:soft-hitclap11.wav
448,192,37474,1,0,0:0:0:0:
64,192,37815,1,0,0:0:0:70:soft-hitwhistle5.wav
192,192,37815,1,0,0:0:0:0:
320,192,37815,1,0,0:0:0:0:
64,192,38156,1,0,0:0:0:70:soft-hitclap11.wav
448,192,38156,1,0,0:0:0:0:
320,192,38497,1,0,0:0:0:70:soft-hitwhistle5.wav
64,192,38497,1,0,0:0:0:0:
448,192,38497,1,0,0:0:0:0:
192,192,38838,1,0,0:0:0:70:soft-hitclap11.wav
320,192,38838,1,0,0:0:0:0:
64,192,39179,1,0,0:0:0:70:soft-hitwhistle5.wav
192,192,39179,1,0,0:0:0:0:
320,192,39179,1,0,0:0:0:0:
448,192,39520,1,0,0:0:0:70:soft-hitclap11.wav
320,192,39520,1,0,0:0:0:0:
192,192,39690,1,0,0:0:0:0:
64,192,39861,1,0,0:0:0:70:soft-hitwhistle5.wav
320,192,39861,1,0,0:0:0:0:
448,192,39861,1,0,0:0:0:0:
192,192,40202,1,0,0:0:0:70:soft-hitclap11.wav
320,192,40202,1,0,0:0:0:0:
448,192,40372,1,0,0:0:0:0:
64,192,40543,1,0,0:0:0:70:soft-hitwhistle5.wav
192,192,40543,1,0,0:0:0:0:
320,192,40543,1,0,0:0:0:0:
448,192,40884,1,0,0:0:0:70:soft-hitclap11.wav
192,192,40884,1,0,0:0:0:0:
320,192,41224,1,0,0:0:0:70:soft-hitwhistle5.wav
64,192,41224,1,0,0:0:0:0:
448,192,41224,1,0,0:0:0:0:
192,192,41395,1,0,0:0:0:0:
448,192,41565,128,0,41906:0:0:0:70:soft-hitclap11.wav
320,192,41565,1,0,0:0:0:0:
64,192,41906,1,0,0:0:0:70:soft-hitwhistle5.wav
192,192,41906,1,0,0:0:0:0:
320,192,41906,1,0,0:0:0:0:
320,192,42418,1,0,0:0:0:0:
448,192,42418,1,0,0:0:0:0:
64,192,42588,1,0,0:0:0:70:soft-hitwhistle5.wav
320,192,42588,1,0,0:0:0:0:
448,192,42588,1,0,0:0:0:0:
448,192,42929,1,0,0:0:0:70:soft-hitclap11.wav
64,192,42929,1,0,0:0:0:0:
192,192,43099,1,0,0:0:0:0:
320,192,43099,1,0,0:0:0:0:
320,192,43270,1,0,0:0:0:70:soft-hitwhistle5.wav
448,192,43270,1,0,0:0:0:0:
64,192,43270,1,0,0:0:0:0:
192,192,43440,1,0,0:0:0:0:
320,192,43440,1,0,0:0:0:0:
64,192,43611,1,0,0:0:0:70:soft-hitclap11.wav
192,192,43611,1,0,0:0:0:0:
320,192,43781,1,0,0:0:0:0:
448,192,43952,1,0,0:0:0:70:soft-hitwhistle5.wav
64,192,43952,1,0,0:0:0:0:
192,192,43952,1,0,0:0:0:0:
320,192,44122,1,0,0:0:0:0:
448,192,44293,1,0,0:0:0:70:soft-hitclap11.wav
192,192,44293,1,0,0:0:0:0:
320,192,44463,1,0,0:0:0:0:
448,192,44634,1,0,0:0:0:70:soft-hitwhistle5.wav
192,192,44634,1,0,0:0:0:70:Crash.wav
64,192,44634,1,0,0:0:0:0:
192,192,45145,1,0,0:0:0:0:
64,192,45315,1,0,0:0:0:70:soft-hitwhistle5.wav
448,192,45315,1,0,0:0:0:0:
320,192,45315,1,0,0:0:0:0:
192,192,45656,1,0,0:0:0:70:soft-hitclap11.wav
448,192,45656,1,0,0:0:0:0:
320,192,45827,1,0,0:0:0:0:
448,192,45997,1,0,0:0:0:70:soft-hitwhistle5.wav
64,192,45997,1,0,0:0:0:0:
192,192,45997,1,0,0:0:0:0:
320,192,46338,1,0,0:0:0:70:soft-hitclap11.wav
192,192,46338,1,0,0:0:0:0:
448,192,46679,1,0,0:0:0:70:soft-hitwhistle5.wav
320,192,46679,1,0,0:0:0:0:
64,192,46679,1,0,0:0:0:0:
192,192,46849,1,0,0:0:0:0:
448,192,47020,1,0,0:0:0:70:soft-hitclap11.wav
320,192,47020,1,0,0:0:0:0:
64,192,47190,1,0,0:0:0:0:
192,192,47361,1,0,0:0:0:70:soft-hitwhistle5.wav
320,192,47361,1,0,0:0:0:0:
448,192,47361,1,0,0:0:0:0:
448,192,47872,1,0,0:0:0:0:
192,192,47872,1,0,0:0:0:0:
448,192,48043,1,0,0:0:0:70:soft-hitwhistle5.wav
192,192,48043,1,0,0:0:0:0:
64,192,48043,1,0,0:0:0:0:
320,192,48384,1,0,0:0:0:70:soft-hitclap11.wav
64,192,48384,1,0,0:0:0:0:
192,192,48554,1,0,0:0:0:0:
448,192,48724,1,0,0:0:0:70:soft-hitwhistle5.wav
320,192,48724,1,0,0:0:0:0:
64,192,48724,1,0,0:0:0:0:
192,192,49065,1,0,0:0:0:70:soft-hitclap11.wav
320,192,49065,1,0,0:0:0:0:
448,192,49406,1,0,0:0:0:70:soft-hitwhistle5.wav
64,192,49406,1,0,0:0:0:0:
192,192,49406,1,0,0:0:0:0:
320,192,49577,1,0,0:0:0:0:
192,192,49747,1,0,0:0:0:70:soft-hitclap11.wav
64,192,49747,1,0,0:0:0:0:
192,192,50088,1,0,0:0:0:70:soft-hitwhistle5.wav
320,192,50088,1,0,0:0:0:0:
448,192,50088,1,0,0:0:0:0:
64,192,50259,1,0,0:0:0:0:
192,192,50429,1,0,0:0:0:70:soft-hitclap11.wav
448,192,50429,1,0,0:0:0:0:
320,192,50599,1,0,0:0:0:0:
64,192,50770,1,0,0:0:0:70:soft-hitwhistle5.wav
192,192,50770,1,0,0:0:0:0:
448,192,50770,1,0,0:0:0:0:
192,192,51281,1,0,0:0:0:0:
64,192,51281,1,0,0:0:0:0:
448,192,51452,1,0,0:0:0:70:soft-hitwhistle5.wav
192,192,51452,1,0,0:0:0:0:
64,192,51452,1,0,0:0:0:0:
320,192,51622,1,0,0:0:0:0:
192,192,51793,1,0,0:0:0:70:soft-hitclap11.wav
64,192,51793,1,0,0:0:0:0:
448,192,51963,1,0,0:0:0:0:
320,192,52134,1,0,0:0:0:70:soft-hitwhistle5.wav
64,192,52134,1,0,0:0:0:0:
192,192,52134,1,0,0:0:0:0:
448,192,52304,1,0,0:0:0:0:
64,192,52474,1,0,0:0:0:70:soft-hitclap11.wav
320,192,52474,1,0,0:0:0:0:
192,192,52645,1,0,0:0:0:0:
64,192,52815,1,0,0:0:0:70:soft-hitwhistle5.wav
320,192,52815,1,0,0:0:0:0:
448,192,52815,1,0,0:0:0:0:
192,192,52986,1,0,0:0:0:0:
448,192,53156,1,0,0:0:0:70:soft-hitclap11.wav
64,192,53327,1,0,0:0:0:0:
192,192,53497,1,0,0:0:0:70:soft-hitwhistle5.wav
448,192,53497,1,0,0:0:0:0:
320,192,53497,1,0,0:0:0:0:
448,192,53838,1,0,0:0:0:70:soft-hitclap11.wav
64,192,53838,1,0,0:0:0:0:
192,192,54009,1,0,0:0:0:0:
192,192,54179,1,0,0:0:0:70:soft-hitwhistle5.wav
64,192,54179,1,0,0:0:0:0:
448,192,54179,1,0,0:0:0:0:
448,192,54349,1,0,0:0:0:70:soft-hitwhistle.wav
320,192,54349,1,0,0:0:0:0:
192,192,54520,1,0,0:0:0:70:soft-hitclap11.wav
320,192,54520,1,0,0:0:0:70:soft-hitwhistle.wav
192,192,54690,1,0,0:0:0:70:soft-hitwhistle2.wav
64,192,54690,1,0,0:0:0:0:
448,192,54861,1,0,0:0:0:70:soft-hitwhistle5.wav
192,192,54861,1,0,0:0:0:70:soft-hitclap11.wav
320,192,55031,1,0,0:0:0:70:soft-hitwhistle2.wav
64,192,55031,1,0,0:0:0:0:
192,192,55202,1,0,0:0:0:70:soft-hitwhistle4.wav
64,192,55202,128,0,55543:0:0:0:70:soft-hitclap5.wav
320,192,55372,1,0,0:0:0:70:soft-hitwhistle4.wav
448,192,55372,1,0,0:0:0:0:
448,192,55543,1,0,0:0:0:70:soft-hitwhistle4.wav
320,192,55543,1,0,0:0:0:70:Crash.wav
192,192,55543,1,0,0:0:0:0:
192,192,55884,1,0,0:0:0:70:soft-hitclap11.wav
320,192,56054,1,0,0:0:0:0:
64,192,56224,1,0,0:0:0:70:soft-hitwhistle5.wav
192,192,56224,1,0,0:0:0:0:
448,192,56224,1,0,0:0:0:0:
320,192,56395,1,0,0:0:0:0:
64,192,56565,1,0,0:0:0:70:soft-hitclap11.wav
192,192,56565,1,0,0:0:0:0:
448,192,56736,1,0,0:0:0:0:
64,192,56906,1,0,0:0:0:70:soft-hitwhistle5.wav
320,192,56906,1,0,0:0:0:0:
192,192,56906,1,0,0:0:0:0:
448,192,57077,1,0,0:0:0:0:
64,192,57247,1,0,0:0:0:70:soft-hitclap11.wav
320,192,57247,1,0,0:0:0:0:
192,192,57418,1,0,0:0:0:0:
64,192,57588,1,0,0:0:0:70:soft-hitwhistle5.wav
320,192,57588,1,0,0:0:0:0:
448,192,57588,1,0,0:0:0:0:
192,192,57759,1,0,0:0:0:0:
320,192,57929,1,0,0:0:0:70:soft-hitclap11.wav
448,192,57929,1,0,0:0:0:0:
64,192,58099,1,0,0:0:0:0:
448,192,58270,1,0,0:0:0:70:soft-hitwhistle5.wav
320,192,58270,1,0,0:0:0:0:
192,192,58270,1,0,0:0:0:0:
64,192,58440,1,0,0:0:0:0:
448,192,58611,1,0,0:0:0:70:soft-hitclap11.wav
192,192,58611,1,0,0:0:0:0:
320,192,58781,1,0,0:0:0:0:
192,192,58952,1,0,0:0:0:70:soft-hitwhistle5.wav
64,192,58952,1,0,0:0:0:0:
448,192,58952,1,0,0:0:0:0:
320,192,59122,1,0,0:0:0:0:
64,192,59293,1,0,0:0:0:70:soft-hitclap11.wav
448,192,59293,1,0,0:0:0:0:
192,192,59463,1,0,0:0:0:0:
320,192,59634,1,0,0:0:0:70:soft-hitwhistle5.wav
448,192,59634,1,0,0:0:0:0:
64,192,59634,1,0,0:0:0:0:
192,192,59804,1,0,0:0:0:0:
448,192,59974,1,0,0:0:0:70:soft-hitclap11.wav
320,192,59974,1,0,0:0:0:0:
64,192,60145,1,0,0:0:0:0:
192,192,60315,1,0,0:0:0:70:soft-hitwhistle5.wav
448,192,60315,1,0,0:0:0:0:
320,192,60315,1,0,0:0:0:0:
64,192,60486,1,0,0:0:0:0:
448,192,60656,1,0,0:0:0:70:soft-hitclap11.wav
192,192,60656,1,0,0:0:0:0:
320,192,60827,1,0,0:0:0:0:
192,192,60997,1,0,0:0:0:70:soft-hitwhistle5.wav
64,192,60997,1,0,0:0:0:0:
448,192,60997,1,0,0:0:0:0:
320,192,61168,1,0,0:0:0:0:
64,192,61338,1,0,0:0:0:70:soft-hitclap11.wav
192,192,61338,1,0,0:0:0:0:
448,192,61509,1,0,0:0:0:0:
320,192,61679,1,0,0:0:0:70:soft-hitwhistle5.wav
64,192,61679,1,0,0:0:0:0:
192,192,61679,1,0,0:0:0:0:
448,192,61849,1,0,0:0:0:0:
320,192,62020,1,0,0:0:0:70:soft-hitclap11.wav
192,192,62020,1,0,0:0:0:0:
64,192,62190,1,0,0:0:0:0:
192,192,62361,1,0,0:0:0:70:soft-hitwhistle5.wav
320,192,62361,1,0,0:0:0:0:
448,192,62361,1,0,0:0:0:0:
64,192,62531,1,0,0:0:0:0:
448,192,62702,1,0,0:0:0:70:soft-hitclap11.wav
192,192,62702,1,0,0:0:0:0:
320,192,62872,1,0,0:0:0:0:
64,192,63043,1,0,0:0:0:70:soft-hitwhistle5.wav
192,192,63043,1,0,0:0:0:0:
448,192,63043,1,0,0:0:0:0:
320,192,63213,1,0,0:0:0:0:
64,192,63384,1,0,0:0:0:70:soft-hitclap11.wav
448,192,63384,1,0,0:0:0:0:
192,192,63554,1,0,0:0:0:0:
320,192,63724,1,0,0:0:0:70:soft-hitwhistle5.wav
448,192,63724,1,0,0:0:0:0:
64,192,63724,1,0,0:0:0:0:
192,192,63895,1,0,0:0:0:0:
320,192,64065,1,0,0:0:0:70:soft-hitclap11.wav
448,192,64065,1,0,0:0:0:0:
64,192,64236,1,0,0:0:0:0:
192,192,64406,1,0,0:0:0:70:soft-hitwhistle5.wav
448,192,64406,1,0,0:0:0:0:
320,192,64406,1,0,0:0:0:0:
64,192,64577,1,0,0:0:0:0:
448,192,64747,1,0,0:0:0:70:soft-hitclap11.wav
192,192,64747,1,0,0:0:0:0:
320,192,64918,1,0,0:0:0:0:
64,192,65088,1,0,0:0:0:70:soft-hitwhistle5.wav
192,192,65088,1,0,0:0:0:0:
448,192,65088,1,0,0:0:0:0:
320,192,65259,1,0,0:0:0:0:
64,192,65429,1,0,0:0:0:70:soft-hitclap11.wav
192,192,65429,1,0,0:0:0:0:
320,192,65599,1,0,0:0:0:0:
192,192,65685,1,0,0:0:0:0:
64,192,65770,1,0,0:0:0:70:soft-hitwhistle5.wav
448,192,65770,1,0,0:0:0:0:
320,192,65770,1,0,0:0:0:0:
192,192,65940,1,0,0:0:0:0:
320,192,66111,1,0,0:0:0:70:soft-hitclap11.wav
448,192,66111,1,0,0:0:0:0:
64,192,66281,1,0,0:0:0:0:
192,192,66452,1,0,0:0:0:70:soft-hitwhistle5.wav
320,192,66452,1,0,0:0:0:70:Crash.wav
448,192,66452,1,0,0:0:0:0:
192,192,66793,1,0,0:0:0:70:soft-hitclap11.wav
320,192,66963,1,0,0:0:0:0:
64,192,67134,1,0,0:0:0:70:soft-hitwhistle5.wav
192,192,67134,1,0,0:0:0:0:
448,192,67134,1,0,0:0:0:0:
320,192,67474,1,0,0:0:0:70:soft-hitclap11.wav
192,192,67474,1,0,0:0:0:0:
64,192,67645,1,0,0:0:0:0:
320,192,67815,1,0,0:0:0:70:soft-hitwhistle5.wav
448,192,67815,1,0,0:0:0:0:
192,192,67815,1,0,0:0:0:0:
64,192,67986,1,0,0:0:0:0:
448,192,68156,1,0,0:0:0:70:soft-hitclap11.wav
192,192,68156,1,0,0:0:0:0:
320,192,68327,1,0,0:0:0:0:
192,192,68497,1,0,0:0:0:70:soft-hitwhistle5.wav
64,192,68497,1,0,0:0:0:0:
448,192,68497,1,0,0:0:0:0:
320,192,68668,1,0,0:0:0:0:
64,192,68838,1,0,0:0:0:70:soft-hitclap11.wav
448,192,68838,1,0,0:0:0:0:
192,192,69009,1,0,0:0:0:0:
64,192,69179,1,0,0:0:0:70:soft-hitwhistle5.wav
320,192,69179,1,0,0:0:0:0:
448,192,69179,1,0,0:0:0:0:
192,192,69349,1,0,0:0:0:0:
320,192,69520,1,0,0:0:0:70:soft-hitclap11.wav
448,192,69520,1,0,0:0:0:0:
64,192,69690,1,0,0:0:0:0:
320,192,69861,1,0,0:0:0:70:soft-hitwhistle5.wav
448,192,69861,1,0,0:0:0:0:
192,192,69861,1,0,0:0:0:0:
64,192,70031,1,0,0:0:0:0:
320,192,70202,1,0,0:0:0:70:soft-hitclap11.wav
192,192,70202,1,0,0:0:0:0:
448,192,70372,1,0,0:0:0:0:
192,192,70543,1,0,0:0:0:70:soft-hitwhistle5.wav
64,192,70543,1,0,0:0:0:0:
320,192,70543,1,0,0:0:0:0:
448,192,70713,1,0,0:0:0:0:
320,192,70713,1,0,0:0:0:0:
192,192,70884,1,0,0:0:0:70:soft-hitclap11.wav
320,192,70884,1,0,0:0:0:0:
64,192,71054,1,0,0:0:0:0:
192,192,71054,1,0,0:0:0:0:
320,192,71224,1,0,0:0:0:70:soft-hitwhistle5.wav
64,192,71224,1,0,0:0:0:0:
448,192,71224,1,0,0:0:0:0:
320,192,71565,1,0,0:0:0:70:soft-hitclap11.wav
64,192,71565,1,0,0:0:0:0:
64,192,71906,1,0,0:0:0:70:soft-hitwhistle5.wav
448,192,71906,1,0,0:0:0:0:
320,192,71906,1,0,0:0:0:0:
320,192,72247,1,0,0:0:0:70:soft-hitclap11.wav
448,192,72247,1,0,0:0:0:0:
192,192,72418,1,0,0:0:0:0:
64,192,72588,1,0,0:0:0:70:soft-hitwhistle5.wav
320,192,72588,1,0,0:0:0:0:
448,192,72588,1,0,0:0:0:0:
192,192,72759,1,0,0:0:0:0:
448,192,72929,1,0,0:0:0:70:soft-hitclap11.wav
64,192,72929,1,0,0:0:0:0:
192,192,73099,1,0,0:0:0:0:
320,192,73270,1,0,0:0:0:70:soft-hitwhistle5.wav
448,192,73270,1,0,0:0:0:0:
64,192,73270,1,0,0:0:0:0:
192,192,73440,1,0,0:0:0:0:
320,192,73611,1,0,0:0:0:70:soft-hitclap11.wav
448,192,73611,1,0,0:0:0:0:
64,192,73781,1,0,0:0:0:0:
192,192,73952,1,0,0:0:0:70:soft-hitwhistle5.wav
320,192,73952,1,0,0:0:0:0:
448,192,73952,1,0,0:0:0:0:
64,192,74122,1,0,0:0:0:0:
448,192,74293,1,0,0:0:0:70:soft-hitclap11.wav
320,192,74293,1,0,0:0:0:0:
192,192,74463,1,0,0:0:0:0:
64,192,74634,1,0,0:0:0:70:soft-hitwhistle5.wav
448,192,74634,1,0,0:0:0:0:
320,192,74634,1,0,0:0:0:0:
448,192,74974,1,0,0:0:0:70:soft-hitclap11.wav
64,192,74974,1,0,0:0:0:0:
320,192,75145,1,0,0:0:0:0:
448,192,75315,1,0,0:0:0:70:soft-hitwhistle5.wav
64,192,75315,1,0,0:0:0:0:
192,192,75315,1,0,0:0:0:0:
320,192,75486,1,0,0:0:0:0:
192,192,75656,1,0,0:0:0:70:soft-hitclap11.wav
448,192,75656,1,0,0:0:0:0:
64,192,75827,1,0,0:0:0:0:
192,192,75997,1,0,0:0:0:70:soft-hitwhistle5.wav
320,192,75997,1,0,0:0:0:0:
448,192,75997,1,0,0:0:0:0:
64,192,76082,1,0,0:0:0:0:
192,192,76168,1,0,0:0:0:0:
448,192,76338,1,0,0:0:0:70:soft-hitclap11.wav
320,192,76338,1,0,0:0:0:0:
192,192,76509,1,0,0:0:0:0:
64,192,76679,1,0,0:0:0:70:soft-hitwhistle5.wav
320,192,76679,1,0,0:0:0:0:
448,192,76679,1,0,0:0:0:0:
192,192,76849,1,0,0:0:0:0:
320,192,76935,1,0,0:0:0:0:
448,192,77020,1,0,0:0:0:70:soft-hitclap11.wav
64,192,77020,1,0,0:0:0:0:
192,192,77190,1,0,0:0:0:70:soft-hitclap11.wav
320,192,77361,1,0,0:0:0:70:soft-hitwhistle5.wav
448,192,77361,1,0,0:0:0:70:soft-hitclap5.wav
64,192,77361,1,0,0:0:0:0:
320,192,78043,1,0,0:0:0:70:soft-hitwhistle5.wav
192,192,78043,1,0,0:0:0:0:
64,192,78724,1,0,0:0:0:70:soft-hitwhistle5.wav
192,192,78724,1,0,0:0:0:0:
192,192,79406,1,0,0:0:0:50:soft-hitclap.wav
448,192,79406,1,0,0:0:0:70:soft-hitwhistle5.wav
64,192,79406,1,0,0:0:0:0:
320,192,80088,1,0,0:0:0:0:
192,192,80088,1,0,0:0:0:70:soft-hitwhistle5.wav
320,192,80770,1,0,0:0:0:70:soft-hitwhistle5.wav
448,192,80770,1,0,0:0:0:0:
320,192,81452,1,0,0:0:0:70:soft-hitwhistle5.wav
64,192,81452,1,0,0:0:0:0:
320,192,82134,1,0,0:0:0:70:soft-hitwhistle5.wav
192,192,82134,1,0,0:0:0:50:soft-hitclap.wav
448,192,82134,1,0,0:0:0:0:
320,192,82645,1,0,0:0:0:50:soft-hitclap.wav
64,192,82815,1,0,0:0:0:70:soft-hitwhistle5.wav
448,192,82815,1,0,0:0:0:70:soft-hitclap5.wav
320,192,83497,1,0,0:0:0:70:soft-hitwhistle5.wav
192,192,83497,1,0,0:0:0:0:
192,192,84179,1,0,0:0:0:70:soft-hitwhistle5.wav
448,192,84179,1,0,0:0:0:0:
320,192,84861,1,0,0:0:0:50:soft-hitclap.wav
448,192,84861,1,0,0:0:0:0:
64,192,84861,1,0,0:0:0:70:soft-hitwhistle5.wav
192,192,85543,1,0,0:0:0:70:soft-hitwhistle5.wav
320,192,85543,1,0,0:0:0:70:soft-hitclap5.wav
448,192,86224,1,0,0:0:0:50:soft-hitclap.wav
192,192,86224,1,0,0:0:0:70:soft-hitwhistle5.wav
64,192,86224,1,0,0:0:0:0:
448,192,86906,1,0,0:0:0:50:soft-hitclap.wav
320,192,86906,1,0,0:0:0:70:soft-hitwhistle5.wav
64,192,86906,1,0,0:0:0:70:soft-hitclap5.wav
192,192,87077,1,0,0:0:0:0:
448,192,87247,1,0,0:0:0:0:
192,192,87588,1,0,0:0:0:70:soft-hitwhistle5.wav
320,192,87588,128,0,88270:0:0:0:70:soft-hitfinish10.wav
192,192,88270,1,0,0:0:0:70:soft-hitfinish4.wav
448,192,88270,1,0,0:0:0:70:Crash.wav
64,192,88270,1,0,0:0:0:0:
320,192,88611,1,0,0:0:0:70:soft-hitclap11.wav
192,192,88781,1,0,0:0:0:0:
64,192,88952,1,0,0:0:0:70:soft-hitwhistle5.wav
448,192,88952,1,0,0:0:0:0:
320,192,88952,1,0,0:0:0:0:
320,192,89293,1,0,0:0:0:0:
192,192,89463,1,0,0:0:0:0:
448,192,89463,1,0,0:0:0:0:
192,192,89634,1,0,0:0:0:70:soft-hitwhistle5.wav
64,192,89634,1,0,0:0:0:0:
448,192,89634,1,0,0:0:0:0:
320,192,89804,1,0,0:0:0:0:
192,192,89974,1,0,0:0:0:70:soft-hitclap11.wav
448,192,89974,1,0,0:0:0:20:hihat.wav
192,192,90315,1,0,0:0:0:70:soft-hitwhistle5.wav
320,192,90315,1,0,0:0:0:0:
448,192,90315,1,0,0:0:0:0:
64,192,90486,1,0,0:0:0:0:
192,192,90656,1,0,0:0:0:70:soft-hitclap11.wav
320,192,90656,1,0,0:0:0:20:hihat.wav
448,192,90997,1,0,0:0:0:70:soft-hitwhistle5.wav
320,192,90997,1,0,0:0:0:0:
64,192,90997,1,0,0:0:0:0:
192,192,91509,1,0,0:0:0:0:
320,192,91509,1,0,0:0:0:0:
192,192,91679,1,0,0:0:0:70:soft-hitwhistle5.wav
320,192,91679,1,0,0:0:0:0:
64,192,91679,1,0,0:0:0:0:
448,192,91849,1,0,0:0:0:0:
64,192,92020,1,0,0:0:0:70:soft-hitclap11.wav
320,192,92020,1,0,0:0:0:20:hihat.wav
192,192,92190,1,0,0:0:0:0:
320,192,92361,1,0,0:0:0:70:soft-hitwhistle5.wav
448,192,92361,1,0,0:0:0:0:
64,192,92361,1,0,0:0:0:0:
192,192,92531,1,0,0:0:0:0:
448,192,92702,1,0,0:0:0:70:soft-hitclap11.wav
320,192,92702,1,0,0:0:0:20:hihat.wav
64,192,92872,1,0,0:0:0:0:
192,192,93043,1,0,0:0:0:70:soft-hitwhistle5.wav
448,192,93043,1,0,0:0:0:0:
320,192,93043,1,0,0:0:0:0:
64,192,93384,1,0,0:0:0:70:soft-hitclap11.wav
320,192,93384,1,0,0:0:0:20:hihat.wav
192,192,93724,1,0,0:0:0:70:soft-hitwhistle5.wav
448,192,93724,1,0,0:0:0:0:
320,192,93724,1,0,0:0:0:0:
64,192,94236,1,0,0:0:0:0:
448,192,94236,1,0,0:0:0:0:
64,192,94406,1,0,0:0:0:70:soft-hitwhistle5.wav
448,192,94406,1,0,0:0:0:0:
320,192,94406,1,0,0:0:0:0:
192,192,94577,1,0,0:0:0:0:
448,192,94747,1,0,0:0:0:70:soft-hitclap11.wav
320,192,94747,1,0,0:0:0:20:hihat.wav
64,192,94918,1,0,0:0:0:0:
192,192,95088,1,0,0:0:0:70:soft-hitwhistle5.wav
320,192,95088,1,0,0:0:0:0:
448,192,95088,1,0,0:0:0:0:
64,192,95259,1,0,0:0:0:0:
448,192,95429,1,0,0:0:0:70:soft-hitclap11.wav
320,192,95429,1,0,0:0:0:20:hihat.wav
64,192,95770,1,0,0:0:0:70:soft-hitwhistle5.wav
192,192,95770,1,0,0:0:0:0:
448,192,95770,1,0,0:0:0:0:
320,192,95940,1,0,0:0:0:0:
192,192,96111,1,0,0:0:0:70:soft-hitclap11.wav
448,192,96111,1,0,0:0:0:20:hihat.wav
64,192,96452,1,0,0:0:0:70:soft-hitwhistle5.wav
192,192,96452,1,0,0:0:0:0:
448,192,96452,1,0,0:0:0:0:
320,192,96793,1,0,0:0:0:70:soft-hitclap11.wav
64,192,96963,1,0,0:0:0:0:
448,192,96963,1,0,0:0:0:0:
64,192,97134,1,0,0:0:0:70:soft-hitwhistle5.wav
320,192,97134,1,0,0:0:0:0:
448,192,97134,1,0,0:0:0:0:
192,192,97474,1,0,0:0:0:70:soft-hitclap11.wav
320,192,97474,1,0,0:0:0:20:hihat.wav
64,192,97815,1,0,0:0:0:70:soft-hitwhistle5.wav
192,192,97815,1,0,0:0:0:0:
320,192,97815,1,0,0:0:0:0:
448,192,97986,1,0,0:0:0:0:
64,192,98156,128,0,98497:0:0:0:70:soft-hitclap11.wav
192,192,98156,1,0,0:0:0:30:Cymbal 2.wav
320,192,98497,1,0,0:0:0:70:soft-hitwhistle5.wav
192,192,98497,1,0,0:0:0:0:
448,192,98668,1,0,0:0:0:0:
320,192,98838,128,0,99179:0:0:0:70:soft-hitclap11.wav
192,192,98838,1,0,0:0:0:20:hihat.wav
64,192,99179,1,0,0:0:0:70:soft-hitwhistle5.wav
448,192,99179,1,0,0:0:0:0:
192,192,99349,1,0,0:0:0:0:
448,192,99520,128,0,99861:0:0:0:70:soft-hitclap11.wav
64,192,99520,1,0,0:0:0:30:Cymbal 2.wav
192,192,99861,128,0,100202:0:0:0:70:soft-hitfinish.wav
320,192,99861,128,0,100202:0:0:0:70:soft-hitwhistle5.wav
448,192,100202,1,0,0:0:0:70:soft-hitclap10.wav
64,192,100543,1,0,0:0:0:70:soft-hitclap11.wav
448,192,100713,1,0,0:0:0:70:soft-hitwhistle4.wav
320,192,100713,1,0,0:0:0:0:
64,192,100884,1,0,0:0:0:70:soft-hitfinish4.wav
192,192,100884,1,0,0:0:0:0:
320,192,101054,1,0,0:0:0:70:soft-hitwhistle4.wav
192,192,101224,1,0,0:0:0:70:soft-hitwhistle4.wav
448,192,101224,1,0,0:0:0:0:
64,192,101395,1,0,0:0:0:70:soft-hitfinish4.wav
320,192,101565,1,0,0:0:0:70:R_J Hit Cymbal Low.wav
192,192,101736,1,0,0:0:0:70:soft-hitwhistle4.wav
64,192,101906,1,0,0:0:0:70:Cymbal.wav
320,192,101906,1,0,0:0:0:70:Bell.wav
448,192,101906,1,0,0:0:0:70:soft-hitfinish4.wav
192,192,102247,1,0,0:0:0:70:R_J Hit Hollow.wav
448,192,102247,1,0,0:0:0:0:
320,192,102418,1,0,0:0:0:0:
64,192,102588,1,0,0:0:0:70:Bell.wav
192,192,102588,1,0,0:0:0:70:soft-hitwhistle4.wav
448,192,102588,1,0,0:0:0:0:
192,192,102929,1,0,0:0:0:70:R_J Hit Hollow.wav
448,192,103099,1,0,0:0:0:0:
320,192,103099,1,0,0:0:0:0:
320,192,103270,1,0,0:0:0:70:Bell.wav
448,192,103270,1,0,0:0:0:70:soft-hitwhistle4.wav
64,192,103270,1,0,0:0:0:0:
192,192,103440,1,0,0:0:0:0:
320,192,103611,1,0,0:0:0:70:R_J Hit Hollow.wav
448,192,103611,1,0,0:0:0:0:
64,192,103781,1,0,0:0:0:0:
192,192,103952,1,0,0:0:0:70:Bell.wav
320,192,103952,1,0,0:0:0:70:soft-hitwhistle4.wav
448,192,103952,1,0,0:0:0:0:
64,192,104293,1,0,0:0:0:70:R_J Hit Hollow.wav
448,192,104293,1,0,0:0:0:0:
320,192,104463,1,0,0:0:0:0:
64,192,104634,1,0,0:0:0:70:Bell.wav
192,192,104634,1,0,0:0:0:70:soft-hitwhistle4.wav
448,192,104634,1,0,0:0:0:0:
320,192,104974,1,0,0:0:0:70:R_J Hit Hollow.wav
192,192,104974,1,0,0:0:0:0:
64,192,105145,1,0,0:0:0:0:
192,192,105315,1,0,0:0:0:70:Bell.wav
448,192,105315,1,0,0:0:0:70:soft-hitwhistle4.wav
320,192,105315,1,0,0:0:0:0:
64,192,105486,1,0,0:0:0:0:
448,192,105656,1,0,0:0:0:70:R_J Hit Hollow.wav
192,192,105656,1,0,0:0:0:0:
320,192,105827,1,0,0:0:0:0:
64,192,105997,1,0,0:0:0:70:Bell.wav
448,192,105997,1,0,0:0:0:70:soft-hitwhistle4.wav
192,192,105997,1,0,0:0:0:0:
320,192,106168,1,0,0:0:0:0:
192,192,106338,1,0,0:0:0:70:R_J Hit Hollow.wav
64,192,106338,1,0,0:0:0:0:
320,192,106509,1,0,0:0:0:0:
64,192,106679,1,0,0:0:0:70:Bell.wav
192,192,106679,1,0,0:0:0:70:soft-hitwhistle4.wav
448,192,106679,1,0,0:0:0:0:
320,192,106849,1,0,0:0:0:0:
192,192,107020,1,0,0:0:0:70:R_J Hit Hollow.wav
448,192,107020,1,0,0:0:0:0:
64,192,107190,1,0,0:0:0:0:
192,192,107361,1,0,0:0:0:70:soft-hitfinish4.wav
320,192,107361,1,0,0:0:0:70:soft-hitfinish.wav
448,192,107361,1,0,0:0:0:0:
192,192,107702,1,0,0:0:0:70:R_J Hit Hollow.wav
320,192,107702,1,0,0:0:0:0:
448,192,107872,1,0,0:0:0:0:
64,192,108043,1,0,0:0:0:70:Bell.wav
320,192,108043,1,0,0:0:0:70:soft-hitwhistle4.wav
192,192,108043,1,0,0:0:0:0:
448,192,108213,1,0,0:0:0:0:
64,192,108384,1,0,0:0:0:70:R_J Hit Hollow.wav
320,192,108384,1,0,0:0:0:0:
192,192,108554,1,0,0:0:0:0:
64,192,108724,1,0,0:0:0:70:Bell.wav
448,192,108724,1,0,0:0:0:70:soft-hitwhistle4.wav
320,192,108724,1,0,0:0:0:0:
192,192,108895,1,0,0:0:0:0:
448,192,109065,1,0,0:0:0:70:R_J Hit Hollow.wav
64,192,109065,1,0,0:0:0:0:
320,192,109236,1,0,0:0:0:0:
64,192,109406,1,0,0:0:0:70:Bell.wav
448,192,109406,1,0,0:0:0:70:soft-hitwhistle4.wav
192,192,109406,1,0,0:0:0:0:
320,192,109577,1,0,0:0:0:0:
64,192,109747,1,0,0:0:0:70:R_J Hit Hollow.wav
192,192,109747,1,0,0:0:0:0:
448,192,109918,1,0,0:0:0:0:
64,192,110088,1,0,0:0:0:70:Bell.wav
192,192,110088,1,0,0:0:0:70:soft-hitwhistle4.wav
320,192,110088,1,0,0:0:0:0:
448,192,110259,1,0,0:0:0:0:
320,192,110429,1,0,0:0:0:70:R_J Hit Hollow.wav
192,192,110429,1,0,0:0:0:0:
64,192,110599,1,0,0:0:0:0:
192,192,110770,1,0,0:0:0:70:Bell.wav
320,192,110770,1,0,0:0:0:70:soft-hitwhistle4.wav
448,192,110770,1,0,0:0:0:0:
64,192,110940,1,0,0:0:0:0:
448,192,111111,1,0,0:0:0:70:R_J Hit Hollow.wav
192,192,111111,1,0,0:0:0:0:
320,192,111281,1,0,0:0:0:0:
64,192,111452,1,0,0:0:0:70:R_J Finish Echo Low.wav
192,192,111452,1,0,0:0:0:70:Bell.wav
448,192,111452,1,0,0:0:0:70:soft-hitwhistle4.wav
320,192,111622,1,0,0:0:0:0:
64,192,111793,1,0,0:0:0:70:R_J Hit Hollow.wav
448,192,111793,1,0,0:0:0:0:
192,192,111963,1,0,0:0:0:0:
320,192,112134,1,0,0:0:0:70:Bell.wav
448,192,112134,1,0,0:0:0:70:soft-hitwhistle4.wav
64,192,112134,1,0,0:0:0:0:
192,192,112304,1,0,0:0:0:0:
320,192,112389,1,0,0:0:0:0:
448,192,112474,1,0,0:0:0:70:R_J Hit Hollow.wav
192,192,112474,1,0,0:0:0:0:
64,192,112645,1,0,0:0:0:0:
320,192,112645,1,0,0:0:0:0:
448,192,112815,1,0,0:0:0:70:Bell.wav
192,192,112815,1,0,0:0:0:70:soft-hitfinish4.wav
64,192,112815,1,0,0:0:0:70:Cymbal.wav
192,192,113156,1,0,0:0:0:70:R_J Hit Hollow.wav
320,192,113327,1,0,0:0:0:0:
192,192,113497,1,0,0:0:0:70:Bell.wav
64,192,113497,1,0,0:0:0:70:soft-hitwhistle4.wav
448,192,113497,1,0,0:0:0:0:
320,192,113668,1,0,0:0:0:0:
192,192,113838,1,0,0:0:0:70:R_J Hit Hollow.wav
64,192,114009,1,0,0:0:0:0:
320,192,114009,1,0,0:0:0:0:
64,192,114179,1,0,0:0:0:70:Bell.wav
320,192,114179,1,0,0:0:0:70:soft-hitwhistle4.wav
448,192,114179,1,0,0:0:0:0:
192,192,114349,1,0,0:0:0:0:
320,192,114520,1,0,0:0:0:70:R_J Hit Hollow.wav
448,192,114520,1,0,0:0:0:0:
64,192,114690,1,0,0:0:0:0:
192,192,114861,1,0,0:0:0:70:Bell.wav
320,192,114861,1,0,0:0:0:70:soft-hitwhistle4.wav
448,192,114861,1,0,0:0:0:0:
64,192,115031,1,0,0:0:0:0:
192,192,115202,1,0,0:0:0:70:R_J Hit Hollow.wav
320,192,115202,1,0,0:0:0:0:
448,192,115372,1,0,0:0:0:0:
64,192,115543,1,0,0:0:0:70:Bell.wav
192,192,115543,1,0,0:0:0:70:soft-hitwhistle4.wav
320,192,115543,1,0,0:0:0:0:
448,192,115884,1,0,0:0:0:70:R_J Hit Hollow.wav
192,192,115884,1,0,0:0:0:0:
64,192,116054,1,0,0:0:0:0:
192,192,116224,1,0,0:0:0:70:Bell.wav
320,192,116224,1,0,0:0:0:70:soft-hitwhistle4.wav
448,192,116224,1,0,0:0:0:0:
64,192,116395,1,0,0:0:0:0:
192,192,116565,1,0,0:0:0:70:R_J Hit Hollow.wav
448,192,116565,1,0,0:0:0:0:
320,192,116736,1,0,0:0:0:0:
64,192,116906,1,0,0:0:0:70:Bell.wav
448,192,116906,1,0,0:0:0:70:soft-hitwhistle4.wav
192,192,116906,1,0,0:0:0:0:
320,192,117077,1,0,0:0:0:0:
192,192,117247,1,0,0:0:0:70:R_J Hit Hollow.wav
64,192,117247,1,0,0:0:0:0:
320,192,117418,1,0,0:0:0:0:
64,192,117588,1,0,0:0:0:70:Bell.wav
192,192,117588,1,0,0:0:0:70:soft-hitwhistle4.wav
448,192,117588,1,0,0:0:0:0:
320,192,117759,1,0,0:0:0:0:
192,192,117844,1,0,0:0:0:0:
64,192,117929,1,0,0:0:0:70:R_J Hit Hollow.wav
448,192,117929,1,0,0:0:0:0:
192,192,118099,1,0,0:0:0:0:
64,192,118270,1,0,0:0:0:70:soft-hitfinish4.wav
320,192,118270,1,0,0:0:0:70:soft-hitfinish.wav
448,192,118270,1,0,0:0:0:0:
192,192,118611,1,0,0:0:0:70:R_J Hit Hollow.wav
448,192,118611,1,0,0:0:0:0:
320,192,118781,1,0,0:0:0:0:
320,192,118952,1,0,0:0:0:70:Bell.wav
64,192,118952,1,0,0:0:0:70:soft-hitwhistle4.wav
192,192,118952,1,0,0:0:0:0:
448,192,119122,1,0,0:0:0:0:
320,192,119293,1,0,0:0:0:70:R_J Hit Hollow.wav
64,192,119293,1,0,0:0:0:0:
192,192,119463,1,0,0:0:0:0:
64,192,119634,1,0,0:0:0:70:Bell.wav
448,192,119634,1,0,0:0:0:70:soft-hitwhistle4.wav
320,192,119634,1,0,0:0:0:0:
192,192,119804,1,0,0:0:0:0:
448,192,119974,1,0,0:0:0:70:R_J Hit Hollow.wav
64,192,119974,1,0,0:0:0:0:
320,192,120145,1,0,0:0:0:0:
64,192,120315,1,0,0:0:0:70:Bell.wav
192,192,120315,1,0,0:0:0:70:soft-hitwhistle4.wav
448,192,120315,1,0,0:0:0:0:
320,192,120486,1,0,0:0:0:0:
64,192,120656,1,0,0:0:0:70:R_J Hit Hollow.wav
192,192,120656,1,0,0:0:0:0:
320,192,120827,1,0,0:0:0:0:
192,192,120997,1,0,0:0:0:70:Bell.wav
448,192,120997,1,0,0:0:0:70:soft-hitwhistle4.wav
64,192,120997,1,0,0:0:0:0:
320,192,121338,1,0,0:0:0:70:R_J Hit Hollow.wav
192,192,121338,1,0,0:0:0:0:
448,192,121509,1,0,0:0:0:0:
64,192,121679,1,0,0:0:0:70:Bell.wav
192,192,121679,1,0,0:0:0:70:soft-hitwhistle4.wav
320,192,121679,1,0,0:0:0:0:
448,192,121849,1,0,0:0:0:0:
64,192,122020,1,0,0:0:0:70:R_J Hit Hollow.wav
320,192,122020,1,0,0:0:0:0:
192,192,122190,1,0,0:0:0:0:
320,192,122361,1,0,0:0:0:70:Bell.wav
448,192,122361,1,0,0:0:0:70:soft-hitwhistle4.wav
64,192,122361,1,0,0:0:0:70:R_J Finish Echo Low.wav
192,192,122531,1,0,0:0:0:0:
320,192,122702,1,0,0:0:0:70:R_J Hit Hollow.wav
64,192,122702,1,0,0:0:0:0:
448,192,122872,1,0,0:0:0:0:
192,192,123043,1,0,0:0:0:70:Bell.wav
320,192,123043,1,0,0:0:0:70:soft-hitwhistle4.wav
64,192,123043,128,0,123213:0:0:0:0:
448,192,123213,128,0,123384:0:0:0:0:
320,192,123384,128,0,123554:0:0:0:70:R_J Hit Hollow.wav
192,192,123554,128,0,123724:0:0:0:0:
64,192,123724,1,0,0:0:0:70:soft-hitfinish4.wav
320,192,123724,1,0,0:0:0:70:soft-hitfinish.wav
448,192,123724,1,0,0:0:0:0:
192,192,123895,1,0,0:0:0:0:
320,192,124065,1,0,0:0:0:70:R_J Hit Hollow.wav
448,192,124065,1,0,0:0:0:0:
192,192,124236,1,0,0:0:0:0:
64,192,124406,1,0,0:0:0:50:Bell.wav
320,192,124406,1,0,0:0:0:70:soft-hitwhistle4.wav
448,192,124406,1,0,0:0:0:0:
192,192,124577,1,0,0:0:0:0:
320,192,124747,1,0,0:0:0:70:R_J Hit Hollow.wav
448,192,124747,1,0,0:0:0:0:
64,192,124918,1,0,0:0:0:0:
192,192,125088,1,0,0:0:0:50:Bell.wav
448,192,125088,1,0,0:0:0:70:soft-hitwhistle4.wav
320,192,125088,1,0,0:0:0:0:
64,192,125259,1,0,0:0:0:0:
192,192,125429,1,0,0:0:0:70:R_J Hit Hollow.wav
320,192,125429,1,0,0:0:0:0:
448,192,125599,1,0,0:0:0:0:
64,192,125770,1,0,0:0:0:50:Bell.wav
192,192,125770,1,0,0:0:0:70:soft-hitwhistle4.wav
320,192,125770,1,0,0:0:0:0:
448,192,125940,1,0,0:0:0:0:
64,192,126111,1,0,0:0:0:70:R_J Hit Hollow.wav
320,192,126111,1,0,0:0:0:0:
192,192,126281,1,0,0:0:0:0:
64,192,126452,1,0,0:0:0:50:Bell.wav
320,192,126452,1,0,0:0:0:70:soft-hitwhistle4.wav
448,192,126452,1,0,0:0:0:0:
64,192,126793,1,0,0:0:0:70:R_J Hit Hollow.wav
448,192,126793,1,0,0:0:0:0:
320,192,126963,1,0,0:0:0:0:
192,192,127134,1,0,0:0:0:50:Bell.wav
64,192,127134,1,0,0:0:0:70:soft-hitwhistle4.wav
448,192,127134,1,0,0:0:0:0:
320,192,127304,1,0,0:0:0:0:
192,192,127474,1,0,0:0:0:70:R_J Hit Hollow.wav
448,192,127474,1,0,0:0:0:0:
64,192,127645,1,0,0:0:0:0:
192,192,127815,1,0,0:0:0:50:Bell.wav
320,192,127815,1,0,0:0:0:70:soft-hitwhistle4.wav
448,192,127815,1,0,0:0:0:0:
64,192,127986,1,0,0:0:0:0:
192,192,128156,1,0,0:0:0:70:R_J Hit Hollow.wav
448,192,128156,1,0,0:0:0:0:
320,192,128327,1,0,0:0:0:0:
64,192,128497,1,0,0:0:0:50:Bell.wav
192,192,128497,1,0,0:0:0:70:soft-hitwhistle4.wav
448,192,128497,1,0,0:0:0:0:
320,192,128668,1,0,0:0:0:0:
192,192,128838,1,0,0:0:0:70:R_J Hit Hollow.wav
64,192,128838,1,0,0:0:0:0:
320,192,129009,1,0,0:0:0:0:
192,192,129179,1,0,0:0:0:50:Bell.wav
448,192,129179,1,0,0:0:0:70:soft-hitfinish4.wav
64,192,129179,1,0,0:0:0:0:
320,192,129520,1,0,0:0:0:70:R_J Hit Hollow.wav
448,192,129520,1,0,0:0:0:0:
192,192,129690,1,0,0:0:0:0:
64,192,129861,1,0,0:0:0:50:Bell.wav
320,192,129861,1,0,0:0:0:70:soft-hitwhistle4.wav
448,192,129861,1,0,0:0:0:0:
192,192,130031,1,0,0:0:0:0:
64,192,130202,1,0,0:0:0:70:R_J Hit Hollow.wav
320,192,130202,1,0,0:0:0:0:
448,192,130372,1,0,0:0:0:0:
320,192,130543,1,0,0:0:0:50:Bell.wav
192,192,130543,1,0,0:0:0:70:soft-hitwhistle4.wav
64,192,130543,1,0,0:0:0:0:
448,192,130713,1,0,0:0:0:0:
192,192,130884,1,0,0:0:0:70:R_J Hit Hollow.wav
320,192,130884,1,0,0:0:0:0:
64,192,131054,1,0,0:0:0:0:
192,192,131224,1,0,0:0:0:50:Bell.wav
448,192,131224,1,0,0:0:0:70:soft-hitwhistle4.wav
320,192,131224,1,0,0:0:0:0:
64,192,131395,1,0,0:0:0:0:
192,192,131565,1,0,0:0:0:70:R_J Hit Hollow.wav
448,192,131565,1,0,0:0:0:0:
320,192,131736,1,0,0:0:0:0:
64,192,131906,1,0,0:0:0:50:Bell.wav
448,192,131906,1,0,0:0:0:70:soft-hitwhistle4.wav
192,192,131906,1,0,0:0:0:0:
320,192,132077,1,0,0:0:0:0:
448,192,132247,1,0,0:0:0:70:R_J Hit Hollow.wav
64,192,132247,1,0,0:0:0:0:
192,192,132418,1,0,0:0:0:0:
320,192,132588,1,0,0:0:0:50:Bell.wav
448,192,132588,1,0,0:0:0:70:soft-hitwhistle4.wav
64,192,132588,1,0,0:0:0:0:
192,192,132673,1,0,0:0:0:0:
320,192,132759,1,0,0:0:0:0:
448,192,132844,1,0,0:0:0:0:
192,192,132929,1,0,0:0:0:70:R_J Hit Hollow.wav
64,192,132929,1,0,0:0:0:0:
320,192,133099,1,0,0:0:0:0:
192,192,133270,1,0,0:0:0:50:Bell.wav
448,192,133270,1,0,0:0:0:70:soft-hitwhistle4.wav
64,192,133270,1,0,0:0:0:0:
320,192,133440,1,0,0:0:0:0:
64,192,133611,1,0,0:0:0:70:R_J Hit Hollow.wav
448,192,133611,1,0,0:0:0:0:
320,192,133781,1,0,0:0:0:0:
192,192,133866,1,0,0:0:0:0:
320,192,133952,1,0,0:0:0:50:Bell.wav
448,192,133952,1,0,0:0:0:70:soft-hitwhistle4.wav
64,192,133952,1,0,0:0:0:0:
192,192,134122,1,0,0:0:0:0:
320,192,134207,1,0,0:0:0:0:
448,192,134293,1,0,0:0:0:0:
64,192,134293,1,0,0:0:0:0:
192,192,134463,128,0,134634:0:0:0:0:
320,192,134634,1,0,0:0:0:70:R_J Finish Echo Low.wav
448,192,134634,1,0,0:0:0:0:
64,192,134974,128,0,135315:0:0:0:0:
448,192,134974,1,0,0:0:0:0:
320,192,135315,128,0,135656:0:0:0:0:
192,192,135656,128,0,135997:0:0:0:0:
448,192,135997,128,0,136338:0:0:0:0:
64,192,136338,128,0,136679:0:0:0:0:
192,192,136679,128,0,137020:0:0:0:0:
320,192,137020,128,0,137361:0:0:0:0:
448,192,137361,128,0,137702:0:0:0:30:soft-hitwhistle4.wav
64,192,137361,1,0,0:0:0:0:
64,192,137702,128,0,138043:0:0:0:30:soft-hitwhistle4.wav
192,192,137702,1,0,0:0:0:0:
320,192,137872,128,0,138043:0:0:0:0:
448,192,138043,128,0,138384:0:0:0:0:
192,192,138384,128,0,138724:0:0:0:0:
64,192,138384,1,0,0:0:0:0:
320,192,138724,128,0,139065:0:0:0:0:
64,192,139065,128,0,139406:0:0:0:0:
192,192,139406,128,0,139747:0:0:0:0:
320,192,139747,128,0,140088:0:0:0:0:
64,192,139747,1,0,0:0:0:0:
448,192,140088,128,0,140429:0:0:0:30:soft-hitwhistle4.wav
192,192,140088,1,0,0:0:0:0:
64,192,140429,1,0,0:0:0:30:soft-hitwhistle4.wav
192,192,140429,128,0,140770:0:0:0:0:
320,192,140770,128,0,141111:0:0:0:0:
64,192,141111,128,0,141452:0:0:0:0:
448,192,141452,128,0,141793:0:0:0:0:
320,192,141793,128,0,142134:0:0:0:0:
192,192,142134,128,0,142474:0:0:0:0:
448,192,142474,128,0,142815:0:0:0:0:
64,192,142815,128,0,143156:0:0:0:30:soft-hitwhistle4.wav
192,192,142815,1,0,0:0:0:0:
320,192,143156,128,0,143497:0:0:0:30:soft-hitwhistle4.wav
448,192,143156,1,0,0:0:0:0:
192,192,143327,128,0,143497:0:0:0:0:
64,192,143497,128,0,143838:0:0:0:0:
448,192,143838,128,0,144179:0:0:0:0:
320,192,144179,128,0,145031:0:0:0:0:
64,192,145202,128,0,145543:0:0:0:0:
192,192,145202,1,0,0:0:0:0:
448,192,145543,1,0,0:0:0:30:soft-hitwhistle4.wav
320,192,145628,1,0,0:0:0:0:
192,192,145713,1,0,0:0:0:0:
320,192,145884,1,0,0:0:0:0:
448,192,145884,1,0,0:0:0:0:
64,192,145969,1,0,0:0:0:0:
192,192,146054,1,0,0:0:0:0:
448,192,146139,1,0,0:0:0:0:
320,192,146224,1,0,0:0:0:0:
64,192,146395,1,0,0:0:0:0:
192,192,146395,1,0,0:0:0:0:
320,192,146565,1,0,0:0:0:0:
448,192,146565,1,0,0:0:0:0:
192,192,146736,1,0,0:0:0:0:
64,192,146906,1,0,0:0:0:0:
320,192,146906,1,0,0:0:0:0:
448,192,147077,1,0,0:0:0:0:
320,192,147162,1,0,0:0:0:0:
192,192,147247,1,0,0:0:0:0:
64,192,147247,1,0,0:0:0:0:
448,192,147418,1,0,0:0:0:0:
320,192,147503,1,0,0:0:0:0:
64,192,147588,1,0,0:0:0:0:
192,192,147673,1,0,0:0:0:0:
320,192,147759,1,0,0:0:0:0:
448,192,147759,1,0,0:0:0:0:
192,192,147929,1,0,0:0:0:0:
64,192,147929,1,0,0:0:0:0:
320,192,148099,1,0,0:0:0:0:
192,192,148185,1,0,0:0:0:0:
448,192,148270,1,0,0:0:0:30:soft-hitwhistle4.wav
64,192,148270,1,0,0:0:0:0:
192,192,148440,1,0,0:0:0:0:
64,192,148526,1,0,0:0:0:0:
320,192,148611,1,0,0:0:0:30:soft-hitwhistle4.wav
448,192,148611,1,0,0:0:0:0:
192,192,148781,1,0,0:0:0:0:
64,192,148781,1,0,0:0:0:0:
320,192,148952,1,0,0:0:0:0:
448,192,148952,1,0,0:0:0:0:
64,192,149037,1,0,0:0:0:0:
192,192,149122,1,0,0:0:0:0:
320,192,149293,1,0,0:0:0:0:
448,192,149293,1,0,0:0:0:0:
64,192,149378,1,0,0:0:0:0:
192,192,149463,1,0,0:0:0:0:
320,192,149548,1,0,0:0:0:0:
448,192,149634,1,0,0:0:0:0:
320,192,149804,1,0,0:0:0:0:
192,192,149804,1,0,0:0:0:0:
64,192,149974,1,0,0:0:0:0:
448,192,149974,1,0,0:0:0:0:
192,192,150145,1,0,0:0:0:0:
320,192,150230,1,0,0:0:0:0:
64,192,150315,1,0,0:0:0:0:
448,192,150401,1,0,0:0:0:0:
320,192,150486,1,0,0:0:0:0:
192,192,150571,1,0,0:0:0:0:
64,192,150656,1,0,0:0:0:0:
448,192,150656,1,0,0:0:0:0:
320,192,150827,1,0,0:0:0:0:
64,192,150997,1,0,0:0:0:30:soft-hitwhistle4.wav
192,192,150997,1,0,0:0:0:0:
448,192,151168,1,0,0:0:0:0:
320,192,151338,1,0,0:0:0:0:
192,192,151338,1,0,0:0:0:0:
64,192,151509,1,0,0:0:0:0:
192,192,151594,1,0,0:0:0:0:
320,192,151679,1,0,0:0:0:0:
448,192,151849,1,0,0:0:0:0:
64,192,151849,1,0,0:0:0:0:
320,192,152020,1,0,0:0:0:0:
192,192,152020,1,0,0:0:0:0:
64,192,152190,1,0,0:0:0:0:
192,192,152361,1,0,0:0:0:0:
448,192,152531,1,0,0:0:0:0:
192,192,152616,1,0,0:0:0:0:
320,192,152702,1,0,0:0:0:0:
64,192,152872,1,0,0:0:0:0:
192,192,152872,1,0,0:0:0:0:
448,192,153043,1,0,0:0:0:0:
320,192,153043,1,0,0:0:0:0:
64,192,153213,1,0,0:0:0:0:
448,192,153384,1,0,0:0:0:0:
320,192,153469,1,0,0:0:0:0:
64,192,153554,1,0,0:0:0:0:
192,192,153639,1,0,0:0:0:0:
320,192,153724,1,0,0:0:0:30:soft-hitwhistle4.wav
448,192,153724,1,0,0:0:0:0:
64,192,153810,1,0,0:0:0:0:
192,192,153895,1,0,0:0:0:0:
448,192,153980,1,0,0:0:0:0:
64,192,154065,1,0,0:0:0:30:soft-hitwhistle4.wav
320,192,154065,1,0,0:0:0:0:
192,192,154236,1,0,0:0:0:0:
448,192,154406,1,0,0:0:0:0:
320,192,154491,1,0,0:0:0:0:
192,192,154577,1,0,0:0:0:0:
64,192,154747,1,0,0:0:0:0:
320,192,154747,1,0,0:0:0:0:
192,192,154918,1,0,0:0:0:0:
320,192,155088,1,0,0:0:0:0:
448,192,155088,1,0,0:0:0:0:
320,192,155770,128,0,156452:0:0:0:70:soft-hitfinish10.wav
192,192,156452,1,0,0:0:0:70:R_J Finish Echo Low.wav
64,192,156452,1,0,0:0:0:70:soft-hitwhistle5.wav
448,192,156452,1,0,0:0:0:0:
320,192,156793,1,0,0:0:0:70:soft-hitclap11.wav
192,192,156963,1,0,0:0:0:0:
64,192,157134,1,0,0:0:0:70:soft-hitwhistle5.wav
320,192,157134,1,0,0:0:0:0:
448,192,157134,1,0,0:0:0:0:
192,192,157304,1,0,0:0:0:0:
320,192,157474,1,0,0:0:0:70:soft-hitclap11.wav
448,192,157474,1,0,0:0:0:20:hihat.wav
64,192,157645,1,0,0:0:0:0:
192,192,157815,1,0,0:0:0:70:soft-hitwhistle5.wav
448,192,157815,1,0,0:0:0:0:
320,192,157815,1,0,0:0:0:0:
64,192,157986,1,0,0:0:0:0:
192,192,158156,1,0,0:0:0:70:soft-hitclap11.wav
448,192,158156,1,0,0:0:0:20:hihat.wav
320,192,158327,1,0,0:0:0:0:
192,192,158412,1,0,0:0:0:0:
64,192,158497,1,0,0:0:0:70:soft-hitwhistle5.wav
448,192,158497,1,0,0:0:0:0:
320,192,158497,1,0,0:0:0:0:
192,192,158668,1,0,0:0:0:0:
320,192,158838,1,0,0:0:0:70:soft-hitclap11.wav
448,192,158838,1,0,0:0:0:20:hihat.wav
64,192,158923,1,0,0:0:0:0:
192,192,159009,1,0,0:0:0:0:
320,192,159094,1,0,0:0:0:0:
448,192,159179,1,0,0:0:0:70:soft-hitwhistle5.wav
192,192,159179,1,0,0:0:0:0:
64,192,159179,1,0,0:0:0:0:
320,192,159349,1,0,0:0:0:0:
192,192,159435,1,0,0:0:0:0:
64,192,159520,1,0,0:0:0:70:soft-hitclap11.wav
448,192,159520,1,0,0:0:0:20:hihat.wav
320,192,159690,1,0,0:0:0:0:
192,192,159776,1,0,0:0:0:0:
64,192,159861,1,0,0:0:0:70:soft-hitwhistle5.wav
448,192,159861,1,0,0:0:0:0:
320,192,159861,1,0,0:0:0:0:
192,192,160031,1,0,0:0:0:0:
448,192,160202,1,0,0:0:0:70:soft-hitclap11.wav
64,192,160202,1,0,0:0:0:20:hihat.wav
320,192,160372,1,0,0:0:0:0:
448,192,160543,1,0,0:0:0:70:soft-hitwhistle5.wav
192,192,160543,1,0,0:0:0:0:
64,192,160543,1,0,0:0:0:0:
320,192,160713,1,0,0:0:0:0:
64,192,160884,1,0,0:0:0:70:soft-hitclap11.wav
448,192,160884,1,0,0:0:0:20:hihat.wav
192,192,161054,1,0,0:0:0:0:
320,192,161139,1,0,0:0:0:0:
448,192,161224,1,0,0:0:0:70:soft-hitwhistle5.wav
192,192,161224,1,0,0:0:0:0:
64,192,161224,1,0,0:0:0:0:
320,192,161395,1,0,0:0:0:0:
448,192,161565,1,0,0:0:0:70:soft-hitclap11.wav
64,192,161565,1,0,0:0:0:20:hihat.wav
192,192,161651,1,0,0:0:0:0:
320,192,161736,1,0,0:0:0:0:
448,192,161906,1,0,0:0:0:70:soft-hitwhistle5.wav
64,192,161906,1,0,0:0:0:0:
192,192,161906,1,0,0:0:0:0:
320,192,161991,1,0,0:0:0:0:
192,192,162077,1,0,0:0:0:0:
320,192,162247,1,0,0:0:0:20:hihat.wav
448,192,162247,1,0,0:0:0:70:soft-hitclap11.wav
192,192,162418,1,0,0:0:0:0:
64,192,162503,1,0,0:0:0:0:
448,192,162588,1,0,0:0:0:70:soft-hitwhistle5.wav
192,192,162588,1,0,0:0:0:0:
320,192,162588,1,0,0:0:0:0:
64,192,162759,1,0,0:0:0:0:
192,192,162929,1,0,0:0:0:70:soft-hitclap11.wav
320,192,162929,1,0,0:0:0:20:hihat.wav
448,192,163099,1,0,0:0:0:0:
64,192,163270,1,0,0:0:0:70:soft-hitwhistle5.wav
192,192,163270,1,0,0:0:0:0:
320,192,163270,1,0,0:0:0:0:
448,192,163440,1,0,0:0:0:0:
320,192,163526,1,0,0:0:0:0:
64,192,163611,1,0,0:0:0:20:hihat.wav
192,192,163611,1,0,0:0:0:70:soft-hitclap11.wav
448,192,163781,1,0,0:0:0:0:
320,192,163866,1,0,0:0:0:0:
64,192,163952,1,0,0:0:0:70:soft-hitwhistle5.wav
192,192,163952,1,0,0:0:0:0:
448,192,163952,1,0,0:0:0:0:
320,192,164122,1,0,0:0:0:0:
448,192,164293,1,0,0:0:0:70:soft-hitclap11.wav
64,192,164293,1,0,0:0:0:20:hihat.wav
192,192,164378,1,0,0:0:0:0:
320,192,164463,1,0,0:0:0:0:
448,192,164548,1,0,0:0:0:0:
64,192,164634,1,0,0:0:0:70:soft-hitwhistle5.wav
192,192,164634,1,0,0:0:0:0:
320,192,164634,1,0,0:0:0:0:
448,192,164804,1,0,0:0:0:0:
192,192,164974,1,0,0:0:0:20:hihat.wav
320,192,164974,1,0,0:0:0:70:soft-hitclap11.wav
64,192,165145,1,0,0:0:0:0:
320,192,165315,1,0,0:0:0:70:soft-hitwhistle5.wav
192,192,165315,1,0,0:0:0:0:
448,192,165315,1,0,0:0:0:0:
64,192,165571,1,0,0:0:0:0:
192,192,165656,1,0,0:0:0:70:soft-hitclap11.wav
448,192,165656,1,0,0:0:0:20:hihat.wav
320,192,165827,1,0,0:0:0:0:
192,192,165997,1,0,0:0:0:70:soft-hitwhistle5.wav
64,192,165997,1,0,0:0:0:0:
448,192,165997,1,0,0:0:0:0:
320,192,166168,1,0,0:0:0:0:
192,192,166338,1,0,0:0:0:20:hihat.wav
64,192,166338,1,0,0:0:0:70:soft-hitclap11.wav
448,192,166509,1,0,0:0:0:0:
320,192,166594,1,0,0:0:0:0:
192,192,166679,1,0,0:0:0:70:soft-hitwhistle5.wav
448,192,166679,1,0,0:0:0:0:
64,192,166679,1,0,0:0:0:0:
320,192,166849,1,0,0:0:0:0:
448,192,167020,1,0,0:0:0:70:soft-hitclap11.wav
64,192,167020,1,0,0:0:0:20:hihat.wav
192,192,167105,1,0,0:0:0:0:
320,192,167190,1,0,0:0:0:0:
448,192,167276,1,0,0:0:0:0:
320,192,167361,1,0,0:0:0:70:soft-hitwhistle5.wav
64,192,167361,1,0,0:0:0:0:
192,192,167361,1,0,0:0:0:0:
448,192,167531,1,0,0:0:0:0:
64,192,167702,1,0,0:0:0:20:hihat.wav
320,192,167702,1,0,0:0:0:70:soft-hitclap11.wav
192,192,167872,1,0,0:0:0:0:
320,192,168043,1,0,0:0:0:70:soft-hitwhistle5.wav
448,192,168043,1,0,0:0:0:0:
64,192,168043,1,0,0:0:0:0:
192,192,168213,1,0,0:0:0:0:
64,192,168384,1,0,0:0:0:70:soft-hitclap11.wav
320,192,168384,1,0,0:0:0:20:hihat.wav
448,192,168554,1,0,0:0:0:0:
64,192,168724,1,0,0:0:0:70:soft-hitwhistle5.wav
192,192,168724,1,0,0:0:0:0:
320,192,168724,1,0,0:0:0:0:
448,192,168895,1,0,0:0:0:0:
320,192,169065,1,0,0:0:0:20:hihat.wav
192,192,169065,1,0,0:0:0:70:soft-hitclap11.wav
64,192,169236,1,0,0:0:0:0:
192,192,169406,1,0,0:0:0:70:soft-hitwhistle5.wav
448,192,169406,1,0,0:0:0:0:
320,192,169406,1,0,0:0:0:0:
64,192,169577,1,0,0:0:0:0:
448,192,169747,1,0,0:0:0:70:soft-hitclap11.wav
320,192,169747,1,0,0:0:0:20:hihat.wav
192,192,169832,1,0,0:0:0:0:
64,192,169918,1,0,0:0:0:0:
320,192,170003,1,0,0:0:0:0:
192,192,170088,1,0,0:0:0:70:soft-hitwhistle5.wav
64,192,170088,1,0,0:0:0:0:
448,192,170088,1,0,0:0:0:0:
320,192,170259,1,0,0:0:0:0:
192,192,170344,1,0,0:0:0:0:
64,192,170429,1,0,0:0:0:20:hihat.wav
448,192,170429,1,0,0:0:0:70:soft-hitclap11.wav
192,192,170599,1,0,0:0:0:0:
320,192,170770,1,0,0:0:0:70:soft-hitwhistle5.wav
448,192,170770,1,0,0:0:0:0:
64,192,170770,1,0,0:0:0:0:
192,192,170940,1,0,0:0:0:0:
320,192,171111,1,0,0:0:0:70:soft-hitclap11.wav
448,192,171111,1,0,0:0:0:20:hihat.wav
192,192,171281,1,0,0:0:0:0:
64,192,171452,1,0,0:0:0:70:soft-hitwhistle5.wav
320,192,171452,1,0,0:0:0:0:
448,192,171452,1,0,0:0:0:0:
192,192,171622,1,0,0:0:0:0:
64,192,171793,1,0,0:0:0:20:hihat.wav
320,192,171793,1,0,0:0:0:70:soft-hitclap11.wav
448,192,171963,1,0,0:0:0:0:
192,192,172134,1,0,0:0:0:70:soft-hitwhistle5.wav
64,192,172134,1,0,0:0:0:0:
320,192,172134,1,0,0:0:0:0:
448,192,172304,1,0,0:0:0:0:
320,192,172474,1,0,0:0:0:70:soft-hitclap11.wav
64,192,172474,1,0,0:0:0:20:hihat.wav
192,192,172560,1,0,0:0:0:0:
64,192,172645,1,0,0:0:0:0:
192,192,172815,1,0,0:0:0:70:soft-hitwhistle5.wav
320,192,172815,1,0,0:0:0:0:
448,192,172815,1,0,0:0:0:0:
64,192,172986,1,0,0:0:0:0:
448,192,173156,1,0,0:0:0:20:hihat.wav
192,192,173156,1,0,0:0:0:70:soft-hitclap11.wav
320,192,173327,1,0,0:0:0:0:
64,192,173497,1,0,0:0:0:70:soft-hitwhistle5.wav
192,192,173497,1,0,0:0:0:0:
448,192,173497,1,0,0:0:0:0:
320,192,173668,1,0,0:0:0:0:
192,192,173838,1,0,0:0:0:70:soft-hitclap11.wav
448,192,173838,1,0,0:0:0:20:hihat.wav
64,192,174009,1,0,0:0:0:0:
448,192,174179,1,0,0:0:0:70:soft-hitwhistle5.wav
320,192,174179,1,0,0:0:0:0:
192,192,174179,1,0,0:0:0:0:
64,192,174349,1,0,0:0:0:0:
192,192,174520,1,0,0:0:0:20:hihat.wav
448,192,174520,1,0,0:0:0:70:soft-hitclap11.wav
320,192,174690,1,0,0:0:0:0:
192,192,174776,1,0,0:0:0:0:
64,192,174861,1,0,0:0:0:70:soft-hitwhistle5.wav
320,192,174861,1,0,0:0:0:0:
448,192,174861,1,0,0:0:0:0:
192,192,175031,1,0,0:0:0:0:
448,192,175202,1,0,0:0:0:70:soft-hitclap11.wav
64,192,175202,1,0,0:0:0:20:hihat.wav
192,192,175287,1,0,0:0:0:0:
320,192,175372,1,0,0:0:0:0:
448,192,175457,1,0,0:0:0:0:
64,192,175543,1,0,0:0:0:70:soft-hitwhistle5.wav
192,192,175543,1,0,0:0:0:0:
320,192,175543,1,0,0:0:0:0:
448,192,175713,1,0,0:0:0:0:
320,192,175798,1,0,0:0:0:0:
64,192,175884,1,0,0:0:0:20:hihat.wav
192,192,175884,1,0,0:0:0:70:soft-hitclap11.wav
320,192,176054,1,0,0:0:0:0:
192,192,176224,1,0,0:0:0:70:soft-hitwhistle5.wav
448,192,176224,1,0,0:0:0:0:
64,192,176224,1,0,0:0:0:0:
320,192,176395,1,0,0:0:0:0:
192,192,176480,1,0,0:0:0:0:
448,192,176565,1,0,0:0:0:70:soft-hitclap11.wav
64,192,176565,1,0,0:0:0:20:hihat.wav
320,192,176736,1,0,0:0:0:0:
192,192,176821,1,0,0:0:0:0:
64,192,176906,1,0,0:0:0:70:soft-hitwhistle5.wav
320,192,176906,1,0,0:0:0:40:Cymbal 2.wav
448,192,176906,1,0,0:0:0:0:
192,192,177077,1,0,0:0:0:0:
320,192,177247,1,0,0:0:0:20:hihat.wav
448,192,177247,1,0,0:0:0:70:soft-hitclap11.wav
64,192,177418,1,0,0:0:0:0:
192,192,177588,1,0,0:0:0:70:soft-hitwhistle5.wav
320,192,177588,1,0,0:0:0:40:Cymbal 2.wav
448,192,177588,1,0,0:0:0:0:
64,192,177759,1,0,0:0:0:0:
448,192,177929,1,0,0:0:0:70:R_J Hit Cymbal Low.wav
320,192,177929,1,0,0:0:0:70:soft-hitclap11.wav
192,192,178014,1,0,0:0:0:0:
64,192,178099,1,0,0:0:0:0:
320,192,178185,1,0,0:0:0:0:
64,192,178270,1,0,0:0:0:70:soft-hitfinish4.wav
192,192,178270,1,0,0:0:0:70:Bell.wav
448,192,178270,128,0,178611:0:0:0:70:Cymbal.wav
64,192,178611,1,0,0:0:0:70:R_J Hit Hollow.wav
192,192,178781,1,0,0:0:0:0:
64,192,178952,1,0,0:0:0:70:soft-hitwhistle4.wav
320,192,178952,1,0,0:0:0:70:Bell.wav
448,192,178952,1,0,0:0:0:0:
192,192,179122,1,0,0:0:0:0:
448,192,179293,1,0,0:0:0:70:R_J Hit Hollow.wav
320,192,179293,1,0,0:0:0:0:
64,192,179463,1,0,0:0:0:0:
192,192,179634,1,0,0:0:0:70:soft-hitwhistle4.wav
320,192,179634,1,0,0:0:0:70:Bell.wav
448,192,179634,1,0,0:0:0:0:
64,192,179804,1,0,0:0:0:0:
448,192,179974,1,0,0:0:0:70:R_J Hit Hollow.wav
192,192,179974,1,0,0:0:0:0:
320,192,180145,1,0,0:0:0:0:
192,192,180315,1,0,0:0:0:70:soft-hitwhistle4.wav
64,192,180315,1,0,0:0:0:70:Bell.wav
448,192,180315,1,0,0:0:0:0:
320,192,180486,1,0,0:0:0:0:
64,192,180656,1,0,0:0:0:70:R_J Hit Hollow.wav
448,192,180656,1,0,0:0:0:0:
192,192,180741,1,0,0:0:0:0:
320,192,180827,1,0,0:0:0:0:
448,192,180997,1,0,0:0:0:70:soft-hitwhistle4.wav
64,192,180997,1,0,0:0:0:70:Bell.wav
192,192,180997,1,0,0:0:0:0:
320,192,181168,1,0,0:0:0:0:
192,192,181253,1,0,0:0:0:0:
64,192,181338,1,0,0:0:0:70:R_J Hit Hollow.wav
448,192,181338,1,0,0:0:0:0:
192,192,181509,1,0,0:0:0:0:
320,192,181679,1,0,0:0:0:70:soft-hitwhistle4.wav
448,192,181679,1,0,0:0:0:70:Bell.wav
64,192,181679,1,0,0:0:0:0:
192,192,181849,1,0,0:0:0:0:
64,192,182020,1,0,0:0:0:70:R_J Hit Hollow.wav
448,192,182020,1,0,0:0:0:0:
320,192,182190,1,0,0:0:0:0:
64,192,182361,1,0,0:0:0:70:soft-hitwhistle4.wav
192,192,182361,1,0,0:0:0:70:Bell.wav
448,192,182361,1,0,0:0:0:0:
320,192,182531,1,0,0:0:0:0:
448,192,182702,1,0,0:0:0:70:R_J Hit Hollow.wav
64,192,182702,1,0,0:0:0:0:
192,192,182872,1,0,0:0:0:0:
320,192,183043,1,0,0:0:0:70:soft-hitwhistle4.wav
64,192,183043,1,0,0:0:0:70:Bell.wav
448,192,183043,1,0,0:0:0:0:
192,192,183213,1,0,0:0:0:0:
64,192,183384,1,0,0:0:0:70:R_J Hit Hollow.wav
320,192,183384,1,0,0:0:0:0:
192,192,183469,1,0,0:0:0:0:
448,192,183554,1,0,0:0:0:0:
64,192,183724,1,0,0:0:0:70:soft-hitfinish.wav
192,192,183724,1,0,0:0:0:70:soft-hitfinish4.wav
320,192,183724,1,0,0:0:0:0:
448,192,183895,1,0,0:0:0:0:
320,192,184065,1,0,0:0:0:70:R_J Hit Hollow.wav
64,192,184065,1,0,0:0:0:0:
192,192,184236,1,0,0:0:0:0:
64,192,184406,1,0,0:0:0:70:soft-hitwhistle4.wav
320,192,184406,1,0,0:0:0:70:Bell.wav
448,192,184406,1,0,0:0:0:0:
192,192,184577,1,0,0:0:0:0:
448,192,184747,1,0,0:0:0:70:R_J Hit Hollow.wav
64,192,184747,1,0,0:0:0:0:
320,192,184918,1,0,0:0:0:0:
192,192,185088,1,0,0:0:0:70:soft-hitwhistle4.wav
64,192,185088,1,0,0:0:0:70:Bell.wav
448,192,185088,1,0,0:0:0:0:
320,192,185259,1,0,0:0:0:0:
192,192,185344,1,0,0:0:0:0:
64,192,185429,1,0,0:0:0:70:R_J Hit Hollow.wav
448,192,185429,1,0,0:0:0:0:
192,192,185599,1,0,0:0:0:0:
320,192,185770,1,0,0:0:0:70:soft-hitwhistle4.wav
448,192,185770,1,0,0:0:0:70:Bell.wav
64,192,185770,1,0,0:0:0:0:
192,192,185940,1,0,0:0:0:0:
64,192,186111,1,0,0:0:0:70:R_J Hit Hollow.wav
448,192,186111,1,0,0:0:0:0:
320,192,186196,1,0,0:0:0:0:
64,192,186366,1,0,0:0:0:0:
320,192,186452,1,0,0:0:0:70:soft-hitwhistle4.wav
192,192,186452,1,0,0:0:0:70:Bell.wav
448,192,186452,1,0,0:0:0:0:
64,192,186707,1,0,0:0:0:0:
192,192,186793,1,0,0:0:0:70:R_J Hit Hollow.wav
320,192,186793,1,0,0:0:0:0:
448,192,186963,1,0,0:0:0:0:
320,192,187134,1,0,0:0:0:70:soft-hitwhistle4.wav
192,192,187134,1,0,0:0:0:70:Bell.wav
64,192,187134,1,0,0:0:0:0:
448,192,187219,1,0,0:0:0:0:
192,192,187389,1,0,0:0:0:0:
64,192,187474,1,0,0:0:0:70:R_J Hit Hollow.wav
320,192,187474,1,0,0:0:0:0:
192,192,187645,1,0,0:0:0:0:
64,192,187815,1,0,0:0:0:70:soft-hitwhistle4.wav
320,192,187815,1,0,0:0:0:70:Bell.wav
448,192,187815,1,0,0:0:0:70:R_J Finish Echo Low.wav
192,192,187986,1,0,0:0:0:0:
320,192,188156,1,0,0:0:0:70:R_J Hit Hollow.wav
448,192,188156,1,0,0:0:0:0:
64,192,188327,1,0,0:0:0:0:
192,192,188497,1,0,0:0:0:70:soft-hitwhistle4.wav
448,192,188497,1,0,0:0:0:70:Bell.wav
320,192,188497,1,0,0:0:0:0:
64,192,188668,1,0,0:0:0:0:
320,192,188838,1,0,0:0:0:70:R_J Hit Hollow.wav
448,192,188838,1,0,0:0:0:0:
192,192,188923,1,0,0:0:0:0:
64,192,189009,1,0,0:0:0:0:
320,192,189094,1,0,0:0:0:0:
192,192,189179,1,0,0:0:0:70:Bell.wav
64,192,189179,1,0,0:0:0:70:soft-hitfinish4.wav
448,192,189179,1,0,0:0:0:70:Cymbal.wav
320,192,189349,1,0,0:0:0:0:
192,192,189520,1,0,0:0:0:70:R_J Hit Hollow.wav
448,192,189520,1,0,0:0:0:0:
320,192,189690,1,0,0:0:0:0:
64,192,189861,1,0,0:0:0:70:soft-hitwhistle4.wav
192,192,189861,1,0,0:0:0:70:Bell.wav
448,192,189861,1,0,0:0:0:0:
320,192,190031,1,0,0:0:0:0:
64,192,190202,1,0,0:0:0:70:R_J Hit Hollow.wav
192,192,190202,1,0,0:0:0:0:
448,192,190372,1,0,0:0:0:0:
320,192,190543,1,0,0:0:0:70:soft-hitwhistle4.wav
192,192,190543,1,0,0:0:0:70:Bell.wav
64,192,190543,1,0,0:0:0:0:
448,192,190713,1,0,0:0:0:0:
64,192,190884,1,0,0:0:0:70:R_J Hit Hollow.wav
192,192,190884,1,0,0:0:0:0:
320,192,191054,1,0,0:0:0:0:
448,192,191139,1,0,0:0:0:0:
320,192,191224,1,0,0:0:0:70:soft-hitwhistle4.wav
64,192,191224,1,0,0:0:0:70:Bell.wav
192,192,191224,1,0,0:0:0:0:
448,192,191395,1,0,0:0:0:0:
192,192,191565,1,0,0:0:0:70:R_J Hit Hollow.wav
64,192,191565,1,0,0:0:0:0:
320,192,191651,1,0,0:0:0:0:
448,192,191736,1,0,0:0:0:0:
192,192,191821,1,0,0:0:0:0:
64,192,191906,1,0,0:0:0:70:soft-hitwhistle4.wav
320,192,191906,1,0,0:0:0:70:Bell.wav
448,192,191906,1,0,0:0:0:0:
192,192,192077,1,0,0:0:0:0:
320,192,192162,1,0,0:0:0:0:
448,192,192247,1,0,0:0:0:70:R_J Hit Hollow.wav
64,192,192247,1,0,0:0:0:0:
192,192,192418,1,0,0:0:0:0:
320,192,192588,1,0,0:0:0:70:soft-hitwhistle4.wav
448,192,192588,1,0,0:0:0:70:Bell.wav
64,192,192588,1,0,0:0:0:0:
192,192,192759,1,0,0:0:0:0:
448,192,192929,1,0,0:0:0:70:R_J Hit Hollow.wav
64,192,192929,1,0,0:0:0:0:
320,192,193099,1,0,0:0:0:0:
192,192,193270,1,0,0:0:0:70:Bell.wav
64,192,193270,1,0,0:0:0:70:soft-hitwhistle4.wav
448,192,193270,1,0,0:0:0:0:
320,192,193440,1,0,0:0:0:0:
192,192,193526,1,0,0:0:0:0:
64,192,193611,1,0,0:0:0:70:R_J Hit Hollow.wav
448,192,193611,1,0,0:0:0:0:
192,192,193781,1,0,0:0:0:0:
320,192,193952,1,0,0:0:0:70:Bell.wav
448,192,193952,1,0,0:0:0:70:soft-hitwhistle4.wav
64,192,193952,1,0,0:0:0:0:
192,192,194122,1,0,0:0:0:0:
448,192,194293,1,0,0:0:0:70:R_J Hit Hollow.wav
320,192,194293,1,0,0:0:0:0:
64,192,194463,1,0,0:0:0:0:
192,192,194634,1,0,0:0:0:70:soft-hitfinish4.wav
320,192,194634,1,0,0:0:0:70:soft-hitfinish.wav
448,192,194634,1,0,0:0:0:0:
64,192,194804,1,0,0:0:0:0:
448,192,194974,1,0,0:0:0:70:R_J Hit Hollow.wav
192,192,194974,1,0,0:0:0:0:
320,192,195145,1,0,0:0:0:0:
192,192,195315,1,0,0:0:0:70:Bell.wav
64,192,195315,1,0,0:0:0:70:soft-hitwhistle4.wav
448,192,195315,1,0,0:0:0:0:
320,192,195486,1,0,0:0:0:0:
192,192,195656,1,0,0:0:0:70:R_J Hit Hollow.wav
448,192,195656,1,0,0:0:0:0:
64,192,195827,1,0,0:0:0:0:
192,192,195997,1,0,0:0:0:70:Bell.wav
320,192,195997,1,0,0:0:0:70:soft-hitwhistle4.wav
448,192,195997,1,0,0:0:0:0:
64,192,196168,1,0,0:0:0:0:
448,192,196338,1,0,0:0:0:70:R_J Hit Hollow.wav
192,192,196338,1,0,0:0:0:0:
320,192,196509,1,0,0:0:0:0:
192,192,196679,1,0,0:0:0:70:Bell.wav
64,192,196679,1,0,0:0:0:70:soft-hitwhistle4.wav
448,192,196679,1,0,0:0:0:0:
320,192,196849,1,0,0:0:0:0:
64,192,197020,1,0,0:0:0:70:R_J Hit Hollow.wav
448,192,197020,1,0,0:0:0:0:
192,192,197190,1,0,0:0:0:0:
320,192,197361,1,0,0:0:0:70:Bell.wav
448,192,197361,1,0,0:0:0:70:soft-hitwhistle4.wav
64,192,197361,1,0,0:0:0:0:
192,192,197446,1,0,0:0:0:0:
320,192,197531,1,0,0:0:0:0:
64,192,197616,1,0,0:0:0:0:
192,192,197702,1,0,0:0:0:70:R_J Hit Hollow.wav
448,192,197702,1,0,0:0:0:0:
320,192,197872,1,0,0:0:0:0:
64,192,198043,1,0,0:0:0:70:Bell.wav
192,192,198043,1,0,0:0:0:70:soft-hitwhistle4.wav
448,192,198043,1,0,0:0:0:0:
320,192,198213,1,0,0:0:0:0:
192,192,198298,1,0,0:0:0:0:
448,192,198384,1,0,0:0:0:70:R_J Hit Hollow.wav
64,192,198384,1,0,0:0:0:0:
192,192,198554,1,0,0:0:0:0:
448,192,198724,1,0,0:0:0:70:Bell.wav
64,192,198724,1,0,0:0:0:70:soft-hitwhistle4.wav
320,192,198724,1,0,0:0:0:70:R_J Finish Echo Low.wav
192,192,198895,1,0,0:0:0:0:
320,192,199065,1,0,0:0:0:70:R_J Hit Hollow.wav
448,192,199065,1,0,0:0:0:0:
64,192,199151,1,0,0:0:0:0:
192,192,199236,1,0,0:0:0:0:
64,192,199406,1,0,0:0:0:70:Bell.wav
320,192,199406,1,0,0:0:0:70:soft-hitwhistle4.wav
448,192,199406,1,0,0:0:0:0:
192,192,199577,1,0,0:0:0:0:
64,192,199747,1,0,0:0:0:70:R_J Hit Hollow.wav
448,192,199747,1,0,0:0:0:0:
320,192,199832,1,0,0:0:0:0:
192,192,199918,1,0,0:0:0:0:
64,192,200003,1,0,0:0:0:0:
320,192,200088,1,0,0:0:0:70:soft-hitfinish4.wav
192,192,200088,1,0,0:0:0:70:soft-hitfinish.wav
448,192,200088,1,0,0:0:0:0:
64,192,200259,1,0,0:0:0:0:
192,192,200429,1,0,0:0:0:70:R_J Hit Hollow.wav
320,192,200429,1,0,0:0:0:0:
448,192,200599,1,0,0:0:0:0:
320,192,200770,1,0,0:0:0:50:Bell.wav
192,192,200770,1,0,0:0:0:70:soft-hitwhistle4.wav
64,192,200770,1,0,0:0:0:0:
448,192,200940,1,0,0:0:0:0:
64,192,201111,1,0,0:0:0:70:R_J Hit Hollow.wav
320,192,201111,1,0,0:0:0:0:
192,192,201281,1,0,0:0:0:0:
320,192,201452,1,0,0:0:0:50:Bell.wav
448,192,201452,1,0,0:0:0:70:soft-hitwhistle4.wav
64,192,201452,1,0,0:0:0:0:
192,192,201622,1,0,0:0:0:0:
320,192,201707,1,0,0:0:0:0:
64,192,201793,1,0,0:0:0:70:R_J Hit Hollow.wav
448,192,201793,1,0,0:0:0:0:
192,192,201878,1,0,0:0:0:0:
320,192,201963,1,0,0:0:0:0:
192,192,202134,1,0,0:0:0:50:Bell.wav
64,192,202134,1,0,0:0:0:70:soft-hitwhistle4.wav
448,192,202134,1,0,0:0:0:0:
320,192,202304,1,0,0:0:0:0:
192,192,202474,1,0,0:0:0:70:R_J Hit Hollow.wav
64,192,202474,1,0,0:0:0:0:
448,192,202560,1,0,0:0:0:0:
320,192,202645,1,0,0:0:0:0:
192,192,202730,1,0,0:0:0:0:
64,192,202815,1,0,0:0:0:50:Bell.wav
448,192,202815,1,0,0:0:0:70:soft-hitwhistle4.wav
320,192,202815,1,0,0:0:0:0:
192,192,202986,1,0,0:0:0:0:
320,192,203071,1,0,0:0:0:0:
64,192,203156,1,0,0:0:0:70:R_J Hit Hollow.wav
448,192,203156,1,0,0:0:0:0:
192,192,203327,1,0,0:0:0:0:
320,192,203412,1,0,0:0:0:0:
448,192,203497,1,0,0:0:0:50:Bell.wav
192,192,203497,1,0,0:0:0:70:soft-hitwhistle4.wav
64,192,203497,1,0,0:0:0:0:
320,192,203668,1,0,0:0:0:0:
64,192,203838,1,0,0:0:0:70:R_J Hit Hollow.wav
448,192,203838,1,0,0:0:0:0:
192,192,204009,1,0,0:0:0:0:
320,192,204179,1,0,0:0:0:50:Bell.wav
448,192,204179,1,0,0:0:0:70:soft-hitwhistle4.wav
64,192,204179,1,0,0:0:0:0:
192,192,204349,1,0,0:0:0:0:
320,192,204435,1,0,0:0:0:0:
448,192,204520,1,0,0:0:0:70:R_J Hit Hollow.wav
64,192,204520,1,0,0:0:0:0:
192,192,204690,1,0,0:0:0:0:
320,192,204861,1,0,0:0:0:50:Bell.wav
448,192,204861,1,0,0:0:0:70:soft-hitwhistle4.wav
64,192,204861,1,0,0:0:0:0:
192,192,205031,1,0,0:0:0:0:
64,192,205202,1,0,0:0:0:70:R_J Hit Hollow.wav
320,192,205202,1,0,0:0:0:0:
448,192,205287,1,0,0:0:0:0:
192,192,205372,1,0,0:0:0:0:
320,192,205543,1,0,0:0:0:50:Bell.wav
448,192,205543,1,0,0:0:0:70:soft-hitfinish4.wav
64,192,205543,1,0,0:0:0:0:
192,192,205628,1,0,0:0:0:0:
320,192,205713,1,0,0:0:0:0:
448,192,205884,1,0,0:0:0:70:R_J Hit Hollow.wav
192,192,205884,1,0,0:0:0:0:
64,192,206054,1,0,0:0:0:0:
192,192,206139,1,0,0:0:0:0:
64,192,206224,1,0,0:0:0:50:Bell.wav
448,192,206224,1,0,0:0:0:70:soft-hitwhistle4.wav
320,192,206224,1,0,0:0:0:0:
192,192,206395,1,0,0:0:0:0:
448,192,206565,1,0,0:0:0:70:R_J Hit Hollow.wav
64,192,206565,1,0,0:0:0:0:
192,192,206736,1,0,0:0:0:0:
64,192,206906,1,0,0:0:0:50:Bell.wav
320,192,206906,1,0,0:0:0:70:soft-hitwhistle4.wav
448,192,206906,1,0,0:0:0:0:
192,192,207077,1,0,0:0:0:0:
320,192,207247,1,0,0:0:0:70:R_J Hit Hollow.wav
448,192,207247,1,0,0:0:0:0:
192,192,207418,1,0,0:0:0:0:
64,192,207588,1,0,0:0:0:50:Bell.wav
320,192,207588,1,0,0:0:0:70:soft-hitwhistle4.wav
448,192,207588,1,0,0:0:0:0:
192,192,207759,1,0,0:0:0:0:
64,192,207929,1,0,0:0:0:70:R_J Hit Hollow.wav
448,192,207929,1,0,0:0:0:0:
320,192,208014,1,0,0:0:0:0:
192,192,208099,1,0,0:0:0:0:
64,192,208185,1,0,0:0:0:0:
192,192,208270,1,0,0:0:0:50:Bell.wav
320,192,208270,1,0,0:0:0:70:soft-hitwhistle4.wav
448,192,208270,1,0,0:0:0:0:
64,192,208440,1,0,0:0:0:0:
448,192,208611,1,0,0:0:0:70:R_J Hit Hollow.wav
320,192,208611,1,0,0:0:0:0:
192,192,208696,1,0,0:0:0:0:
64,192,208781,1,0,0:0:0:0:
320,192,208866,1,0,0:0:0:0:
192,192,208952,1,0,0:0:0:50:Bell.wav
448,192,208952,1,0,0:0:0:70:soft-hitwhistle4.wav
64,192,208952,1,0,0:0:0:0:
320,192,209122,1,0,0:0:0:0:
192,192,209207,1,0,0:0:0:0:
64,192,209293,1,0,0:0:0:70:R_J Hit Hollow.wav
448,192,209293,1,0,0:0:0:0:
192,192,209463,1,0,0:0:0:0:
64,192,209634,1,0,0:0:0:50:Bell.wav
320,192,209634,1,0,0:0:0:70:soft-hitwhistle4.wav
448,192,209634,1,0,0:0:0:0:
192,192,209804,1,0,0:0:0:0:
320,192,209974,1,0,0:0:0:70:R_J Hit Hollow.wav
448,192,209974,1,0,0:0:0:0:
64,192,209974,1,0,0:0:0:0:
192,192,210145,1,0,0:0:0:0:
64,192,210315,1,0,0:0:0:50:Bell.wav
320,192,210315,1,0,0:0:0:70:soft-hitwhistle4.wav
192,192,210486,1,0,0:0:0:0:
64,192,210656,1,0,0:0:0:70:R_J Hit Hollow.wav
448,192,210656,1,0,0:0:0:0:
192,192,210741,1,0,0:0:0:0:
320,192,210827,1,0,0:0:0:0:
64,192,210997,1,0,0:0:0:70:soft-hitwhistle5.wav
192,192,210997,1,0,0:0:0:70:R_J Finish Echo Low.wav
448,192,210997,1,0,0:0:0:0:
320,192,211338,1,0,0:0:0:0:
192,192,211509,1,0,0:0:0:0:
320,192,211679,1,0,0:0:0:70:soft-hitwhistle5.wav
448,192,211679,1,0,0:0:0:0:
64,192,211679,1,0,0:0:0:0:
192,192,212190,1,0,0:0:0:0:
320,192,212361,1,0,0:0:0:70:soft-hitwhistle5.wav
448,192,212361,1,0,0:0:0:0:
64,192,212361,1,0,0:0:0:0:
192,192,212531,1,0,0:0:0:0:
320,192,212702,1,0,0:0:0:0:
448,192,212702,1,0,0:0:0:0:
64,192,213043,1,0,0:0:0:70:soft-hitwhistle5.wav
192,192,213043,1,0,0:0:0:0:
448,192,213043,1,0,0:0:0:0:
320,192,213384,1,0,0:0:0:0:
192,192,213384,1,0,0:0:0:0:
64,192,213554,1,0,0:0:0:0:
192,192,213724,1,0,0:0:0:70:soft-hitwhistle5.wav
320,192,213724,1,0,0:0:0:0:
448,192,213724,1,0,0:0:0:0:
64,192,213895,1,0,0:0:0:0:
192,192,214065,1,0,0:0:0:20:LR3_Snare ShotH.wav
448,192,214065,1,0,0:0:0:0:
320,192,214236,1,0,0:0:0:0:
192,192,214406,1,0,0:0:0:20:LR3_Snare ShotH.wav
64,192,214406,1,0,0:0:0:70:soft-hitwhistle5.wav
448,192,214406,1,0,0:0:0:0:
320,192,214577,1,0,0:0:0:0:
192,192,214747,1,0,0:0:0:20:LR3_Snare ShotH.wav
64,192,214747,1,0,0:0:0:0:
320,192,214918,1,0,0:0:0:20:LR3_Snare ShotH.wav
192,192,215088,1,0,0:0:0:70:soft-hitwhistle5.wav
448,192,215088,1,0,0:0:0:0:
64,192,215088,1,0,0:0:0:0:
320,192,215259,1,0,0:0:0:30:LR3_Snare ShotH.wav
64,192,215344,1,0,0:0:0:0:
192,192,215429,1,0,0:0:0:30:LR3_Snare ShotH.wav
448,192,215429,1,0,0:0:0:0:
64,192,215770,1,0,0:0:0:30:LR3_Snare ShotH.wav
192,192,215770,1,0,0:0:0:70:soft-hitwhistle5.wav
320,192,215770,1,0,0:0:0:0:
448,192,215940,1,0,0:0:0:0:
320,192,216111,1,0,0:0:0:30:LR3_Snare ShotH.wav
192,192,216111,1,0,0:0:0:0:
64,192,216281,1,0,0:0:0:30:LR3_Snare ShotH.wav
448,192,216452,128,0,216963:0:0:0:0:
192,192,216452,1,0,0:0:0:30:LR3_Snare ShotH.wav
320,192,216452,1,0,0:0:0:70:soft-hitwhistle5.wav
64,192,216793,1,0,0:0:0:50:LR3_Snare ShotH.wav
192,192,216963,1,0,0:0:0:0:
320,192,217134,1,0,0:0:0:50:LR3_Snare ShotH.wav
64,192,217134,1,0,0:0:0:70:soft-hitwhistle5.wav
448,192,217304,1,0,0:0:0:0:
64,192,217474,1,0,0:0:0:0:
192,192,217474,1,0,0:0:0:0:
320,192,217645,1,0,0:0:0:50:LR3_Snare ShotH.wav
64,192,217815,1,0,0:0:0:50:LR3_Snare ShotH.wav
448,192,217815,1,0,0:0:0:70:soft-hitwhistle5.wav
192,192,217815,1,0,0:0:0:0:
320,192,217986,1,0,0:0:0:0:
448,192,218156,1,0,0:0:0:50:LR3_Snare ShotH.wav
192,192,218156,1,0,0:0:0:0:
320,192,218327,1,0,0:0:0:0:
64,192,218497,1,0,0:0:0:50:LR3_Snare ShotH.wav
448,192,218497,1,0,0:0:0:70:soft-hitwhistle5.wav
192,192,218497,1,0,0:0:0:0:
320,192,218668,1,0,0:0:0:0:
448,192,218838,1,0,0:0:0:50:LR3_Snare ShotH.wav
64,192,218838,1,0,0:0:0:0:
192,192,219009,1,0,0:0:0:50:LR3_Snare ShotH.wav
320,192,219094,1,0,0:0:0:50:LR3_Snare ShotH.wav
448,192,219179,1,0,0:0:0:50:LR3_Snare ShotH.wav
64,192,219179,1,0,0:0:0:70:soft-hitwhistle5.wav
192,192,219179,1,0,0:0:0:0:
320,192,219520,1,0,0:0:0:50:LR3_Snare ShotH.wav
192,192,219520,1,0,0:0:0:0:
64,192,219690,1,0,0:0:0:0:
192,192,219861,1,0,0:0:0:50:LR3_Snare ShotH.wav
448,192,219861,1,0,0:0:0:70:soft-hitwhistle5.wav
320,192,219861,1,0,0:0:0:0:
64,192,220031,1,0,0:0:0:0:
192,192,220202,1,0,0:0:0:50:LR3_Snare ShotH.wav
448,192,220202,1,0,0:0:0:0:
320,192,220372,1,0,0:0:0:50:LR3_Snare ShotH.wav
64,192,220543,1,0,0:0:0:50:LR3_Snare ShotH.wav
448,192,220543,1,0,0:0:0:70:soft-hitwhistle5.wav
192,192,220543,1,0,0:0:0:0:
320,192,220713,1,0,0:0:0:0:
64,192,220884,128,0,221224:0:0:0:50:LR3_Snare ShotH.wav
192,192,221224,1,0,0:0:0:50:LR3_Snare ShotH.wav
320,192,221224,1,0,0:0:0:70:soft-hitwhistle5.wav
448,192,221394,1,0,0:0:0:50:LR3_Snare ShotH.wav
64,192,221564,1,0,0:0:0:50:LR3_Snare ShotH.wav
320,192,221564,1,0,0:0:0:0:
192,192,221564,1,0,0:0:0:0:
448,192,221735,1,0,0:0:0:50:LR3_Snare ShotH.wav
320,192,221832,1,0,0:0:0:50:LR3_Snare ShotH.wav
64,192,221929,1,0,0:0:0:50:LR3_Snare ShotH.wav
192,192,222027,1,0,0:0:0:50:LR3_Snare ShotH.wav
320,192,222124,1,0,0:0:0:50:LR3_Snare ShotH.wav
448,192,222222,1,0,0:0:0:50:LR3_Snare ShotH.wav
64,192,222319,1,0,0:0:0:50:LR3_Snare ShotH.wav
