osu file format v14

[General]
AudioFilename: audio.mp3
AudioLeadIn: 0
PreviewTime: 101651
Countdown: 0
SampleSet: Soft
StackLeniency: 0.7
Mode: 0
LetterboxInBreaks: 0
WidescreenStoryboard: 0

[Editor]
Bookmarks: 123628,134538,156356,178168,189077,199986,210901
DistanceSpacing: 0.1
BeatDivisor: 4
GridSize: 16
TimelineZoom: 1.500001

[Metadata]
Title:AIWAGUMA
TitleUnicode:AIWAGUMA
Artist:illion
ArtistUnicode:illion
Creator:Ellyu
Version:Hard
Source:
Tags:UBU Yojiro Noda 野田洋次郎 Folk Rock _Yiiiii Pata-Mon Tenshichan Superstar Tofu1222 Antalf handsome muscle
BeatmapID:1241508
BeatmapSetID:533037

[Difficulty]
HPDrainRate:5
CircleSize:4
OverallDifficulty:5.5
ApproachRate:8
SliderMultiplier:1.2
SliderTickRate:1

[Events]
//Background and Video events
0,0,"49389130_p0.png",0,0
//Break Periods
2,134834,135921
2,137902,138648
2,140629,141375
2,143356,144103
//Storyboard Layer 0 (Background)
//Storyboard Layer 1 (Fail)
//Storyboard Layer 2 (Pass)
//Storyboard Layer 3 (Foreground)
//Storyboard Sound Samples

[TimingPoints]
-366,340.909090909091,4,1,0,30,1,0
827,-100,4,2,1,30,0,0
997,-111.111111111111,4,2,1,30,0,0
3724,-111.111111111111,4,2,2,30,0,0
3810,-111.111111111111,4,2,1,30,0,0
9179,-111.111111111111,4,2,2,30,0,0
9265,-111.111111111111,4,2,1,30,0,0
11565,-111.111111111111,4,2,99,25,0,0
11651,-111.111111111111,4,2,1,40,0,0
21963,-111.111111111111,4,2,4,40,0,0
22474,-111.111111111111,4,2,99,25,0,0
22560,-111.111111111111,4,2,4,50,0,0
22815,-100,4,2,4,50,0,0
77361,-100,4,2,5,50,0,0
87503,-133.333333333333,4,2,10,50,0,0
88270,-100,4,2,4,50,0,0
100116,-100,4,2,10,50,0,0
100457,-100,4,2,11,50,0,0
100628,-100,4,2,4,50,0,0
101224,-90.9090909090909,4,2,4,50,0,0
101565,-83.3333333333333,4,2,4,50,0,0
101906,-83.3333333333333,4,2,4,50,0,1
123724,-90.9090909090909,4,2,4,50,0,0
134719,-125,4,2,4,30,0,0
145543,-90.9090909090909,4,2,4,50,0,0
154747,-166.666666666667,4,2,4,50,0,0
155770,-200,4,2,10,30,0,0
156452,-83.3333333333333,4,2,4,60,0,0
177929,-66.6666666666667,4,2,4,60,0,0
178270,-83.3333333333333,4,2,4,60,0,1
200088,-83.3333333333333,4,2,4,60,0,0
210997,-100,4,2,4,50,0,0
220884,389.61038961039,4,2,4,50,1,0
221224,340.909090909091,4,2,4,50,1,0
221735,389.61038961039,4,2,4,50,1,0

[Colours]
Combo1 : 193,124,239
Combo2 : 112,252,231
Combo3 : 0,105,234
Combo4 : 180,183,241
Combo5 : 251,89,239

[HitObjects]
179,100,827,5,0,0:0:0:0:
179,100,997,2,0,P|231:75|296:92,1,107.999996704102,2|0,0:0|0:0,0:0:0:0:
376,72,1509,1,0,0:0:0:0:
376,72,1679,2,0,P|374:129|369:186,1,107.999996704102
253,243,2361,6,0,B|237:298|237:298|266:365,1,107.999996704102,2|0,0:0|0:0,0:0:0:0:
332,294,2872,1,0,0:0:0:0:
253,243,3043,2,0,P|206:236|150:261,1,107.999996704102
30,352,3724,6,0,L|45:172,1,161.999995056153,2|0,0:0|0:0,0:0:0:0:
53,109,4406,1,0,0:0:0:0:
53,109,4747,2,0,L|121:96,1,53.9999983520508
193,45,5088,6,0,P|210:89|191:157,1,107.999996704102,2|0,0:0|0:0,0:0:0:0:
146,219,5599,1,0,0:0:0:0:
146,219,5770,2,0,B|192:236|192:236|255:220,1,107.999996704102
355,183,6452,6,0,B|370:154|370:154|362:61,1,107.999996704102,2|0,0:0|0:0,0:0:0:0:
309,12,6963,1,0,0:0:0:0:
309,12,7134,2,0,P|348:-6|417:10,1,107.999996704102
463,106,7815,6,0,B|446:131|446:131|452:208,1,107.999996704102,2|0,0:0|0:0,0:0:0:0:
512,276,8326,1,0,0:0:0:0:
512,276,8497,2,0,P|470:298|405:282,1,107.999996704102
260,261,9179,6,0,L|139:276,2,107.999996704102,2|0|0,0:0|0:0|0:0,0:0:0:0:
260,261,10202,2,0,P|259:224|252:198,1,53.9999983520508
174,178,10543,6,0,P|171:127|182:69,1,107.999996704102
340,0,11224,2,0,L|399:5,1,53.9999983520508
413,85,11565,2,0,L|480:78,1,53.9999983520508,4|0,0:0|0:0,0:0:0:0:
496,165,11906,6,0,B|476:213|476:213|491:275,1,107.999996704102,6|0,0:0|0:0,0:0:0:0:
354,365,12588,2,0,B|374:317|374:317|359:255,1,107.999996704102
245,173,13270,6,0,P|203:178|185:191,1,53.9999983520508
136,233,13611,2,0,L|147:112,2,107.999996704102,0|8|0,0:0|0:0|0:0,0:0:0:0:
58,272,14463,1,0,0:0:0:0:
58,272,14634,6,0,B|63:319|63:319|76:338|76:338|83:383,1,107.999996704102,2|0,0:0|0:0,0:0:0:0:
183,375,15145,2,0,B|188:337|188:337|201:318|201:318|206:271,1,107.999996704102
240,179,15656,2,0,P|268:173|312:172,1,53.9999983520508
371,221,15997,6,0,P|384:165|356:105,2,107.999996704102,2|0|0,0:0|0:0|0:0,0:0:0:0:
371,221,17020,2,0,P|355:264|357:291,1,53.9999983520508,8|0,0:0|0:0,0:0:0:0:
410,337,17361,6,0,L|282:319,1,107.999996704102,6|0,0:0|0:0,0:0:0:0:
228,254,17872,1,0,0:0:0:0:
228,254,18043,2,0,L|107:264,1,107.999996704102
43,141,18724,6,0,L|106:151,1,53.9999983520508
176,124,19065,2,0,P|188:88|154:5,2,107.999996704102,0|8|0,0:0|0:0|0:0,0:0:0:0:
92,243,20088,6,0,B|146:262|146:262|215:237,1,107.999996704102,2|0,0:0|0:0,0:0:0:0:
263,166,20599,2,0,B|317:161|317:161|387:192,1,107.999996704102
437,246,21111,2,0,P|459:209|459:185,1,53.9999983520508
353,261,21452,6,0,B|348:350|348:350|363:332,1,107.999996704102,2|0,0:0|0:0,0:0:0:0:
437,337,21963,2,8,L|482:343,1,26.9999991760254
507,321,22134,6,0,P|518:300|517:256,1,53.9999983520508,8|0,0:0|0:0,0:0:0:0:
437,246,22474,2,0,P|459:209|459:185,1,53.9999983520508,4|0,0:0|0:0,0:0:0:0:
408,113,22815,6,0,L|288:121,1,120,6|0,0:0|0:0,0:0:0:0:
222,58,23327,1,0,0:0:0:0:
222,58,23497,2,0,P|198:104|212:171,1,120,8|0,0:0|0:0,0:0:0:0:
277,235,24009,1,8,0:0:0:0:
277,235,24179,6,0,L|256:305,1,60,2|0,0:0|0:0,0:0:0:0:
234,374,24520,1,8,0:0:0:0:
105,290,24861,2,0,L|126:220,1,60,2|0,0:0|0:0,0:0:0:0:
148,151,25202,1,8,0:0:0:0:
291,56,25543,6,0,P|334:38|423:59,1,120,2|0,0:0|0:0,0:0:0:0:
463,116,26054,1,0,0:0:0:0:
463,116,26224,2,0,L|450:251,1,120,8|0,0:0|0:0,0:0:0:0:
357,230,26736,1,8,0:0:0:0:
357,230,26906,6,0,L|369:303,1,60,2|0,0:0|0:0,0:0:0:0:
389,377,27247,1,8,0:0:0:0:
253,288,27588,6,0,P|211:281|183:291,1,60,2|0,0:0|0:0,0:0:0:0:
117,347,27929,2,0,P|84:338|64:323,1,60,8|0,0:0|0:0,0:0:0:0:
32,232,28270,5,2,0:0:0:0:
32,232,28440,2,0,B|21:133|21:133|37:147,1,120
128,196,28952,2,0,B|129:97|129:97|144:115,1,120,8|0,0:0|0:0,0:0:0:0:
224,181,29463,1,8,0:0:0:0:
224,181,29634,6,0,P|277:191|291:186,1,60,2|0,0:0|0:0,0:0:0:0:
372,155,29974,1,8,0:0:0:0:
499,20,30315,2,0,P|446:30|432:25,1,60,2|0,0:0|0:0,0:0:0:0:
351,68,30655,1,8,0:0:0:0:
205,13,30997,6,0,P|180:35|181:139,1,120,2|0,0:0|0:0,0:0:0:0:
229,189,31509,1,0,0:0:0:0:
229,189,31679,2,0,L|234:248,1,60,8|0,0:0|0:0,0:0:0:0:
147,257,32020,2,0,L|138:336,1,60,8|0,0:0|0:0,0:0:0:0:
258,331,32361,6,0,P|306:298|320:241,2,120,2|8|8,0:0|0:0|0:0,0:0:0:0:
70,291,33384,2,0,L|58:334,3,30,8|0|0|0,0:0|0:0|0:0|0:0,0:0:0:0:
49,250,33724,6,0,B|33:227|36:178,1,60,6|0,0:0|0:0,0:0:0:0:
30,99,34065,2,0,P|64:120|104:125,1,60
154,75,34406,2,0,P|197:61|273:92,1,120,8|0,0:0|0:0,0:0:0:0:
321,152,34918,1,0,0:0:0:0:
321,152,35088,6,0,L|309:226,1,60,2|0,0:0|0:0,0:0:0:0:
404,113,35429,2,0,L|405:190,1,60,8|0,0:0|0:0,0:0:0:0:
476,56,35770,2,0,L|493:182,1,120,2|0,0:0|0:0,0:0:0:0:
425,278,36452,6,0,B|397:260|397:260|359:269,1,60,2|0,0:0|0:0,0:0:0:0:
304,336,36793,2,0,B|334:347|334:347|372:338,1,60
282,252,37134,2,0,P|237:282|220:358,1,120,8|0,0:0|0:0,0:0:0:0:
144,384,37645,1,0,0:0:0:0:
144,384,37815,6,0,P|117:323|66:305,1,120,2|0,0:0|0:0,0:0:0:0:
24,152,38497,2,0,L|-2:292,1,120,2|0,0:0|0:0,0:0:0:0:
126,169,39179,6,0,B|160:181|198:174,1,60,2|0,0:0|0:0,0:0:0:0:
236,107,39520,2,0,P|280:101|316:110,1,60,8|0,0:0|0:0,0:0:0:0:
375,68,39861,2,0,L|369:146,1,60,2|0,0:0|0:0,0:0:0:0:
446,173,40202,2,0,L|458:257,1,60,8|0,0:0|0:0,0:0:0:0:
389,303,40543,5,2,0:0:0:0:
389,303,40713,1,0,0:0:0:0:
310,241,40884,2,0,P|239:233|188:284,1,120,8|0,0:0|0:0,0:0:0:0:
89,138,41565,6,0,P|138:141|161:155,1,60,12|0,0:0|0:0,0:0:0:0:
230,119,41906,1,2,0:0:0:0:
230,119,42247,6,0,P|279:122|302:136,1,60,8|0,0:0|0:0,0:0:0:0:
371,100,42588,1,2,0:0:0:0:
371,100,42929,6,0,L|376:24,1,60,12|0,0:0|0:0,0:0:0:0:
475,5,43270,1,4,0:0:0:0:
475,5,43611,6,0,L|470:81,1,60,12|0,0:0|0:0,0:0:0:0:
371,100,43952,2,0,L|387:185,1,60,6|0,0:0|0:0,0:0:0:0:
460,210,44293,1,8,0:0:0:0:
460,210,44463,1,8,0:0:0:0:
373,250,44634,6,0,B|336:223|336:223|294:216|256:247,1,120,6|0,0:0|0:0,0:0:0:0:
182,291,45145,1,0,0:0:0:0:
182,291,45315,2,0,B|196:376|196:376|149:358,1,120,8|0,0:0|0:0,0:0:0:0:
94,290,45827,1,8,0:0:0:0:
94,290,45997,6,0,L|98:216,1,60,2|0,0:0|0:0,0:0:0:0:
25,167,46338,2,0,L|37:93,1,60,8|0,0:0|0:0,0:0:0:0:
121,59,46679,2,0,L|111:-1,2,60,2|0|0,0:0|0:0|0:0,0:0:0:0:
178,131,47190,1,0,0:0:0:0:
178,131,47361,6,0,P|239:93|291:113,1,120,2|0,0:0|0:0,0:0:0:0:
355,167,47872,1,8,0:0:0:0:
355,167,48043,2,0,B|363:136|363:136|357:91,1,60,2|0,0:0|0:0,0:0:0:0:
428,211,48384,2,0,B|443:188|443:188|456:133,1,60
480,290,48724,5,2,0:0:0:0:
480,290,48895,1,0,0:0:0:0:
396,319,49065,2,0,P|354:328|313:316,1,60,8|0,0:0|0:0,0:0:0:0:
267,368,49406,2,0,L|255:231,1,120,8|0,0:0|0:0,0:0:0:0:
181,103,50088,6,0,P|149:101|94:186,1,120,2|0,0:0|0:0,0:0:0:0:
105,248,50599,1,0,0:0:0:0:
105,248,50770,2,0,L|183:237,1,60,8|0,0:0|0:0,0:0:0:0:
235,174,51111,2,0,L|304:178,1,60
380,133,51452,6,0,P|361:110|351:74,2,60,2|0|0,0:0|0:0|0:0,0:0:0:0:
440,204,51963,1,8,0:0:0:0:
440,204,52134,2,0,B|451:231|451:231|439:342,1,120,2|0,0:0|0:0,0:0:0:0:
263,291,52815,6,0,P|217:284|135:315,1,120,2|0,0:0|0:0,0:0:0:0:
69,349,53327,1,8,0:0:0:0:
69,349,53497,2,0,B|46:316|46:316|58:226,1,120,2|0,0:0|0:0,0:0:0:0:
34,150,54009,1,0,0:0:0:0:
34,150,54179,6,0,P|70:154|99:151,1,60,6|0,0:0|0:0,0:0:0:0:
159,69,54520,2,4,P|110:59|90:59,1,60,12|4,0:0|0:0,0:0:0:0:
93,152,54861,2,0,P|153:180|201:166,1,90,6|0,0:0|0:0,0:0:0:0:
210,153,55202,2,0,L|220:102,3,30,8|0|0|0,0:0|0:0|0:0|0:0,0:0:0:0:
250,133,55543,6,0,L|229:276,1,120,6|0,0:0|0:0,0:0:0:0:
295,328,56054,1,8,0:0:0:0:
295,328,56224,2,0,P|356:352|412:319,1,120,2|0,0:0|0:0,0:0:0:0:
440,238,56736,1,0,0:0:0:0:
440,238,56906,6,0,P|365:216|313:245,1,120,2|0,0:0|0:0,0:0:0:0:
234,249,57418,1,0,0:0:0:0:
234,249,57588,2,0,L|224:189,1,60,8|0,0:0|0:0,0:0:0:0:
147,267,57929,2,0,L|163:334,1,60,8|0,0:0|0:0,0:0:0:0:
68,282,58270,6,0,B|63:240|89:211|89:211|97:157,1,120,2|0,0:0|0:0,0:0:0:0:
29,102,58781,1,8,0:0:0:0:
29,102,58952,2,0,B|22:69|22:69|38:27,1,60,2|0,0:0|0:0,0:0:0:0:
118,11,59293,2,0,B|127:45|127:45|122:75,1,60,8|0,0:0|0:0,0:0:0:0:
191,139,59634,6,0,P|224:163|261:163,1,60,2|0,0:0|0:0,0:0:0:0:
320,118,59974,1,8,0:0:0:0:
320,118,60145,1,8,0:0:0:0:
375,197,60315,2,0,L|361:338,1,120,2|0,0:0|0:0,0:0:0:0:
495,216,60997,6,0,L|472:77,1,120,2|0,0:0|0:0,0:0:0:0:
416,18,61509,1,8,0:0:0:0:
416,18,61679,2,0,P|358:13|339:26,1,60,2|0,0:0|0:0,0:0:0:0:
289,83,62020,2,0,P|251:89|224:74,1,60,8|0,0:0|0:0,0:0:0:0:
145,20,62361,5,2,0:0:0:0:
145,20,62531,1,0,0:0:0:0:
75,91,62702,2,0,L|82:224,1,120,8|0,0:0|0:0,0:0:0:0:
176,223,63213,1,0,0:0:0:0:
176,223,63384,2,0,B|186:245|186:245|175:297,1,60,8|0,0:0|0:0,0:0:0:0:
104,336,63724,6,0,P|138:361|170:366,1,60,2|0,0:0|0:0,0:0:0:0:
249,342,64065,2,0,P|283:361|310:360,1,60
377,307,64406,2,0,B|367:274|367:274|377:226,1,60,2|0,0:0|0:0,0:0:0:0:
453,202,64747,2,0,B|463:173|463:173|458:124,1,60,8|0,0:0|0:0,0:0:0:0:
373,164,65088,6,0,P|325:184|254:135,1,120,2|0,0:0|0:0,0:0:0:0:
203,78,65599,2,8,L|150:68,2,30
277,23,65940,1,0,0:0:0:0:
372,48,66111,2,0,L|442:37,1,60
323,109,66452,6,0,P|340:150|301:226,1,120,6|0,0:0|0:0,0:0:0:0:
229,256,66963,1,8,0:0:0:0:
229,256,67134,2,0,B|148:236|148:236|95:252,1,120,2|0,0:0|0:0,0:0:0:0:
61,318,67645,1,0,0:0:0:0:
61,318,67815,6,0,L|77:404,1,60,2|0,0:0|0:0,0:0:0:0:
0,253,68156,1,8,0:0:0:0:
0,253,68327,1,8,0:0:0:0:
59,182,68497,2,0,L|84:56,1,120,2|0,0:0|0:0,0:0:0:0:
240,36,69179,6,0,P|301:35|352:88,1,120,2|0,0:0|0:0,0:0:0:0:
436,40,69690,1,0,0:0:0:0:
436,40,69861,2,0,L|445:171,1,120,8|0,0:0|0:0,0:0:0:0:
501,231,70372,1,0,0:0:0:0:
501,231,70543,6,0,P|452:245|432:238,1,60,2|0,0:0|0:0,0:0:0:0:
422,322,70884,2,0,P|381:294|374:274,1,60,8|0,0:0|0:0,0:0:0:0:
331,203,71224,6,0,L|324:126,1,60,2|0,0:0|0:0,0:0:0:0:
256,256,71565,2,0,L|248:184,1,60
194,318,71906,6,0,P|163:283|84:271,1,120,2|0,0:0|0:0,0:0:0:0:
19,200,72418,1,0,0:0:0:0:
19,200,72588,2,0,P|73:177|97:113,1,120,8|0,0:0|0:0,0:0:0:0:
60,44,73099,1,0,0:0:0:0:
60,44,73270,6,0,L|127:33,1,60,2|0,0:0|0:0,0:0:0:0:
204,88,73611,2,0,P|216:61|218:17,1,60,8|0,0:0|0:0,0:0:0:0:
262,153,73952,2,0,P|296:128|309:97,1,60
304,234,74293,1,8,0:0:0:0:
304,234,74463,1,8,0:0:0:0:
210,225,74634,6,0,P|186:196|193:104,1,120,2|0,0:0|0:0,0:0:0:0:
266,68,75145,1,0,0:0:0:0:
266,68,75315,2,0,L|139:58,1,120,8|0,0:0|0:0,0:0:0:0:
24,132,75997,6,8,L|13:81,2,30
7,218,76338,2,0,L|24:302,1,60,8|0,0:0|0:0,0:0:0:0:
107,333,76679,2,0,P|132:342|175:334,1,60,2|0,0:0|0:0,0:0:0:0:
199,263,77020,2,0,P|155:251|119:257,1,60,8|0,0:0|0:0,0:0:0:0:
79,334,77361,5,2,0:0:0:0:
59,320,78043,1,2,0:0:0:0:
53,296,78724,1,2,0:0:0:0:
49,272,79406,1,8,0:0:0:0:
63,163,80088,5,2,0:0:0:0:
84,152,80770,1,2,0:0:0:0:
107,147,81452,1,2,0:0:0:0:
130,150,82134,1,8,0:0:0:0:
276,94,82815,5,2,0:0:0:0:
279,117,83497,1,2,0:0:0:0:
282,140,84179,1,2,0:0:0:0:
285,163,84861,1,8,0:0:0:0:
312,278,85543,5,2,0:0:0:0:
335,277,86224,1,8,0:0:0:0:
357,268,86906,1,8,0:0:0:0:
379,250,87588,6,0,P|429:285|391:349,1,135.000005149841,4|0,0:0|0:0,0:0:0:0:
323,347,88270,6,0,L|252:359,1,60,6|0,0:0|0:0,0:0:0:0:
192,302,88611,2,0,L|126:315,1,60
67,374,88952,2,0,P|43:322|64:261,1,120,8|0,0:0|0:0,0:0:0:0:
137,216,89463,1,0,0:0:0:0:
137,216,89634,6,0,L|130:141,1,60,2|0,0:0|0:0,0:0:0:0:
42,91,89974,2,0,L|46:173,1,60
132,74,90315,2,0,P|172:79|212:167,1,120,8|0,0:0|0:0,0:0:0:0:
339,242,90997,6,0,B|371:251|371:251|421:244,1,60,2|0,0:0|0:0,0:0:0:0:
474,287,91338,2,0,B|488:258|488:258|485:212,1,60
411,163,91679,2,0,P|389:134|404:51,1,120,8|0,0:0|0:0,0:0:0:0:
472,105,92190,1,8,0:0:0:0:
472,105,92361,6,0,L|550:92,1,60,2|0,0:0|0:0,0:0:0:0:
512,192,92702,2,0,L|429:202,1,60
358,153,93043,2,0,B|319:185|319:185|241:167,1,120,8|0,0:0|0:0,0:0:0:0:
182,115,93554,1,8,0:0:0:0:
182,115,93724,6,0,P|144:89|135:61,1,60,2|0,0:0|0:0,0:0:0:0:
200,15,94065,2,0,P|226:28|247:60,1,60
318,97,94406,2,0,P|333:63|318:20,1,60,8|0,0:0|0:0,0:0:0:0:
414,10,94747,2,0,P|419:50|411:84,1,60
473,138,95088,6,0,L|484:208,1,60,2|0,0:0|0:0,0:0:0:0:
412,268,95429,2,0,L|398:199,1,60,2|0,0:0|0:0,0:0:0:0:
336,313,95770,2,0,P|295:282|229:291,1,120,8|0,0:0|0:0,0:0:0:0:
157,340,96281,1,8,0:0:0:0:
157,340,96452,6,0,L|92:334,1,60,2|0,0:0|0:0,0:0:0:0:
60,248,96793,2,0,L|133:257,1,60,2|0,0:0|0:0,0:0:0:0:
187,189,97134,2,0,P|214:155|200:65,1,120,8|0,0:0|0:0,0:0:0:0:
137,29,97645,1,8,0:0:0:0:
137,29,97815,5,2,0:0:0:0:
68,146,98156,6,0,L|83:291,1,120,8|2,0:0|0:0,0:0:0:0:
64,167,98838,6,0,L|79:312,1,120,8|2,0:0|0:0,0:0:0:0:
59,189,99520,6,0,L|74:334,1,120,8|2,0:0|0:0,0:0:0:0:
213,253,100202,5,8,0:0:0:0:
217,228,100543,5,8,0:0:0:0:
415,207,100884,6,0,L|429:277,1,60,6|0,0:0|0:0,0:0:0:0:
415,345,101224,2,0,L|349:319,1,66.0000020141602,4|0,0:0|0:0,0:0:0:0:
285,275,101565,2,0,L|349:226,1,71.9999978027344,4|0,0:0|0:0,0:0:0:0:
435,259,101906,6,0,L|407:110,1,143.999995605469,6|0,0:0|0:0,0:0:0:0:
464,49,102418,1,8,0:0:0:0:
385,23,102588,2,0,P|346:17|264:81,1,143.999995605469,2|0,0:0|0:0,0:0:0:0:
289,153,103099,1,0,0:0:0:0:
206,152,103270,6,0,L|202:246,1,71.9999978027344,2|0,0:0|0:0,0:0:0:0:
115,160,103611,2,0,L|103:81,1,71.9999978027344
36,208,103952,2,0,B|54:239|76:252|109:254|109:254|114:337,1,143.999995605469,2|0,0:0|0:0,0:0:0:0:
172,376,104463,1,8,0:0:0:0:
206,295,104634,6,0,P|263:285|350:358,1,143.999995605469,6|0,0:0|0:0,0:0:0:0:
428,363,105145,1,0,0:0:0:0:
417,277,105315,2,0,B|426:163|426:163|397:191,1,143.999995605469,8|0,0:0|0:0,0:0:0:0:
307,221,105827,1,8,0:0:0:0:
315,122,105997,6,0,P|290:84|265:62,1,71.9999978027344,2|0,0:0|0:0,0:0:0:0:
393,78,106338,2,0,P|411:42|444:22,1,71.9999978027344,8|0,0:0|0:0,0:0:0:0:
477,102,106679,1,2,0:0:0:0:
477,102,106849,1,0,0:0:0:0:
474,190,107020,2,0,P|434:193|382:167,1,71.9999978027344,8|0,0:0|0:0,0:0:0:0:
315,123,107361,6,0,L|158:138,1,143.999995605469,6|0,0:0|0:0,0:0:0:0:
150,220,107872,1,8,0:0:0:0:
238,242,108043,2,0,P|257:205|252:165,1,71.9999978027344,2|0,0:0|0:0,0:0:0:0:
138,229,108384,2,0,P|126:277|133:312,1,71.9999978027344,8|0,0:0|0:0,0:0:0:0:
218,346,108724,6,0,L|375:331,1,143.999995605469,2|0,0:0|0:0,0:0:0:0:
383,249,109235,1,0,0:0:0:0:
295,227,109406,2,0,P|276:264|281:304,1,71.9999978027344,2|0,0:0|0:0,0:0:0:0:
395,240,109747,2,0,P|407:192|400:157,1,71.9999978027344,8|0,0:0|0:0,0:0:0:0:
326,114,110088,6,0,L|500:133,2,143.999995605469,6|0|0,0:0|0:0|0:0,0:0:0:0:
160,35,111111,2,0,L|73:47,1,71.9999978027344,2|0,0:0|0:0,0:0:0:0:
2,84,111452,6,0,B|44:118|44:118|35:216,1,143.999995605469,2|0,0:0|0:0,0:0:0:0:
123,230,111963,1,8,0:0:0:0:
123,230,112134,2,0,P|138:189|188:172,1,71.9999978027344,2|0,0:0|0:0,0:0:0:0:
241,234,112474,2,0,P|226:275|176:292,1,71.9999978027344,2|0,0:0|0:0,0:0:0:0:
103,315,112815,6,0,P|55:290|39:197,1,143.999995605469,6|0,0:0|0:0,0:0:0:0:
76,123,113327,1,0,0:0:0:0:
76,123,113497,2,0,L|234:141,1,143.999995605469,8|0,0:0|0:0,0:0:0:0:
292,96,114009,1,8,0:0:0:0:
379,98,114179,6,0,P|424:87|453:66,1,71.9999978027344,2|0,0:0|0:0,0:0:0:0:
383,182,114520,2,0,P|439:192|464:189,1,71.9999978027344,8|0,0:0|0:0,0:0:0:0:
352,263,114861,2,0,P|398:295|424:310,1,71.9999978027344,8|0,0:0|0:0,0:0:0:0:
289,322,115202,1,8,0:0:0:0:
289,322,115372,1,8,0:0:0:0:
271,237,115543,6,0,P|294:195|397:191,1,143.999995605469,6|0,0:0|0:0,0:0:0:0:
458,252,116054,1,8,0:0:0:0:
405,334,116224,2,0,L|326:320,1,71.9999978027344,2|0,0:0|0:0,0:0:0:0:
244,351,116565,2,0,L|160:332,1,71.9999978027344,8|0,0:0|0:0,0:0:0:0:
98,277,116906,5,2,0:0:0:0:
98,277,117077,1,0,0:0:0:0:
41,339,117247,2,8,P|15:300|42:209,1,143.999995605469,0|0,0:0|0:0,0:0:0:0:
41,122,117759,2,8,L|-12:101,2,35.9999989013672
117,164,118099,1,0,0:0:0:0:
41,122,118270,6,0,B|66:76|66:76|163:62,1,143.999995605469,6|0,0:0|0:0,0:0:0:0:
237,123,118781,1,0,0:0:0:0:
297,50,118952,2,0,B|322:96|322:96|419:110,1,143.999995605469,8|0,0:0|0:0,0:0:0:0:
491,53,119463,1,0,0:0:0:0:
494,149,119634,6,0,L|502:222,1,71.9999978027344,2|0,0:0|0:0,0:0:0:0:
433,287,119974,2,0,L|412:211,1,71.9999978027344,8|0,0:0|0:0,0:0:0:0:
348,296,120315,2,0,L|386:382,1,71.9999978027344
461,371,120656,1,8,0:0:0:0:
461,371,120827,1,8,0:0:0:0:
378,362,120997,6,0,P|317:369|273:294,1,143.999995605469,6|0,0:0|0:0,0:0:0:0:
215,236,121509,1,0,0:0:0:0:
175,314,121679,2,0,P|114:321|70:246,1,143.999995605469,2|0,0:0|0:0,0:0:0:0:
12,188,122191,1,8,0:0:0:0:
69,103,122361,6,0,P|129:95|142:104,1,71.9999978027344,2|0,0:0|0:0,0:0:0:0:
206,153,122702,1,8,0:0:0:0:
206,153,122872,1,8,0:0:0:0:
300,111,123043,2,0,P|316:74|311:30,1,71.9999978027344,2|0,0:0|0:0,0:0:0:0:
215,54,123384,1,8,0:0:0:0:
215,54,123554,1,8,0:0:0:0:
206,153,123724,6,0,L|356:181,1,132.00000402832,6|0,0:0|0:0,0:0:0:0:
414,138,124236,1,0,0:0:0:0:
414,138,124406,2,0,P|422:189|411:214,1,66.0000020141602,2|0,0:0|0:0,0:0:0:0:
352,258,124747,2,0,P|347:296|357:324,1,66.0000020141602
435,378,125088,6,0,L|508:368,1,66.0000020141602,2|0,0:0|0:0,0:0:0:0:
462,286,125429,2,8,L|509:279,2,33.0000010070801
483,192,125770,2,0,L|417:200,1,66.0000020141602,2|0,0:0|0:0,0:0:0:0:
357,128,126111,2,0,L|273:139,1,66.0000020141602,8|0,0:0|0:0,0:0:0:0:
203,109,126452,6,0,B|215:177|215:177|170:241,1,132.00000402832,6|0,0:0|0:0,0:0:0:0:
104,186,126963,1,0,0:0:0:0:
104,186,127134,2,0,B|97:151|97:151|114:113,1,66.0000020141602,8|0,0:0|0:0,0:0:0:0:
21,213,127474,2,0,B|6:182|6:182|5:141,1,66.0000020141602,8|0,0:0|0:0,0:0:0:0:
80,276,127815,6,0,P|78:317|52:360,1,66.0000020141602,2|0,0:0|0:0,0:0:0:0:
165,291,128156,2,0,P|179:332|181:362,1,66.0000020141602,8|0,0:0|0:0,0:0:0:0:
255,264,128497,1,2,0:0:0:0:
255,264,128668,1,0,0:0:0:0:
313,200,128838,2,0,P|344:224|358:255,1,66.0000020141602,8|0,0:0|0:0,0:0:0:0:
399,330,129179,6,0,L|415:189,1,132.00000402832,6|0,0:0|0:0,0:0:0:0:
490,129,129690,1,0,0:0:0:0:
490,129,129861,2,0,P|456:87|361:85,1,132.00000402832,8|0,0:0|0:0,0:0:0:0:
302,102,130372,1,0,0:0:0:0:
302,102,130543,6,0,L|303:20,1,66.0000020141602,2|0,0:0|0:0,0:0:0:0:
218,115,130884,2,0,L|218:188,1,66.0000020141602
140,70,131224,2,0,L|141:-12,1,66.0000020141602,2|2,0:0|0:0,0:0:0:0:
56,83,131565,2,0,L|56:156,1,66.0000020141602
0,200,131906,6,0,P|38:204|43:299,1,132.00000402832,6|0,0:0|0:0,0:0:0:0:
1,343,132418,1,0,0:0:0:0:
86,367,132588,2,8,L|126:377,3,33.0000010070801
166,346,132929,2,0,L|240:364,1,66.0000020141602,2|0,0:0|0:0,0:0:0:0:
243,279,133270,6,0,P|281:275|286:180,1,132.00000402832,2|0,0:0|0:0,0:0:0:0:
244,136,133782,1,0,0:0:0:0:
329,112,133952,2,8,L|369:102,3,33.0000010070801
407,120,134293,2,8,L|447:110,3,33.0000010070801
492,128,134634,5,2,0:0:0:0:
305,254,137361,5,2,0:0:0:0:
305,254,137702,1,2,0:0:0:0:
305,254,140088,5,4,0:0:0:0:
305,254,140429,1,4,0:0:0:0:
305,254,142815,5,2,0:0:0:0:
305,254,143156,1,2,0:0:0:0:
185,130,145543,6,0,P|128:136|69:208,1,132.00000402832,2|0,0:0|0:0,0:0:0:0:
75,278,146054,1,0,0:0:0:0:
75,278,146224,2,0,L|224:293,1,132.00000402832,8|0,0:0|0:0,0:0:0:0:
244,374,146736,1,8,0:0:0:0:
244,374,146906,6,0,P|253:307|326:288,1,132.00000402832,2|0,0:0|0:0,0:0:0:0:
392,322,147418,1,0,0:0:0:0:
392,322,147588,2,0,L|393:244,1,66.0000020141602
480,259,147929,2,8,L|478:178,1,66.0000020141602
387,167,148270,6,0,P|329:188|266:123,1,132.00000402832,2|0,0:0|0:0,0:0:0:0:
220,79,148781,1,0,0:0:0:0:
220,79,148952,2,0,L|145:65,1,66.0000020141602,8|0,0:0|0:0,0:0:0:0:
99,139,149293,2,0,L|163:151,1,66.0000020141602,8|0,0:0|0:0,0:0:0:0:
170,234,149634,6,0,L|95:220,1,66.0000020141602,8|0,0:0|0:0,0:0:0:0:
49,294,149975,2,0,L|113:306,1,66.0000020141602,8|0,0:0|0:0,0:0:0:0:
172,383,150315,1,8,0:0:0:0:
172,383,150486,1,0,0:0:0:0:
227,311,150656,2,8,L|294:300,1,66.0000020141602
358,356,150997,6,0,P|377:310|338:228,1,132.00000402832,2|0,0:0|0:0,0:0:0:0:
260,196,151509,1,0,0:0:0:0:
260,196,151679,2,0,L|406:177,1,132.00000402832,8|0,0:0|0:0,0:0:0:0:
455,104,152190,1,8,0:0:0:0:
455,104,152361,6,0,L|308:82,1,132.00000402832,2|0,0:0|0:0,0:0:0:0:
249,34,152872,1,0,0:0:0:0:
249,34,153043,2,8,P|203:60|172:61,1,66.0000020141602
95,86,153384,2,8,P|112:124|137:147,1,66.0000020141602
213,154,153724,6,0,P|207:199|192:229,1,66.0000020141602,2|0,0:0|0:0,0:0:0:0:
112,259,154065,2,0,P|115:307|126:344,1,66.0000020141602
203,353,154406,1,0,0:0:0:0:
274,307,154577,2,8,L|306:285,2,33.0000010070801
274,307,155770,6,0,L|352:251,1,90,4|0,0:0|0:0,0:0:0:0:
353,149,156452,6,0,L|227:232,1,143.999995605469,6|0,0:0|0:0,0:0:0:0:
164,285,156963,1,0,0:0:0:0:
145,204,157134,2,0,P|125:167|156:69,1,143.999995605469,8|0,0:0|0:0,0:0:0:0:
214,142,157645,1,8,0:0:0:0:
247,47,157815,6,0,L|86:11,1,143.999995605469,2|0,0:0|0:0,0:0:0:0:
40,72,158327,1,0,0:0:0:0:
42,156,158497,2,0,P|59:195|48:235,1,71.9999978027344,2|0,0:0|0:0,0:0:0:0:
55,310,158838,2,0,P|90:306|121:289,1,71.9999978027344,8|0,0:0|0:0,0:0:0:0:
183,222,159179,6,0,P|213:274|177:364,1,143.999995605469,6|0,0:0|0:0,0:0:0:0:
285,354,159690,1,0,0:0:0:0:
308,261,159861,2,0,P|288:205|267:178,1,71.9999978027344,8|0,0:0|0:0,0:0:0:0:
205,142,160202,1,0,0:0:0:0:
205,142,160372,1,0,0:0:0:0:
287,99,160543,6,0,L|387:107,1,71.9999978027344,2|0,0:0|0:0,0:0:0:0:
440,27,160884,2,0,L|533:20,1,71.9999978027344,8|0,0:0|0:0,0:0:0:0:
357,18,161224,2,0,L|285:12,1,71.9999978027344
442,110,161565,2,8,L|489:105,3,35.9999989013672
425,155,161906,6,0,B|398:217|398:217|426:294,1,143.999995605469,6|0,0:0|0:0,0:0:0:0:
361,367,162418,1,0,0:0:0:0:
307,284,162588,2,0,P|270:273|228:276,1,71.9999978027344,8|0,0:0|0:0,0:0:0:0:
170,338,162929,2,0,P|116:345|85:331,1,71.9999978027344,8|0,0:0|0:0,0:0:0:0:
51,260,163270,5,2,0:0:0:0:
51,260,163440,1,0,0:0:0:0:
132,206,163611,2,0,B|146:174|146:174|137:125,1,71.9999978027344
53,94,163952,2,0,B|44:56|44:56|62:22,1,71.9999978027344,2|0,0:0|0:0,0:0:0:0:
157,25,164293,2,8,P|179:24|205:18,3,35.9999989013672
230,29,164634,6,0,L|312:21,1,71.9999978027344,6|0,0:0|0:0,0:0:0:0:
374,72,164974,2,0,B|383:108|383:108|366:144,1,71.9999978027344,8|0,0:0|0:0,0:0:0:0:
279,163,165315,2,0,L|197:155,1,71.9999978027344,2|0,0:0|0:0,0:0:0:0:
135,206,165656,2,0,B|126:242|126:242|140:280,1,71.9999978027344,8|0,0:0|0:0,0:0:0:0:
214,333,165997,6,0,B|284:311|284:311|330:228,1,143.999995605469,2|0,0:0|0:0,0:0:0:0:
289,169,166509,1,8,0:0:0:0:
207,156,166679,2,0,P|198:110|205:84,1,71.9999978027344,2|0,0:0|0:0,0:0:0:0:
284,51,167020,2,8,L|323:51,3,35.9999989013672
366,59,167361,6,0,P|395:118|345:189,1,143.999995605469,6|0,0:0|0:0,0:0:0:0:
275,205,167872,1,8,0:0:0:0:
339,261,168043,2,0,P|345:323|277:364,1,143.999995605469,2|0,0:0|0:0,0:0:0:0:
208,322,168554,1,0,0:0:0:0:
214,236,168724,6,0,P|246:231|279:193,1,71.9999978027344,2|0,0:0|0:0,0:0:0:0:
206,151,169065,2,0,P|229:121|234:77,1,71.9999978027344,8|0,0:0|0:0,0:0:0:0:
151,82,169406,2,0,P|148:34|128:14,1,71.9999978027344,2|0,0:0|0:0,0:0:0:0:
41,50,169747,1,8,0:0:0:0:
41,50,169918,1,8,0:0:0:0:
80,130,170088,6,0,P|130:167|216:141,1,143.999995605469,6|0,0:0|0:0,0:0:0:0:
275,98,170599,1,0,0:0:0:0:
368,103,170770,2,0,P|406:123|420:159,1,71.9999978027344,8|0,0:0|0:0,0:0:0:0:
364,222,171111,1,0,0:0:0:0:
364,222,171281,1,0,0:0:0:0:
459,234,171452,6,0,B|440:303|440:303|470:377,1,143.999995605469,2|0,0:0|0:0,0:0:0:0:
371,366,171963,1,8,0:0:0:0:
291,303,172134,2,0,P|213:289|140:326,1,143.999995605469,8|0,0:0|0:0,0:0:0:0:
80,367,172645,1,8,0:0:0:0:
36,274,172815,6,0,L|55:185,1,71.9999978027344,6|0,0:0|0:0,0:0:0:0:
3,128,173156,1,0,0:0:0:0:
80,71,173327,2,0,P|139:66|167:80,1,71.9999978027344
201,155,173668,1,0,0:0:0:0:
118,218,173838,2,8,P|73:217|46:199,1,71.9999978027344
3,128,174179,6,0,B|32:62|32:62|111:40,1,143.999995605469,2|0,0:0|0:0,0:0:0:0:
185,85,174690,1,0,0:0:0:0:
236,160,174861,2,0,P|280:158|362:77,1,143.999995605469,8|0,0:0|0:0,0:0:0:0:
409,27,175372,1,8,0:0:0:0:
465,96,175543,6,0,P|471:137|455:176,1,71.9999978027344,6|0,0:0|0:0,0:0:0:0:
397,230,175884,1,8,0:0:0:0:
397,230,176054,1,8,0:0:0:0:
495,243,176224,2,0,P|501:284|485:323,1,71.9999978027344,2|0,0:0|0:0,0:0:0:0:
427,377,176565,1,8,0:0:0:0:
427,377,176735,1,8,0:0:0:0:
344,315,176906,6,0,L|183:328,2,143.999995605469,2|0|0,0:0|0:0|0:0,0:0:0:0:
391,239,177759,1,0,0:0:0:0:
303,236,177929,2,8,L|196:244,1,90.0000034332277
138,164,178270,6,0,L|286:155,1,143.999995605469,6|0,0:0|0:0,0:0:0:0:
330,82,178781,1,0,0:0:0:0:
263,16,178952,2,0,P|192:16|139:80,1,143.999995605469,8|0,0:0|0:0,0:0:0:0:
140,162,179463,1,0,0:0:0:0:
62,110,179634,6,0,P|40:104|6:61,1,71.9999978027344,2|0,0:0|0:0,0:0:0:0:
64,202,179974,2,0,P|9:185|-6:167,1,71.9999978027344,8|0,0:0|0:0,0:0:0:0:
147,245,180315,2,0,P|96:294|22:286,1,143.999995605469,2|0,0:0|0:0,0:0:0:0:
65,202,180827,1,0,0:0:0:0:
120,128,180997,6,0,P|184:158|211:226,1,143.999995605469,6|0,0:0|0:0,0:0:0:0:
249,312,181509,1,0,0:0:0:0:
334,333,181679,2,0,B|354:304|354:304|356:259,1,71.9999978027344,2|0,0:0|0:0,0:0:0:0:
297,202,182020,1,8,0:0:0:0:
323,123,182190,1,8,0:0:0:0:
404,135,182361,6,0,P|431:91|410:-6,1,143.999995605469,2|0,0:0|0:0,0:0:0:0:
331,42,182872,1,0,0:0:0:0:
242,3,183043,2,0,L|161:10,1,71.9999978027344,2|0,0:0|0:0,0:0:0:0:
156,100,183384,2,0,L|63:88,1,71.9999978027344,8|0,0:0|0:0,0:0:0:0:
21,162,183724,6,0,B|43:231|43:231|16:315,1,143.999995605469,6|0,0:0|0:0,0:0:0:0:
83,369,184236,1,0,0:0:0:0:
155,308,184406,2,0,P|173:282|184:230,1,71.9999978027344,8|0,0:0|0:0,0:0:0:0:
260,302,184747,2,0,P|274:258|275:224,1,71.9999978027344,8|0,0:0|0:0,0:0:0:0:
369,207,185088,6,0,B|347:138|347:138|374:54,1,143.999995605469,2|0,0:0|0:0,0:0:0:0:
307,0,185600,1,0,0:0:0:0:
235,61,185770,2,0,P|217:87|206:139,1,71.9999978027344,8|0,0:0|0:0,0:0:0:0:
130,67,186111,2,0,P|116:111|115:145,1,71.9999978027344,8|0,0:0|0:0,0:0:0:0:
176,208,186452,6,0,L|184:299,1,71.9999978027344,6|0,0:0|0:0,0:0:0:0:
251,347,186793,2,8,L|264:268,1,71.9999978027344
328,199,187134,2,0,L|340:273,1,71.9999978027344,2|0,0:0|0:0,0:0:0:0:
408,335,187474,1,8,0:0:0:0:
431,252,187645,1,8,0:0:0:0:
339,270,187815,6,0,L|328:341,1,71.9999978027344,2|0,0:0|0:0,0:0:0:0:
262,275,188156,2,0,L|251:203,1,71.9999978027344
182,279,188497,2,0,L|170:351,1,71.9999978027344,2|0,0:0|0:0,0:0:0:0:
125,197,188838,2,8,P|136:186|166:173,3,35.9999989013672
124,115,189179,6,0,P|186:139|247:95,1,143.999995605469,6|0,0:0|0:0,0:0:0:0:
317,32,189690,1,0,0:0:0:0:
411,72,189861,2,0,B|418:111|418:111|389:225,1,143.999995605469,8|0,0:0|0:0,0:0:0:0:
341,289,190372,1,8,0:0:0:0:
298,206,190543,6,0,P|250:197|219:205,1,71.9999978027344,2|0,0:0|0:0,0:0:0:0:
190,281,190884,1,8,0:0:0:0:
123,219,191054,1,8,0:0:0:0:
147,140,191224,2,0,B|133:103|133:103|148:-16,1,143.999995605469,2|2,0:0|0:0,0:0:0:0:
47,42,191736,1,0,0:0:0:0:
26,131,191906,6,0,P|5:174|8:203,1,71.9999978027344,6|0,0:0|0:0,0:0:0:0:
48,279,192247,1,0,0:0:0:0:
140,271,192418,2,0,P|171:272|224:276,1,71.9999978027344
274,340,192759,1,0,0:0:0:0:
325,267,192929,2,0,P|336:224|332:189,1,71.9999978027344,8|0,0:0|0:0,0:0:0:0:
258,136,193270,6,0,L|434:159,1,143.999995605469,2|0,0:0|0:0,0:0:0:0:
485,129,193781,1,8,0:0:0:0:
420,71,193952,2,0,P|422:34|441:-6,1,71.9999978027344,2|0,0:0|0:0,0:0:0:0:
493,137,194293,2,0,P|500:176|489:214,1,71.9999978027344,8|0,0:0|0:0,0:0:0:0:
423,276,194634,6,0,B|354:290|354:290|262:262,1,143.999995605469,6|0,0:0|0:0,0:0:0:0:
218,194,195145,1,0,0:0:0:0:
173,274,195315,2,0,L|183:351,1,71.9999978027344,8|0,0:0|0:0,0:0:0:0:
79,294,195656,2,0,L|89:214,1,71.9999978027344,8|0,0:0|0:0,0:0:0:0:
26,155,195997,6,0,P|11:113|77:43,1,143.999995605469,2|0,0:0|0:0,0:0:0:0:
137,99,196509,1,0,0:0:0:0:
209,41,196679,2,0,P|262:84|252:152,1,143.999995605469,8|0,0:0|0:0,0:0:0:0:
179,202,197190,1,0,0:0:0:0:
264,235,197361,6,0,L|421:226,1,143.999995605469,6|0,0:0|0:0,0:0:0:0:
484,293,197872,1,0,0:0:0:0:
406,351,198043,2,0,L|241:337,1,143.999995605469,8|0,0:0|0:0,0:0:0:0:
181,301,198554,1,0,0:0:0:0:
102,346,198724,6,0,P|85:306|94:264,1,71.9999978027344,2|0,0:0|0:0,0:0:0:0:
148,211,199065,1,8,0:0:0:0:
113,128,199236,1,8,0:0:0:0:
34,165,199406,2,0,P|27:117|86:46,1,143.999995605469,2|0,0:0|0:0,0:0:0:0:
169,58,199918,1,0,0:0:0:0:
220,128,200088,6,0,P|274:142|342:84,1,143.999995605469,6|0,0:0|0:0,0:0:0:0:
417,30,200599,1,0,0:0:0:0:
435,118,200770,2,0,L|442:214,1,71.9999978027344,8|0,0:0|0:0,0:0:0:0:
353,210,201111,2,8,L|365:295,1,71.9999978027344
450,330,201452,6,0,P|396:317|300:340,1,143.999995605469,2|0,0:0|0:0,0:0:0:0:
204,316,201963,2,8,L|193:277,2,35.9999989013672
131,373,202304,1,0,0:0:0:0:
64,302,202474,2,0,L|42:220,1,71.9999978027344,8|0,0:0|0:0,0:0:0:0:
127,172,202815,6,0,P|158:150|170:45,1,143.999995605469,6|0,0:0|0:0,0:0:0:0:
93,90,203327,1,0,0:0:0:0:
127,172,203497,2,8,L|203:176,1,71.9999978027344
263,114,203838,2,8,L|338:118,1,71.9999978027344
415,87,204179,5,2,0:0:0:0:
436,173,204349,2,8,L|482:206,2,35.9999989013672
334,117,204690,1,8,0:0:0:0:
415,87,204861,2,0,L|470:6,1,71.9999978027344,2|0,0:0|0:0,0:0:0:0:
356,198,205202,2,8,L|319:250,2,35.9999989013672
432,340,205543,6,0,P|372:317|299:353,1,143.999995605469
233,384,206054,1,0,0:0:0:0:
185,302,206224,2,8,L|99:290,1,71.9999978027344
90,204,206565,2,0,L|166:216,1,71.9999978027344
220,139,206906,6,0,L|61:112,1,143.999995605469,2|0,0:0|0:0,0:0:0:0:
3,160,207418,1,0,0:0:0:0:
7,248,207588,2,8,P|16:294|43:319,1,71.9999978027344
118,351,207929,2,8,L|153:309,3,35.9999989013672
148,270,208270,6,0,P|198:259|294:293,1,143.999995605469,6|0,0:0|0:0,0:0:0:0:
366,237,208781,1,8,0:0:0:0:
347,149,208952,2,0,P|339:106|419:41,1,143.999995605469,2|0,0:0|0:0,0:0:0:0:
473,101,209463,1,8,0:0:0:0:
458,191,209634,6,0,L|479:266,1,71.9999978027344,2|0,0:0|0:0,0:0:0:0:
385,306,209974,2,0,L|364:230,1,71.9999978027344,8|0,0:0|0:0,0:0:0:0:
277,282,210315,2,0,L|297:352,1,71.9999978027344
205,351,210656,2,8,L|193:305,3,35.9999989013672
167,275,210997,6,0,P|126:251|112:169,1,120,2|0,0:0|0:0,0:0:0:0:
156,100,211509,1,0,0:0:0:0:
236,152,211679,2,0,L|380:141,1,120,8|0,0:0|0:0,0:0:0:0:
415,71,212190,1,8,0:0:0:0:
454,153,212361,6,0,L|472:224,1,60,2|0,0:0|0:0,0:0:0:0:
495,290,212702,1,8,0:0:0:0:
330,366,213043,2,0,L|315:307,1,60,2|0,0:0|0:0,0:0:0:0:
289,229,213384,1,8,0:0:0:0:
289,229,213554,1,8,0:0:0:0:
220,294,213724,6,0,P|176:296|138:288,1,60,2|0,0:0|0:0,0:0:0:0:
114,219,214065,2,0,P|157:217|175:208,1,60,8|0,0:0|0:0,0:0:0:0:
228,142,214406,2,0,P|178:132|161:120,1,60,2|0,0:0|0:0,0:0:0:0:
118,50,214747,1,8,0:0:0:0:
118,50,214918,1,0,0:0:0:0:
215,39,215088,6,0,P|261:45|274:54,1,60,2|0,0:0|0:0,0:0:0:0:
328,122,215429,1,8,0:0:0:0:
153,211,215770,2,0,L|136:74,1,120,2|0,0:0|0:0,0:0:0:0:
213,41,216281,1,0,0:0:0:0:
213,41,216452,6,0,P|245:51|349:15,1,120,2|0,0:0|0:0,0:0:0:0:
422,29,216963,1,0,0:0:0:0:
419,34,217134,2,0,L|420:103,1,60,8|0,0:0|0:0,0:0:0:0:
286,195,217645,1,8,0:0:0:0:
286,195,217815,6,0,L|285:264,2,60,2|0|0,0:0|0:0|0:0,0:0:0:0:
419,294,218497,2,0,L|426:371,1,60,8|0,0:0|0:0,0:0:0:0:
501,302,218838,2,0,L|494:233,1,60,8|0,0:0|0:0,0:0:0:0:
500,158,219179,6,0,P|450:148|388:210,1,120,2|0,0:0|0:0,0:0:0:0:
326,135,219690,1,8,0:0:0:0:
362,50,219861,2,0,P|320:22|246:31,1,120,2|0,0:0|0:0,0:0:0:0:
200,100,220372,1,8,0:0:0:0:
109,75,220543,6,0,L|95:5,1,60,2|0,0:0|0:0,0:0:0:0:
41,129,220884,2,0,L|10:130,2,30
105,179,221224,6,0,L|97:265,1,60,2|0,0:0|0:0,0:0:0:0:
168,310,221564,1,8,0:0:0:0:
236,243,221735,2,0,L|240:206,6,30
