osu file format v14

[General]
AudioFilename: audio.mp3
AudioLeadIn: 0
PreviewTime: 101651
Countdown: 0
SampleSet: Soft
StackLeniency: 0.7
Mode: 0
LetterboxInBreaks: 0
WidescreenStoryboard: 0

[Editor]
Bookmarks: 123628,134538,156356,178168,189077,199986,210901
DistanceSpacing: 1.1
BeatDivisor: 4
GridSize: 32
TimelineZoom: 1.900001

[Metadata]
Title:AIWAGUMA
TitleUnicode:AIWAGUMA
Artist:illion
ArtistUnicode:illion
Creator:Ellyu
Version:Easy
Source:
Tags:UBU Yojiro Noda 野田洋次郎 Folk Rock _Yiiiii Pata-Mon Tenshichan Superstar Tofu1222 Antalf handsome muscle
BeatmapID:1233620
BeatmapSetID:533037

[Difficulty]
HPDrainRate:2
CircleSize:3
OverallDifficulty:3
ApproachRate:4
SliderMultiplier:0.8
SliderTickRate:1

[Events]
//Background and Video events
0,0,"49389130_p0.png",0,0
//Break Periods
2,77561,86268
2,134834,144223
//Storyboard Layer 0 (Background)
//Storyboard Layer 1 (Fail)
//Storyboard Layer 2 (Pass)
//Storyboard Layer 3 (Foreground)
//Storyboard Sound Samples

[TimingPoints]
-366,340.909090909091,4,2,0,30,1,0
997,-100,4,2,1,30,0,0
3724,-100,4,2,2,30,0,0
3810,-100,4,2,1,30,0,0
9179,-100,4,2,2,30,0,0
9265,-100,4,2,1,30,0,0
11565,-100,4,2,99,25,0,0
11651,-100,4,2,1,40,0,0
22474,-100,4,2,99,25,0,0
22560,-100,4,2,4,50,0,0
77361,-100,4,2,5,50,0,0
87418,-100,4,2,10,50,0,0
87673,-100,4,2,4,50,0,0
100031,-100,4,2,10,50,0,0
100372,-100,4,2,11,50,0,0
100884,-100,4,2,4,50,0,0
101906,-100,4,2,4,50,0,1
123724,-100,4,2,4,50,0,0
155599,-100,4,2,10,20,0,0
156452,-100,4,2,4,60,0,0
178270,-100,4,2,4,60,0,1
200088,-100,4,2,4,60,0,0
210997,-100,4,2,4,40,0,0
220884,389.61038961039,4,2,4,40,1,0
221224,340.909090909091,4,2,4,40,1,0
221735,389.61038961039,4,2,4,40,1,0

[Colours]
Combo1 : 193,124,239
Combo2 : 112,252,231
Combo3 : 0,105,234
Combo4 : 180,183,241
Combo5 : 251,89,239

[HitObjects]
246,272,997,6,0,L|332:288,1,80,2|0,0:0|0:0,0:0:0:0:
371,212,1679,2,0,L|290:197,1,80
212,160,2361,2,0,P|193:119|198:79,1,80,2|0,0:0|0:0,0:0:0:0:
262,27,3043,2,0,P|282:68|278:110,1,80
368,104,3724,6,0,B|437:129|437:129|474:213,1,160,2|0,0:0|0:0,0:0:0:0:
342,328,5088,2,0,L|252:308,1,80,2|0,0:0|0:0,0:0:0:0:
188,263,5770,2,0,L|91:274,1,80
38,218,6452,6,0,P|7:169|52:78,1,160,2|0,0:0|0:0,0:0:0:0:
122,42,7474,1,0,0:0:0:0:
199,83,7815,2,0,L|362:73,1,160,2|0,0:0|0:0,0:0:0:0:
433,25,8838,1,0,0:0:0:0:
440,112,9179,6,0,P|420:157|462:257,1,160,2|0,0:0|0:0,0:0:0:0:
294,190,10543,2,0,L|216:208,1,80,2|0,0:0|0:0,0:0:0:0:
236,294,11224,2,0,P|253:327|294:346,1,80,0|4,0:0|0:0,0:0:0:0:
379,338,11906,6,0,P|403:308|388:195,2,160,2|0|0,0:0|0:0|0:0,0:0:0:0:
240,229,13952,1,8,0:0:0:0:
95,328,14634,2,0,L|102:248,1,80,2|0,0:0|0:0,0:0:0:0:
53,174,15315,2,0,L|41:91,1,80
127,113,15997,2,0,P|213:130|265:70,1,160,2|0,0:0|0:0,0:0:0:0:
434,54,17361,6,0,B|453:92|453:92|438:211,2,160,2|0|0,0:0|0:0|0:0,0:0:0:0:
259,78,19406,1,8,0:0:0:0:
97,148,20088,6,0,L|90:245,1,80,2|0,0:0|0:0,0:0:0:0:
168,269,20770,2,0,L|174:183,1,80
260,174,21452,2,0,P|288:152|402:188,1,160,2|8,0:0|0:0,0:0:0:0:
325,231,22474,1,4,0:0:0:0:
260,290,22815,6,0,B|189:318|189:318|102:289,1,160,2|8,0:0|0:0,0:0:0:0:
51,224,23838,1,0,0:0:0:0:
106,155,24179,2,0,P|112:111|97:68,1,80,2|0,0:0|0:0,0:0:0:0:
157,8,24861,2,0,P|187:49|190:86,1,80,8|0,0:0|0:0,0:0:0:0:
251,141,25543,6,0,L|414:128,1,160,2|0,0:0|0:0,0:0:0:0:
482,179,26565,1,8,0:0:0:0:
410,231,26906,2,0,P|402:265|417:321,1,80,2|0,0:0|0:0,0:0:0:0:
358,380,27588,2,0,P|329:347|322:301,1,80
262,246,28270,6,0,L|170:242,1,80,2|0,0:0|0:0,0:0:0:0:
94,236,28952,1,8,0:0:0:0:
21,78,29634,2,0,P|54:57|102:57,1,80,2|0,0:0|0:0,0:0:0:0:
170,99,30315,2,0,P|216:109|256:100,1,80,8|0,0:0|0:0,0:0:0:0:
303,35,30997,6,0,P|329:67|305:175,1,160,2|0,0:0|0:0,0:0:0:0:
225,211,32020,1,0,0:0:0:0:
295,263,32361,2,0,L|389:272,2,80,2|0|0,0:0|0:0|0:0,0:0:0:0:
221,312,33384,1,0,0:0:0:0:
168,241,33724,6,0,P|119:211|13:240,1,160,6|0,0:0|0:0,0:0:0:0:
1,316,34747,1,8,0:0:0:0:
76,361,35088,2,0,P|98:371|160:353,1,80,2|0,0:0|0:0,0:0:0:0:
222,309,35770,2,0,P|272:299|307:306,1,80
374,351,36452,6,0,B|402:306|402:306|390:186,1,160,2|0,0:0|0:0,0:0:0:0:
439,125,37474,1,8,0:0:0:0:
359,87,37815,2,0,P|328:70|273:74,1,80,2|0,0:0|0:0,0:0:0:0:
302,156,38497,2,0,P|264:159|217:192,1,80,8|0,0:0|0:0,0:0:0:0:
175,250,39179,6,0,B|97:262|97:262|16:216,1,160,2|0,0:0|0:0,0:0:0:0:
8,135,40202,1,8,0:0:0:0:
76,80,40543,2,0,L|159:68,1,80,2|0,0:0|0:0,0:0:0:0:
165,155,41224,2,0,L|73:169,1,80,8|0,0:0|0:0,0:0:0:0:
8,135,41906,5,4,0:0:0:0:
78,296,42588,1,2,0:0:0:0:
251,266,43270,1,4,0:0:0:0:
257,90,43952,1,4,0:0:0:0:
427,44,44634,6,0,L|420:218,1,160,2|0,0:0|0:0,0:0:0:0:
361,269,45656,1,0,0:0:0:0:
316,193,45997,2,0,B|276:182|276:182|233:190,1,80,2|0,0:0|0:0,0:0:0:0:
195,266,46679,2,0,B|235:277|235:277|278:269,1,80,8|0,0:0|0:0,0:0:0:0:
361,270,47361,6,0,P|342:327|253:357,1,160,2|0,0:0|0:0,0:0:0:0:
165,345,48384,1,8,0:0:0:0:
79,364,48724,2,0,L|65:271,1,80,2|0,0:0|0:0,0:0:0:0:
1,226,49406,2,0,L|14:130,1,80,8|0,0:0|0:0,0:0:0:0:
63,75,50088,6,0,P|123:57|213:98,1,160,2|0,0:0|0:0,0:0:0:0:
242,175,51111,1,0,0:0:0:0:
316,127,51452,2,0,L|397:126,1,80,2|0,0:0|0:0,0:0:0:0:
463,182,52134,2,0,P|474:215|464:269,1,80,8|0,0:0|0:0,0:0:0:0:
415,329,52815,6,0,P|355:347|265:306,1,160,2|0,0:0|0:0,0:0:0:0:
236,229,53838,1,0,0:0:0:0:
162,277,54179,2,0,L|81:278,1,80,12|0,0:0|0:0,0:0:0:0:
15,222,54861,2,0,P|4:189|14:135,1,80,12|0,0:0|0:0,0:0:0:0:
58,71,55543,6,0,L|144:82,1,80,6|0,0:0|0:0,0:0:0:0:
204,24,56224,2,0,L|286:33,1,80,8|0,0:0|0:0,0:0:0:0:
371,40,56906,2,0,P|394:76|400:125,1,80,2|0,0:0|0:0,0:0:0:0:
331,167,57588,2,0,P|317:205|314:250,1,80,8|0,0:0|0:0,0:0:0:0:
397,271,58270,6,0,P|375:308|260:318,1,160,2|0,0:0|0:0,0:0:0:0:
204,158,59634,2,0,P|226:121|341:111,1,160,2|0,0:0|0:0,0:0:0:0:
417,78,60656,1,8,0:0:0:0:
453,158,60997,6,0,B|461:197|461:197|449:241,1,80,2|0,0:0|0:0,0:0:0:0:
399,307,61679,1,2,0:0:0:0:
319,269,62020,1,8,0:0:0:0:
252,326,62361,2,0,L|74:336,1,160,2|0,0:0|0:0,0:0:0:0:
22,280,63384,1,0,0:0:0:0:
85,219,63724,6,0,P|98:188|93:136,1,80,2|0,0:0|0:0,0:0:0:0:
53,64,64406,2,0,L|143:59,1,80,2|0,0:0|0:0,0:0:0:0:
215,90,65088,2,0,L|303:80,2,80,8|0|0,0:0|0:0|0:0,0:0:0:0:
147,146,66111,1,8,0:0:0:0:
191,221,66452,6,0,L|351:200,1,160,2|0,0:0|0:0,0:0:0:0:
425,156,67474,1,8,0:0:0:0:
430,243,67815,2,0,L|434:337,1,80,2|0,0:0|0:0,0:0:0:0:
354,361,68497,2,0,P|310:367|271:349,1,80,8|0,0:0|0:0,0:0:0:0:
214,292,69179,6,0,B|117:267|117:267|48:281,1,160,2|0,0:0|0:0,0:0:0:0:
20,199,70202,1,8,0:0:0:0:
68,125,70543,2,0,P|109:103|143:104,1,80,2|0,0:0|0:0,0:0:0:0:
219,144,71224,1,2,0:0:0:0:
296,102,71565,1,8,0:0:0:0:
310,15,71906,6,0,P|358:40|373:143,1,160,2|0,0:0|0:0,0:0:0:0:
303,188,72929,1,8,0:0:0:0:
347,263,73270,2,0,B|448:282|448:282|507:258,2,160,2|0|0,0:0|0:0|0:0,0:0:0:0:
182,325,75315,2,8,L|95:305,1,80
46,240,75997,6,0,P|35:200|46:146,1,80,2|8,0:0|0:0,0:0:0:0:
113,114,76679,2,0,P|124:154|113:208,1,80,2|8,0:0|0:0,0:0:0:0:
46,240,77361,5,4,0:0:0:0:
173,106,87588,5,4,0:0:0:0:
339,47,88270,6,0,B|369:120|369:120|346:203,1,160,2|0,0:0|0:0,0:0:0:0:
262,220,89293,1,0,0:0:0:0:
211,291,89634,2,0,P|170:311|122:306,1,80,2|0,0:0|0:0,0:0:0:0:
65,258,90315,2,0,L|68:171,1,80,8|0,0:0|0:0,0:0:0:0:
34,96,90997,6,0,B|73:64|73:64|196:48,1,160,2|0,0:0|0:0,0:0:0:0:
261,12,92020,1,0,0:0:0:0:
252,99,92361,2,0,P|242:133|257:181,1,80,2|0,0:0|0:0,0:0:0:0:
325,225,93043,1,8,0:0:0:0:
412,216,93384,1,0,0:0:0:0:
405,303,93724,6,0,B|349:359|349:359|259:332,1,160,2|0,0:0|0:0,0:0:0:0:
208,273,94747,1,0,0:0:0:0:
134,320,95088,2,0,P|121:274|130:236,1,80,2|0,0:0|0:0,0:0:0:0:
184,175,95770,2,0,P|186:136|171:90,1,80,8|0,0:0|0:0,0:0:0:0:
112,34,96452,6,0,L|280:57,1,160,2|0,0:0|0:0,0:0:0:0:
355,32,97474,1,0,0:0:0:0:
334,117,97815,5,2,0:0:0:0:
272,179,98156,2,0,L|288:274,1,80,8|2,0:0|0:0,0:0:0:0:
199,238,98838,2,0,L|215:333,1,80,8|2,0:0|0:0,0:0:0:0:
126,294,99520,2,0,L|142:389,1,80,8|2,0:0|0:0,0:0:0:0:
53,353,100202,5,8,0:0:0:0:
31,267,100543,1,8,0:0:0:0:
73,190,100884,2,0,B|126:163|152:189|185:216|227:192,1,160
237,105,101906,6,0,P|292:132|306:232,1,160,6|0,0:0|0:0,0:0:0:0:
357,294,102929,1,8,0:0:0:0:
410,224,103270,2,0,P|413:179|414:139,1,80,2|0,0:0|0:0,0:0:0:0:
485,91,103952,2,0,P|479:51|475:3,1,80,8|0,0:0|0:0,0:0:0:0:
394,46,104634,6,0,P|340:53|249:7,1,160,2|0,0:0|0:0,0:0:0:0:
162,25,105656,1,0,0:0:0:0:
160,113,105997,2,0,L|198:190,1,80,8|0,0:0|0:0,0:0:0:0:
107,193,106679,2,0,L|95:281,1,80,2|0,0:0|0:0,0:0:0:0:
174,313,107361,5,2,0:0:0:0:
239,253,107702,2,0,L|301:193,2,80
174,313,108724,1,2,0:0:0:0:
257,341,109065,2,0,L|340:365,2,80
174,313,110088,6,0,P|125:336|38:275,1,160,2|0,0:0|0:0,0:0:0:0:
19,196,111111,1,0,0:0:0:0:
98,158,111452,2,0,L|195:167,1,80
231,95,112134,2,0,L|320:103,1,80
359,29,112815,6,0,P|389:60|362:173,2,160,6|0|0,0:0|0:0|0:0,0:0:0:0:
286,189,114861,1,8,0:0:0:0:
454,239,115543,6,0,P|453:276|450:323,1,80,2|0,0:0|0:0,0:0:0:0:
373,362,116224,2,0,P|366:325|364:281,1,80,2|0,0:0|0:0,0:0:0:0:
279,256,116906,1,0,0:0:0:0:
222,323,117247,1,0,0:0:0:0:
138,295,117588,2,0,B|96:287|96:287|69:253,1,80,8|0,0:0|0:0,0:0:0:0:
88,170,118270,6,0,B|99:69|99:69|71:12,2,160,6|0|0,0:0|0:0|0:0,0:0:0:0:
192,28,120315,1,8,0:0:0:0:
327,140,120997,6,0,P|374:152|420:146,1,80,2|0,0:0|0:0,0:0:0:0:
419,62,121679,2,0,P|363:45|330:49,1,80
258,74,122361,1,2,0:0:0:0:
209,147,122702,1,8,0:0:0:0:
268,211,123043,2,0,P|267:258|257:304,1,80,8|0,0:0|0:0,0:0:0:0:
173,282,123724,6,0,P|204:359|278:377,1,160,2|0,0:0|0:0,0:0:0:0:
328,309,124747,1,0,0:0:0:0:
407,346,125088,2,0,P|458:347|503:345,1,80,2|0,0:0|0:0,0:0:0:0:
496,258,125770,2,0,P|468:254|413:257,1,80,2|0,0:0|0:0,0:0:0:0:
354,193,126452,6,0,L|262:208,2,80,2|0|0,0:0|0:0|0:0,0:0:0:0:
408,124,127474,1,8,0:0:0:0:
322,103,127815,2,0,L|230:118,2,80,2|0|0,0:0|0:0|0:0,0:0:0:0:
376,34,128837,1,8,0:0:0:0:
291,8,129179,6,0,L|199:24,1,80,2|0,0:0|0:0,0:0:0:0:
124,14,129861,2,0,P|115:66|117:104,1,80,8|0,0:0|0:0,0:0:0:0:
184,148,130543,2,0,P|186:186|182:237,1,80,2|0,0:0|0:0,0:0:0:0:
95,239,131224,2,0,P|97:271|110:328,1,80,8|0,0:0|0:0,0:0:0:0:
194,325,131906,6,0,B|273:319|273:319|356:363,1,160,2|0,0:0|0:0,0:0:0:0:
425,321,132929,1,8,0:0:0:0:
375,248,133270,2,0,L|381:166,1,80,2|0,0:0|0:0,0:0:0:0:
453,117,133952,1,0,0:0:0:0:
390,54,134293,1,0,0:0:0:0:
301,53,134634,5,0,0:0:0:0:
300,178,145543,6,0,P|266:162|145:203,1,160,2|0,0:0|0:0,0:0:0:0:
107,267,146565,1,0,0:0:0:0:
189,298,146906,2,8,P|241:298|278:283,1,80
326,354,147588,2,8,P|345:330|352:275,1,80
362,194,148270,6,0,L|445:198,2,80,2|0|0,0:0|0:0|0:0,0:0:0:0:
308,123,149293,1,0,0:0:0:0:
259,49,149634,2,8,L|163:43,1,80
140,123,150315,2,8,L|235:128,1,80
308,123,150997,6,0,P|296:171|202:214,1,160,2|0,0:0|0:0,0:0:0:0:
114,221,152020,1,0,0:0:0:0:
161,298,152361,2,8,B|198:316|198:316|248:305,1,80
311,353,153043,2,8,B|348:345|348:345|391:358,1,80
462,310,153724,6,0,P|466:240|470:133,1,160
443,65,154747,1,0,0:0:0:0:
179,55,155770,1,4,0:0:0:0:
225,188,156452,6,0,B|171:216|171:216|63:193,1,160,6|0,0:0|0:0,0:0:0:0:
23,267,157474,1,0,0:0:0:0:
99,309,157815,2,0,B|195:329|195:329|249:301,1,160,2|0,0:0|0:0,0:0:0:0:
295,226,158838,1,8,0:0:0:0:
381,243,159179,6,0,P|412:270|426:314,1,80,6|0,0:0|0:0,0:0:0:0:
494,360,159861,2,0,P|512:321|511:285,1,80
496,197,160543,2,0,B|505:146|505:146|484:27,1,160,8|0,0:0|0:0,0:0:0:0:
410,84,161565,1,8,0:0:0:0:
333,41,161906,6,0,P|285:36|247:44,1,80,6|0,0:0|0:0,0:0:0:0:
178,87,162588,1,0,0:0:0:0:
113,146,162929,1,8,0:0:0:0:
63,73,163270,2,0,P|34:106|57:218,1,160,2|0,0:0|0:0,0:0:0:0:
226,232,164634,6,0,P|255:199|232:87,1,160,6|0,0:0|0:0,0:0:0:0:
268,9,165656,1,8,0:0:0:0:
353,29,165997,2,0,L|437:19,1,80,2|0,0:0|0:0,0:0:0:0:
476,95,166679,2,0,L|383:105,1,80,8|0,0:0|0:0,0:0:0:0:
436,182,167361,6,0,B|463:221|463:221|473:280|413:328,1,160,6|0,0:0|0:0,0:0:0:0:
334,328,168384,1,0,0:0:0:0:
289,252,168724,2,0,P|247:256|199:250,1,80,8|0,0:0|0:0,0:0:0:0:
130,291,169406,2,0,L|117:200,1,80,2|0,0:0|0:0,0:0:0:0:
41,169,170088,6,0,L|70:4,1,160,6|0,0:0|0:0,0:0:0:0:
149,48,171111,1,2,0:0:0:0:
236,39,171452,2,0,P|289:21|383:81,1,160,8|0,0:0|0:0,0:0:0:0:
416,145,172474,1,8,0:0:0:0:
328,152,172815,6,0,B|292:169|292:169|298:299,1,160,6|0,0:0|0:0,0:0:0:0:
382,265,173838,1,8,0:0:0:0:
361,350,174179,2,0,P|305:376|219:327,1,160,2|0,0:0|0:0,0:0:0:0:
187,253,175202,1,8,0:0:0:0:
103,281,175543,6,0,B|88:240|88:240|104:192,1,80,6|0,0:0|0:0,0:0:0:0:
159,141,176224,2,0,B|179:109|179:109|167:56,1,80,8|0,0:0|0:0,0:0:0:0:
84,44,176906,1,2,0:0:0:0:
5,83,177247,1,2,0:0:0:0:
7,170,177588,1,8,0:0:0:0:
182,185,178270,6,0,L|347:178,1,160,6|0,0:0|0:0,0:0:0:0:
395,108,179293,1,8,0:0:0:0:
432,187,179634,2,0,B|445:233|445:233|436:296|436:296|396:332,1,160,2|0,0:0|0:0,0:0:0:0:
323,284,180656,1,8,0:0:0:0:
235,294,180997,6,0,P|182:310|164:328,2,80,6|0|0,0:0|0:0|0:0,0:0:0:0:
323,284,182020,1,8,0:0:0:0:
269,214,182361,2,0,P|227:199|187:198,1,80,2|0,0:0|0:0,0:0:0:0:
106,173,183043,2,0,P|125:137|166:109,1,80,8|0,0:0|0:0,0:0:0:0:
243,116,183724,6,0,B|368:108|368:108|406:77,1,160,6|0,0:0|0:0,0:0:0:0:
420,1,184747,1,8,0:0:0:0:
489,54,185088,2,0,B|512:77|512:77|495:215,1,160,2|0,0:0|0:0,0:0:0:0:
420,247,186111,1,8,0:0:0:0:
341,286,186452,6,0,L|352:376,2,80,6|0|0,0:0|0:0|0:0,0:0:0:0:
420,247,187474,1,8,0:0:0:0:
344,201,187815,2,0,P|300:209|270:242,1,80,2|0,0:0|0:0,0:0:0:0:
219,301,188497,2,0,P|163:301|135:279,1,80,8|0,0:0|0:0,0:0:0:0:
97,214,189179,6,0,L|76:374,2,160,6|0|0,0:0|0:0|0:0,0:0:0:0:
22,54,191224,1,8,0:0:0:0:
196,27,191906,6,0,P|251:24|288:35,1,80,2|0,0:0|0:0,0:0:0:0:
325,101,192588,2,0,P|370:109|411:93,1,80,8|0,0:0|0:0,0:0:0:0:
474,48,193270,1,2,0:0:0:0:
482,135,193611,1,8,0:0:0:0:
417,194,193952,2,0,P|373:209|339:200,1,80,8|0,0:0|0:0,0:0:0:0:
265,155,194634,6,0,P|220:168|174:270,2,160,6|0|0,0:0|0:0|0:0,0:0:0:0:
254,330,196679,1,8,0:0:0:0:
427,358,197361,6,0,B|446:326|446:326|441:274,1,80,2|0,0:0|0:0,0:0:0:0:
366,237,198043,2,0,B|354:198|354:198|364:156,1,80,8|0,0:0|0:0,0:0:0:0:
437,113,198724,1,2,0:0:0:0:
426,25,199065,1,2,0:0:0:0:
340,45,199406,2,8,P|298:43|252:18,1,80
175,23,200088,6,0,L|184:193,1,160,6|0,0:0|0:0,0:0:0:0:
146,262,201111,1,8,0:0:0:0:
233,255,201452,2,0,P|227:299|125:347,1,160,2|0,0:0|0:0,0:0:0:0:
146,262,202474,1,8,0:0:0:0:
81,201,202815,6,0,B|63:163|63:163|75:113,1,80,2|0,0:0|0:0,0:0:0:0:
123,54,203497,1,8,0:0:0:0:
206,27,203838,1,8,0:0:0:0:
282,71,204179,2,0,L|268:152,2,80,2|0|0,0:0|0:0|0:0,0:0:0:0:
206,27,205202,1,8,0:0:0:0:
192,114,205543,6,0,P|185:160|275:235,1,160,6|0,0:0|0:0,0:0:0:0:
335,191,206565,1,8,0:0:0:0:
397,252,206906,2,0,P|480:206|484:138,1,160,2|0,0:0|0:0,0:0:0:0:
435,76,207929,1,8,0:0:0:0:
360,29,208270,6,0,L|271:40,1,80,2|0,0:0|0:0,0:0:0:0:
216,99,208952,2,0,L|123:92,1,80,8|0,0:0|0:0,0:0:0:0:
59,137,209634,1,2,0:0:0:0:
52,224,209974,1,2,0:0:0:0:
118,281,210315,2,8,L|216:274,1,80
278,240,210997,6,0,P|296:289|394:330,1,160,6|0,0:0|0:0,0:0:0:0:
467,172,212361,2,0,B|438:101|438:101|344:75,1,160,2|0,0:0|0:0,0:0:0:0:
270,64,213384,1,8,0:0:0:0:
195,110,213724,6,0,P|180:144|182:191,1,80,2|0,0:0|0:0,0:0:0:0:
265,211,214406,2,0,P|275:245|267:301,1,80
195,334,215088,1,2,0:0:0:0:
110,358,215429,1,0,0:0:0:0:
61,284,215770,1,8,0:0:0:0:
16,113,216452,6,0,L|105:102,1,80,2|0,0:0|0:0,0:0:0:0:
183,100,217134,1,8,0:0:0:0:
337,18,217815,6,0,B|314:66|314:66|332:172,1,160,2|0,0:0|0:0,0:0:0:0:
415,200,218838,1,8,0:0:0:0:
348,257,219179,2,0,P|354:305|356:349,1,80,2|0,0:0|0:0,0:0:0:0:
273,368,219861,2,0,P|262:331|256:272,1,80,8|0,0:0|0:0,0:0:0:0:
175,254,220543,5,2,0:0:0:0:
14,183,221224,1,8,0:0:0:0:
38,98,221565,1,8,0:0:0:0:
