osu file format v14

[General]
AudioFilename: audio.mp3
AudioLeadIn: 0
PreviewTime: 514
Countdown: 0
SampleSet: Soft
StackLeniency: 0.2
Mode: 0
LetterboxInBreaks: 0
WidescreenStoryboard: 1

[Editor]
Bookmarks: 12150,23968
DistanceSpacing: 1.1
BeatDivisor: 16
GridSize: 16
TimelineZoom: 2

[Metadata]
Title:sink lateral
TitleUnicode:sink lateral
Artist:ilkae
ArtistUnicode:ilkae
Creator:verychill
Version:expert
Source:
Tags:experimental electronic instrumental idm downtempo ambient chill concept pistachio island
BeatmapID:2769504
BeatmapSetID:1336425

[Difficulty]
HPDrainRate:4.7
CircleSize:9.5
OverallDifficulty:9
ApproachRate:9
SliderMultiplier:1.2
SliderTickRate:1

[Events]
//Background and Video events
0,0,"arrowpointstheway.jpg",0,0
//Break Periods
//Storyboard Layer 0 (Background)
//Storyboard Layer 1 (Fail)
//Storyboard Layer 2 (Pass)
//Storyboard Layer 3 (Foreground)
//Storyboard Layer 4 (Overlay)
//Storyboard Sound Samples

[TimingPoints]
514,727.272727272727,4,2,1,50,1,0
9241,-83.3333333333333,4,2,1,50,0,0
9968,-100,4,2,1,50,0,0
11423,-54.054054054054,4,2,1,50,0,0
12150,-100,4,2,1,50,0,0
13150,-100,4,2,99,5,0,0
13241,-100,4,2,1,50,0,0
14604,-100,4,2,99,5,0,0
14695,-100,4,2,1,50,0,0
15968,-100,4,2,99,5,0,0
16059,-83.3333333333333,4,2,1,50,0,0
16513,-100,4,2,1,50,0,0
17241,909.090909090909,4,2,1,50,1,0
17241,-83.3333333333333,4,2,1,50,0,0
18150,727.272727272727,4,2,1,50,1,0
20604,-100,4,2,99,5,0,0
20695,-100,4,2,1,50,0,0
21059,-83.3333333333333,4,2,1,50,0,0
21786,-100,4,2,1,50,0,0
23240,-66.6666666666667,4,2,1,50,0,0
23968,-100,4,2,1,50,0,0
24968,-100,4,2,99,5,0,0
25059,-100,4,2,1,50,0,0
26513,-149.925037481259,4,2,1,50,0,0
26877,-100,4,2,1,50,0,0
28604,-200,4,2,1,50,0,0
29059,-83.3333333333333,4,2,1,50,0,0
29786,-100,4,2,1,50,0,0
30968,-66.6666666666667,4,2,1,50,0,0
31240,-100,4,2,1,50,0,0
32331,-125,4,2,1,50,0,0
32695,-83.3333333333333,4,2,1,50,0,0
33422,-57.1428571428571,4,2,1,50,0,0
34877,-66.6666666666667,4,2,1,50,0,0
37013,-100,4,2,1,45,0,0
39149,-100,4,2,1,40,0,0
40695,-66.6666666666667,4,2,1,35,0,0

[Colours]
Combo1 : 82,33,148
Combo2 : 255,255,96
Combo3 : 112,185,239
Combo4 : 199,24,77

[HitObjects]
0,0,514,5,2,3:2:0:0:
3,30,695,1,0,0:0:0:0:
6,60,877,1,0,0:0:0:0:
3,30,1059,1,0,0:0:0:0:
6,60,1241,1,0,1:0:0:0:
10,301,1604,6,0,L|15:242,1,60,2|0,0:0|3:0,0:0:0:0:
18,214,2059,1,0,0:0:0:0:
19,206,2150,1,0,0:0:0:0:
27,128,2332,1,0,3:0:0:0:
27,128,2513,2,0,L|34:38,1,90,2|0,0:0|0:0,0:0:0:0:
40,295,3423,37,2,3:2:0:0:
43,325,3604,1,0,0:0:0:0:
46,355,3786,1,0,0:0:0:0:
43,325,3968,1,0,0:0:0:0:
43,325,4150,1,0,1:0:0:0:
55,147,4513,6,0,L|60:206,1,60,2|2,0:0|3:2,0:0:0:0:
63,234,4968,1,2,0:2:0:0:
64,242,5059,1,2,0:2:0:0:
60,207,5241,2,0,L|57:177,1,30,2|0,3:2|0:0,0:0:0:0:
67,270,5604,6,0,B|70:300|70:300|75:290,2,37.5,0|0|0,1:0|3:0|3:0,0:0:0:0:
100,38,6332,21,2,3:2:0:0:
102,68,6513,1,2,0:1:0:0:
100,72,6604,1,2,0:1:0:0:
95,70,6695,1,2,0:1:0:0:
96,65,6786,1,2,0:1:0:0:
100,64,6877,1,2,0:1:0:0:
100,97,7059,2,0,P|97:82|98:67,1,30,2|0,1:2|0:0,0:0:0:0:
100,38,7423,2,0,P|101:52|98:67,1,30,2|0,0:2|0:1,0:0:0:0:
99,127,7786,5,2,3:2:0:0:
97,158,7968,1,0,0:0:0:0:
99,127,8150,1,2,3:3:0:0:
99,127,8332,2,0,P|101:112|100:97,1,30,2|0,0:3|0:0,0:0:0:0:
97,158,8695,2,0,P|95:172|98:187,1,30,2|0,0:3|0:0,0:0:0:0:
135,320,9241,37,4,3:3:0:0:
129,259,9423,1,8,0:3:0:0:
132,320,9604,1,2,0:1:0:0:
135,317,9695,1,2,0:1:0:0:
138,319,9786,1,2,0:1:0:0:
135,323,9877,1,2,0:1:0:0:
128,288,9968,6,0,P|126:273|129:259,1,30,2|0,1:2|0:0,0:0:0:0:
142,350,10332,2,0,P|143:364|140:379,1,30,2|0,0:0|0:0,0:0:0:0:
131,289,10695,37,2,3:1:0:0:
128,285,10786,1,2,0:1:0:0:
125,288,10877,1,2,0:1:0:0:
128,291,10968,1,2,0:1:0:0:
129,258,11059,6,0,P|129:243|124:228,1,30,2|0,3:1|0:0,0:0:0:0:
124,170,11423,6,0,B|119:175|119:175|123:155,1,27.7499998941422,2|0,1:0|0:0,0:0:0:0:
129,125,11604,5,2,0:1:0:0:
130,122,11665,37,2,0:1:0:0:
131,119,11726,5,2,0:1:0:0:
132,116,11786,38,0,B|136:96|136:96|131:101,1,27.7499998941422,2|0,0:3|0:0,0:0:0:0:
123,155,11968,2,0,B|119:175|119:175|125:168,1,27.7499998941422,2|0,0:3|0:0,0:0:0:0:
160,162,12150,21,2,3:2:0:0:
154,222,12331,1,2,0:0:0:0:
160,162,12513,1,2,0:0:0:0:
160,162,12695,2,0,L|167:236,1,75,2|0,0:0|0:0,0:0:0:0:
154,222,13241,1,2,0:2:0:0:
160,162,13422,1,2,0:3:0:0:
164,108,13604,5,0,3:0:0:0:
165,94,13695,1,2,0:3:0:0:
166,80,13786,1,2,0:3:0:0:
170,48,13968,1,2,3:2:0:0:
170,48,14150,2,0,L|177:122,1,75,2|0,0:0|0:0,0:0:0:0:
164,108,14695,1,2,0:0:0:0:
201,248,15059,37,2,3:2:0:0:
199,261,15150,1,2,0:0:0:0:
198,274,15240,1,2,0:0:0:0:
204,214,15422,1,2,0:0:0:0:
204,214,15604,2,0,L|210:278,1,60,2|0,0:0|0:0,0:0:0:0:
199,286,16059,1,2,0:0:0:0:
198,274,16150,6,0,L|201:245,2,26.9999991760254,2|2|2,0:0|0:0|0:0,0:0:0:0:
200,316,16513,37,2,3:1:0:0:
203,318,16604,1,2,0:1:0:0:
206,315,16695,1,2,0:1:0:0:
203,312,16786,1,2,0:1:0:0:
205,348,16877,6,0,L|207:377,1,30,4|0,3:3|0:0,0:0:0:0:
201,247,17241,6,0,B|210:227|210:227|204:214,2,35.9999989013672,0|0|0,1:0|3:0|3:0,0:0:0:0:
242,134,18150,21,2,3:2:0:0:
241,104,18331,1,2,0:1:0:0:
243,100,18422,1,2,0:1:0:0:
248,102,18513,1,2,0:1:0:0:
247,107,18604,1,2,0:1:0:0:
243,108,18695,1,2,0:1:0:0:
243,74,18877,2,0,P|245:88|245:103,1,30,2|0,1:2|0:0,0:0:0:0:
242,134,19240,1,2,0:2:0:0:
242,134,19422,1,2,0:2:0:0:
236,200,19604,5,2,3:3:0:0:
233,230,19786,1,2,0:3:0:0:
232,234,19877,1,2,0:3:0:0:
239,200,19968,37,2,3:1:0:0:
236,197,20059,1,2,0:1:0:0:
233,199,20150,1,2,0:1:0:0:
236,203,20241,1,2,0:1:0:0:
240,168,20331,5,2,1:0:0:0:
240,163,20422,2,0,B|241:152|241:152|239:147|239:147|241:133,1,30,2|0,0:1|0:0,0:0:0:0:
246,104,20695,2,0,B|248:92|248:92|246:87|246:87|248:75,1,30,2|0,0:1|0:0,0:0:0:0:
290,6,21059,37,4,3:0:0:0:
288,36,21150,1,4,0:3:0:0:
285,66,21240,2,0,B|278:87|290:85|283:102,1,35.9999989013672,8|0,0:3|0:0,0:0:0:0:
288,36,21604,1,4,0:3:0:0:
288,36,21786,6,0,P|290:21|290:6,1,30,2|0,1:1|0:0,0:0:0:0:
283,101,22150,2,0,P|281:116|281:131,1,30,2|0,0:1|0:0,0:0:0:0:
273,198,22513,37,2,3:3:0:0:
276,167,22695,1,2,0:3:0:0:
277,163,22786,1,2,0:3:0:0:
270,198,22877,5,2,3:1:0:0:
273,201,22968,1,2,0:1:0:0:
276,199,23059,1,2,0:1:0:0:
273,195,23150,1,2,0:1:0:0:
269,231,23240,6,0,B|264:241|264:241|266:251,1,22.5000008583069,2|0,1:1|0:0,0:0:0:0:
274,282,23422,5,2,0:1:0:0:
279,280,23468,1,2,0:1:0:0:
286,310,23604,38,0,B|288:320|288:320|283:330,1,22.5000008583069,2|0,0:3|0:0,0:0:0:0:
266,251,23786,2,0,B|263:240|263:240|268:230,1,22.5000008583069,2|0,0:3|0:0,0:0:0:0:
323,185,23968,21,2,3:2:0:0:
328,246,24150,1,2,0:0:0:0:
329,263,24241,1,2,0:0:0:0:
330,280,24332,1,2,0:0:0:0:
325,216,24513,1,2,0:0:0:0:
328,246,24695,5,2,1:0:0:0:
329,250,24786,2,0,B|330:261|330:261|328:266|328:266|330:278,1,30,2|0,0:1|0:0,0:0:0:0:
333,309,25059,2,0,B|333:314|333:314|332:316|332:316|333:323,1,15,2|0,0:1|0:0,0:0:0:0:
336,353,25240,2,0,B|337:364|337:364|335:369|335:369|337:381,1,30,2|0,0:1|3:0,0:0:0:0:
372,335,25604,37,2,0:2:0:0:
371,320,25695,1,2,0:2:0:0:
370,305,25786,1,2,3:2:0:0:
374,365,25968,5,2,0:3:0:0:
372,335,26059,1,2,0:3:0:0:
370,305,26149,2,0,L|369:284,1,15,2|0,1:3|0:0,0:0:0:0:
368,260,26331,2,0,L|367:246,1,15,2|0,0:3|0:0,0:0:0:0:
364,215,26513,38,0,L|363:195,1,20.0100005221115
390,48,26877,5,2,3:2:0:0:
384,105,27059,1,2,0:1:0:0:
389,105,27149,1,2,0:1:0:0:
391,109,27241,1,2,0:1:0:0:
388,113,27332,1,2,0:1:0:0:
383,113,27422,1,2,0:1:0:0:
382,108,27513,1,2,0:1:0:0:
388,78,27604,38,0,L|390:49,1,30,2|0,1:1|0:0,0:0:0:0:
384,140,27968,2,0,L|382:169,1,30,2|0,0:1|0:0,0:0:0:0:
388,78,28331,5,2,3:3:0:0:
386,109,28513,1,2,3:3:0:0:
386,117,28604,2,0,L|384:140,1,22.5,2|2,0:3|3:3,0:0:0:0:
390,48,29059,6,0,B|392:34|392:34|389:28|389:28|390:14|390:14|397:23,2,44.999998626709,2|2|2,1:0|3:1|3:1,0:0:0:0:
414,298,29786,21,2,3:2:0:0:
416,328,29967,1,2,0:1:0:0:
414,332,30058,1,2,0:1:0:0:
409,330,30149,1,2,0:1:0:0:
410,325,30240,1,2,0:1:0:0:
414,324,30331,1,2,0:1:0:0:
414,357,30513,2,0,P|411:342|412:327,1,30,2|0,1:2|0:0,0:0:0:0:
414,298,30877,1,2,0:3:0:0:
414,304,30968,2,0,P|414:315|411:326,1,22.5000008583069,2|0,0:3|0:0,0:0:0:0:
428,235,31240,5,2,3:2:0:0:
424,267,31422,1,2,0:1:0:0:
421,264,31513,1,2,0:1:0:0:
418,266,31604,1,2,0:1:0:0:
421,270,31695,1,2,0:1:0:0:
428,235,31786,38,0,P|430:220|427:206,1,30,2|0,0:2|1:0,0:0:0:0:
426,114,32149,2,0,P|420:121|416:132,1,15,8|0,0:3|0:0,0:0:0:0:
414,156,32331,6,0,P|413:168|417:180,1,24,4|0,0:3|0:0,0:0:0:0:
471,305,32695,37,4,3:0:0:0:
464,216,32877,1,8,0:3:0:0:
466,246,32968,1,4,0:3:0:0:
469,276,33059,1,4,0:3:0:0:
466,246,33240,1,4,0:3:0:0:
469,276,33422,5,2,1:0:0:0:
467,271,33513,2,0,P|463:258|466:245,1,26.2500002503395,2|0,0:1|0:0,0:0:0:0:
461,186,33786,1,2,0:1:0:0:
462,190,33877,2,0,P|465:202|464:215,1,26.2500002503395,2|0,0:1|0:0,0:0:0:0:
472,120,34149,37,2,3:3:0:0:
467,152,34331,1,2,0:3:0:0:
466,156,34422,1,2,0:3:0:0:
469,119,34513,5,2,3:1:0:0:
472,117,34604,1,2,0:1:0:0:
475,120,34695,1,2,0:1:0:0:
472,123,34786,1,2,0:1:0:0:
476,87,34877,6,0,B|484:74|484:74|477:73,1,22.5000008583069,2|0,1:1|0:0,0:0:0:0:
489,45,35059,5,2,0:1:0:0:
484,44,35105,1,2,0:1:0:0:
493,15,35240,38,0,B|486:14|486:14|495:2,1,22.5000008583069,2|0,0:3|0:0,0:0:0:0:
477,74,35422,2,0,B|484:74|484:74|475:87,1,22.5000008583069,2|0,0:3|0:0,0:0:0:0:
256,192,35604,12,4,37013,0:3:0:0:
256,192,37059,12,4,39149,0:3:0:0:
502,360,40695,6,0,B|504:344|504:344|501:329|501:329|502:314,1,45.0000017166138,2|0,3:1|0:0,0:0:0:0:
508,266,41059,37,2,0:1:0:0:
509,262,41119,5,2,0:1:0:0:
510,258,41180,37,2,0:1:0:0:
511,254,41240,6,0,L|512:242,3,11.2500004291535,2|0|0|0,0:1|0:0|0:0|0:0,0:0:0:0:
