osu file format v14

[General]
AudioFilename: audio.mp3
AudioLeadIn: 0
PreviewTime: 514
Countdown: 0
SampleSet: Soft
StackLeniency: 0.2
Mode: 0
LetterboxInBreaks: 0
WidescreenStoryboard: 1

[Editor]
Bookmarks: 12150,23968,35604
DistanceSpacing: 1.1
BeatDivisor: 8
GridSize: 4
TimelineZoom: 1.7

[Metadata]
Title:sink lateral
TitleUnicode:sink lateral
Artist:ilkae
ArtistUnicode:ilkae
Creator:verychill
Version:advanced
Source:
Tags:experimental electronic instrumental idm downtempo ambient chill concept pistachio island
BeatmapID:2768616
BeatmapSetID:1336425

[Difficulty]
HPDrainRate:3.5
CircleSize:6
OverallDifficulty:5.5
ApproachRate:6
SliderMultiplier:1.2
SliderTickRate:1

[Events]
//Background and Video events
0,0,"arrowpointstheway.jpg",0,0
//Break Periods
//Storyboard Layer 0 (Background)
//Storyboard Layer 1 (Fail)
//Storyboard Layer 2 (Pass)
//Storyboard Layer 3 (Foreground)
//Storyboard Layer 4 (Overlay)
//Storyboard Sound Samples

[TimingPoints]
514,727.272727272727,4,2,1,50,1,0
17241,909.090909090909,4,2,1,50,1,0
17241,-83.3333333333333,4,2,1,50,0,0
18150,727.272727272727,4,2,1,50,1,0
37013,-100,4,2,1,45,0,0
39149,-100,4,2,1,40,0,0
40695,-100,4,2,1,35,0,0

[Colours]
Combo1 : 82,33,148
Combo2 : 255,255,96
Combo3 : 112,185,239
Combo4 : 199,24,77

[HitObjects]
6,46,514,6,0,L|11:106,1,60,2|0,3:2|0:0,0:0:0:0:
16,172,1241,1,0,1:0:0:0:
21,106,1604,6,0,L|26:165,1,60,2|0,0:0|3:0,0:0:0:0:
31,231,2332,1,0,3:0:0:0:
36,296,2695,2,0,L|41:237,1,60,0|0,1:0|0:0,0:0:0:0:
46,170,3423,38,0,L|51:230,1,60,2|0,3:2|0:0,0:0:0:0:
56,296,4150,1,0,1:0:0:0:
61,230,4513,6,0,L|66:171,1,60,2|0,0:0|3:0,0:0:0:0:
71,104,5241,1,0,3:2:0:0:
76,38,5604,6,0,L|80:0,2,37.5,0|0|0,1:0|3:0|3:0,0:0:0:0:
86,90,6332,21,2,3:2:0:0:
86,90,6513,1,2,0:0:0:0:
96,158,6877,1,2,0:0:0:0:
96,158,7059,1,2,1:2:0:0:
101,92,7423,6,0,P|100:121|106:151,1,60,2|0,0:0|3:0,0:0:0:0:
111,216,8150,2,0,P|118:260|118:305,1,90,2|2,3:2|0:0,0:0:0:0:
126,156,9241,37,4,3:3:0:0:
126,156,9423,2,0,P|125:126|131:96,1,60,8|4,0:3|0:3,0:0:0:0:
138,64,9968,2,0,P|143:34|142:4,2,60,0|0|0,1:0|3:0|0:0,0:0:0:0:
156,162,11241,21,2,0:0:0:0:
156,162,11423,2,0,L|152:200,1,30,2|2,1:0|0:1,0:0:0:0:
161,223,11786,2,0,L|157:261,1,30,2|2,0:3|0:3,0:0:0:0:
166,286,12150,22,0,L|171:227,1,60,2|0,3:2|0:0,0:0:0:0:
173,194,12695,1,2,0:0:0:0:
181,384,13241,6,0,L|186:325,1,60,2|0,0:0|3:0,0:0:0:0:
187,291,13786,2,0,L|191:262,1,30,0|0,3:0|3:0,0:0:0:0:
197,197,14332,1,0,1:0:0:0:
197,197,14513,2,0,L|201:168,1,30,2|0,0:0|0:0,0:0:0:0:
206,101,15059,38,0,L|211:160,1,60,2|0,3:2|0:0,0:0:0:0:
213,193,15604,1,2,0:0:0:0:
221,3,16150,6,0,L|226:62,1,60,2|0,0:0|3:0,0:0:0:0:
227,96,16695,2,0,L|231:125,1,30,0|0,0:0|3:2,0:0:0:0:
235,191,17241,6,0,L|239:229,2,35.9999989013672,0|0|0,1:0|3:0|3:0,0:0:0:0:
246,354,18150,21,2,3:2:0:0:
246,354,18331,1,2,0:0:0:0:
256,286,18695,1,2,0:0:0:0:
256,286,18877,1,2,1:2:0:0:
261,354,19240,6,0,P|260:369|263:384,2,30,2|0|0,0:0|0:0|3:0,0:0:0:0:
271,289,19968,1,2,3:2:0:0:
274,224,20331,1,2,1:1:0:0:
274,224,20513,1,2,0:2:0:0:
286,364,21059,37,4,3:0:0:0:
286,364,21240,2,0,P|285:334|291:304,1,60,8|4,0:3|0:3,0:0:0:0:
298,272,21786,1,2,1:1:0:0:
300,336,22150,6,0,P|299:307|305:277,1,60,2|0,0:1|3:0,0:0:0:0:
311,248,22695,1,2,0:1:0:0:
311,248,22877,1,2,3:1:0:0:
316,182,23240,6,0,L|312:144,1,30,2|2,1:1|0:1,0:0:0:0:
321,120,23604,2,0,L|317:82,1,30,2|2,0:3|0:3,0:0:0:0:
323,55,23968,21,2,3:2:0:0:
326,58,24150,2,0,L|337:166,1,90,2|2,0:0|1:0,0:0:0:0:
341,212,25058,1,2,0:1:0:0:
346,278,25422,1,2,3:2:0:0:
351,213,25786,5,0,3:0:0:0:
356,281,26149,1,2,1:3:0:0:
356,281,26331,2,0,L|360:319,1,30,2|0,0:3|0:0,0:0:0:0:
366,379,26877,37,2,3:2:0:0:
366,379,27059,2,0,L|376:281,1,90,2|2,0:0|1:0,0:0:0:0:
381,223,27967,1,2,0:1:0:0:
386,158,28331,5,2,3:2:0:0:
396,97,28695,1,2,0:3:0:0:
396,97,28877,1,2,0:3:0:0:
396,97,29059,6,0,L|400:59,2,37.5,2|2|2,1:0|3:1|3:1,0:0:0:0:
406,148,29786,21,2,3:2:0:0:
406,148,29967,1,2,0:0:0:0:
416,216,30331,1,2,0:0:0:0:
416,216,30513,1,2,1:2:0:0:
420,151,30877,6,0,P|419:137|422:122,2,30,2|0|2,0:1|0:0|3:2,0:0:0:0:
427,184,31422,2,0,P|431:198|431:213,1,30,2|0,0:1|3:2,0:0:0:0:
431,246,31786,2,0,P|430:275|436:305,1,60,2|2,0:1|0:0,0:0:0:0:
446,125,32695,37,4,3:0:0:0:
446,125,32877,2,0,P|445:95|451:65,1,60,8|4,0:3|0:3,0:0:0:0:
459,33,33422,1,2,1:1:0:0:
464,99,33786,5,2,0:1:0:0:
476,40,34149,1,2,3:1:0:0:
476,40,34331,1,2,0:1:0:0:
476,40,34513,1,2,3:1:0:0:
476,105,34877,6,0,L|472:143,1,30,2|2,1:1|0:1,0:0:0:0:
481,167,35241,2,0,L|477:205,1,30,2|2,0:3|0:3,0:0:0:0:
256,192,35604,12,4,39149,0:3:0:0:
501,360,40695,6,0,L|505:322,1,30,2|0,3:1|0:0,0:0:0:0:
502,297,41059,2,0,L|505:267,1,30,2|0,0:1|0:0,0:0:0:0:
