osu file format v14

[General]
AudioFilename: audio.mp3
AudioLeadIn: 0
PreviewTime: 514
Countdown: 0
SampleSet: Soft
StackLeniency: 0.4
Mode: 0
LetterboxInBreaks: 0
WidescreenStoryboard: 1

[Editor]
Bookmarks: 12150,23968
DistanceSpacing: 0.8
BeatDivisor: 8
GridSize: 8
TimelineZoom: 2

[Metadata]
Title:sink lateral
TitleUnicode:sink lateral
Artist:ilkae
ArtistUnicode:ilkae
Creator:verychill
Version:insane
Source:
Tags:experimental electronic instrumental idm downtempo ambient chill concept pistachio island
BeatmapID:2768615
BeatmapSetID:1336425

[Difficulty]
HPDrainRate:4.5
CircleSize:9
OverallDifficulty:8
ApproachRate:8
SliderMultiplier:1.2
SliderTickRate:1

[Events]
//Background and Video events
0,0,"arrowpointstheway.jpg",0,0
//Break Periods
//Storyboard Layer 0 (Background)
//Storyboard Layer 1 (Fail)
//Storyboard Layer 2 (Pass)
//Storyboard Layer 3 (Foreground)
//Storyboard Layer 4 (Overlay)
//Storyboard Sound Samples

[TimingPoints]
514,727.272727272727,4,2,1,50,1,0
9241,-83.3333333333333,4,2,1,50,0,0
9968,-100,4,2,1,50,0,0
10241,-100,4,2,99,5,0,0
10332,-100,4,2,1,50,0,0
10604,-100,4,2,99,5,0,0
10695,-100,4,2,1,50,0,0
11423,-66.6666666666667,4,2,1,50,0,0
12150,-100,4,2,1,50,0,0
13150,-100,4,2,99,5,0,0
13241,-100,4,2,1,50,0,0
16059,-100,4,2,99,5,0,0
16150,-100,4,2,1,50,0,0
17241,909.090909090909,4,2,1,50,1,0
17241,-83.3333333333333,4,2,1,50,0,0
18150,727.272727272727,4,2,1,50,1,0
20604,-100,4,2,99,5,0,0
20695,-100,4,2,1,50,0,0
21059,-83.3333333333333,4,2,1,50,0,0
21786,-100,4,2,1,50,0,0
23240,-66.6666666666667,4,2,1,50,0,0
23968,-100,4,2,1,50,0,0
32695,-83.3333333333333,4,2,1,50,0,0
33422,-100,4,2,1,50,0,0
33695,-100,4,2,99,5,0,0
33786,-100,4,2,1,50,0,0
34877,-66.6666666666667,4,2,1,50,0,0
37013,-100,4,2,1,45,0,0
39149,-100,4,2,1,40,0,0
40695,-66.6666666666667,4,2,1,35,0,0

[Colours]
Combo1 : 82,33,148
Combo2 : 255,255,96
Combo3 : 112,185,239
Combo4 : 199,24,77

[HitObjects]
6,0,514,6,0,L|8:29,1,30,2|0,3:2|0:0,0:0:0:0:
14,66,877,1,0,0:0:0:0:
14,66,1059,2,0,L|16:36,1,30,0|0,0:0|1:0,0:0:0:0:
21,31,1604,6,0,L|26:90,1,60,2|0,0:0|3:0,0:0:0:0:
27,186,2332,1,0,3:0:0:0:
27,186,2513,2,0,L|34:96,1,90,2|0,0:0|0:0,0:0:0:0:
46,269,3423,38,0,L|48:298,1,30,2|0,3:2|0:0,0:0:0:0:
54,335,3786,1,0,0:0:0:0:
54,335,3968,2,0,L|56:305,1,30,0|0,0:0|1:0,0:0:0:0:
61,300,4513,6,0,L|63:271,1,30,2|0,0:0|0:0,0:0:0:0:
65,200,4877,2,0,L|66:186,2,15,0|0|0,3:2|0:0|0:0,0:0:0:0:
68,265,5241,2,0,L|70:236,1,30,2|0,3:2|0:0,0:0:0:0:
77,335,5604,6,0,L|76:373,2,37.5,0|0|0,1:0|3:0|3:0,0:0:0:0:
86,152,6332,21,2,3:2:0:0:
88,199,6513,1,2,0:0:0:0:
94,157,6877,5,2,0:0:0:0:
96,204,7059,2,0,P|100:218|99:233,1,30,2|0,1:2|0:0,0:0:0:0:
101,161,7423,2,0,P|96:146|97:131,1,30,2|0,0:2|0:1,0:0:0:0:
106,85,7786,37,0,3:3:0:0:
105,49,7968,1,0,0:3:0:0:
111,82,8150,1,2,3:3:0:0:
110,45,8332,2,0,P|110:30|106:16,1,30,2|0,0:3|0:0,0:0:0:0:
110,87,8695,2,0,P|110:102|114:117,1,30,2|0,0:3|0:0,0:0:0:0:
126,290,9241,5,4,3:3:0:0:
131,232,9423,2,0,B|134:220|124:211|124:211|129:218|129:223,1,35.9999989013672,8|0,0:3|0:0,0:0:0:0:
136,297,9786,37,4,0:3:0:0:
136,234,9968,2,0,P|138:212|133:190,1,45,2|0,1:2|0:0,0:0:0:0:
139,191,10332,2,0,P|144:212|142:235,1,45,2|0,0:0|0:0,0:0:0:0:
146,264,10695,5,2,3:1:0:0:
148,306,10877,1,2,0:1:0:0:
151,267,11059,1,2,3:1:0:0:
153,309,11241,1,2,0:1:0:0:
156,351,11423,6,0,B|158:362|158:362|159:354|159:350,1,22.5000008583069,2|0,1:0|0:0,0:0:0:0:
158,311,11604,1,2,0:3:0:0:
160,289,11695,1,2,0:3:0:0:
161,267,11786,2,0,L|162:244,1,22.5000008583069,2|0,0:3|0:0,0:0:0:0:
165,268,11968,2,0,L|166:245,1,22.5000008583069,2|0,0:3|0:0,0:0:0:0:
166,187,12150,22,0,L|168:158,1,30,2|0,3:2|0:0,0:0:0:0:
174,121,12513,1,2,0:0:0:0:
174,121,12695,2,0,L|178:195,1,75,2|0,0:0|0:0,0:0:0:0:
183,199,13241,2,0,L|181:170,1,30,2|0,0:0|0:0,0:0:0:0:
186,72,13604,5,0,3:0:0:0:
188,35,13786,1,0,3:0:0:0:
191,0,13968,1,0,3:2:0:0:
191,0,14150,2,0,L|195:89,1,90,2|2,0:0|0:0,0:0:0:0:
206,181,15059,37,2,3:2:0:0:
207,167,15150,1,2,0:0:0:0:
208,152,15240,1,2,0:0:0:0:
214,115,15422,1,2,0:0:0:0:
214,115,15604,2,0,L|218:189,1,75,2|0,0:0|0:0,0:0:0:0:
223,193,16150,6,0,L|221:169,2,22.5,2|2|2,0:0|0:0|0:0,0:0:0:0:
226,228,16513,1,2,3:1:0:0:
229,263,16695,1,2,0:1:0:0:
230,277,16785,1,2,0:1:0:0:
231,292,16877,2,0,L|233:321,1,30,2|0,3:1|0:0,0:0:0:0:
236,218,17241,6,0,L|238:180,2,35.9999989013672,0|0|0,1:0|3:0|3:0,0:0:0:0:
246,362,18150,21,2,3:2:0:0:
248,315,18331,1,2,0:0:0:0:
253,358,18695,5,2,0:0:0:0:
257,310,18877,1,2,1:2:0:0:
261,354,19059,2,0,P|266:369|265:384,2,30,2|0|0,0:0|0:1|0:0,0:0:0:0:
266,305,19604,37,0,3:0:0:0:
269,254,19786,1,2,0:3:0:0:
270,240,19876,1,2,0:3:0:0:
271,225,19968,2,0,L|272:204,2,15,2|2|2,3:1|0:1|0:1,0:0:0:0:
275,301,20331,1,2,1:0:0:0:
276,316,20422,2,0,B|277:328|277:328|275:332|275:332|276:345,1,30,2|0,0:1|0:0,0:0:0:0:
281,349,20695,2,0,B|278:335|287:332|282:316,1,30,2|0,0:1|0:0,0:0:0:0:
286,142,21059,5,4,3:0:0:0:
291,199,21240,2,0,B|291:209|283:214|283:214|281:204|291:199,1,35.9999989013672,8|0,0:3|0:0,0:0:0:0:
296,139,21604,37,4,0:3:0:0:
296,197,21786,2,0,P|300:211|299:226,1,30,2|0,1:1|0:0,0:0:0:0:
301,291,22150,2,0,P|297:276|297:261,1,30,2|0,0:1|0:0,0:0:0:0:
306,136,22513,5,2,3:3:0:0:
311,97,22695,1,2,0:3:0:0:
311,97,22786,1,2,0:3:0:0:
311,97,22877,1,2,3:1:0:0:
313,106,22968,1,2,0:1:0:0:
314,115,23059,1,2,0:1:0:0:
315,124,23150,1,2,0:1:0:0:
316,133,23240,6,0,B|308:125|308:125|306:136,1,22.5000008583069,2|0,1:1|0:0,0:0:0:0:
319,168,23421,5,2,0:1:0:0:
319,201,23604,38,0,L|320:224,1,22.5000008583069,2|0,0:3|0:0,0:0:0:0:
323,200,23786,2,0,L|324:223,1,22.5000008583069,2|0,0:3|0:0,0:0:0:0:
328,297,23968,21,2,3:2:0:0:
328,297,24150,2,0,L|326:268,1,30,2|0,0:0|0:0,0:0:0:0:
331,373,24513,1,2,0:0:0:0:
338,344,24695,1,2,1:0:0:0:
337,329,24787,2,0,L|336:314,1,15,2|0,0:1|0:0,0:0:0:0:
341,239,25059,2,0,L|339:210,1,30,2|0,0:1|0:0,0:0:0:0:
351,122,25422,5,2,3:2:0:0:
351,122,25604,2,0,L|352:107,2,15,2|2|2,0:0|0:0|3:2,0:0:0:0:
354,195,25968,1,2,0:3:0:0:
355,180,26059,1,2,0:3:0:0:
356,165,26149,2,0,L|358:136,2,30,2|0|0,1:3|0:0|0:0,0:0:0:0:
366,79,26877,37,2,3:2:0:0:
369,44,27059,1,2,0:1:0:0:
370,30,27149,1,2,0:1:0:0:
371,15,27240,2,0,L|371:0,2,15,2|2|2,0:1|0:1|0:1,0:0:0:0:
376,101,27604,1,2,1:1:0:0:
377,86,27696,2,0,L|378:65,1,15,2|0,0:1|0:0,0:0:0:0:
381,138,27968,2,0,L|379:167,1,30,2|0,0:1|0:0,0:0:0:0:
386,277,28331,5,2,3:3:0:0:
389,242,28513,1,2,0:3:0:0:
390,227,28604,1,2,0:3:0:0:
391,212,28695,2,0,L|393:183,1,30,2|2,0:3|0:3,0:0:0:0:
398,293,29059,6,0,L|396:331,2,37.5,2|2|2,1:0|3:1|3:1,0:0:0:0:
406,83,29786,21,2,3:2:0:0:
408,130,29967,1,2,0:0:0:0:
413,87,30331,5,2,0:0:0:0:
417,135,30513,1,2,1:0:0:0:
418,150,30605,2,0,L|419:171,1,15,2|0,0:1|0:0,0:0:0:0:
421,91,30877,2,0,P|426:76|425:61,1,30,2|0,0:1|0:0,0:0:0:0:
426,140,31240,37,2,3:2:0:0:
429,193,31422,1,2,0:1:0:0:
430,208,31513,1,2,0:1:0:0:
431,223,31603,1,2,0:1:0:0:
433,237,31695,1,2,0:1:0:0:
434,252,31786,2,0,P|436:237|435:222,1,30,2|0,0:2|1:0,0:0:0:0:
442,296,32149,2,0,P|439:310|440:325,1,30,2|0,0:0|0:0,0:0:0:0:
446,120,32695,5,4,3:0:0:0:
451,63,32877,2,0,B|448:54|448:54|441:49|441:49|443:57|443:57|451:63,1,35.9999989013672,8|0,0:3|0:0,0:0:0:0:
456,123,33240,37,4,0:3:0:0:
456,65,33422,1,2,1:0:0:0:
457,50,33513,2,0,P|451:31|443:20,1,30,2|0,0:1|0:0,0:0:0:0:
461,0,33786,1,2,0:1:0:0:
462,15,33877,2,0,L|462:29,1,15,2|0,0:1|0:0,0:0:0:0:
466,127,34149,5,2,3:3:0:0:
470,180,34331,1,2,0:3:0:0:
470,180,34422,1,2,0:3:0:0:
470,180,34513,1,2,3:1:0:0:
471,171,34604,1,2,0:1:0:0:
472,162,34695,1,2,0:1:0:0:
476,130,34877,6,0,B|486:125|486:125|481:127|475:126,1,22.5000008583069,2|0,1:1|0:0,0:0:0:0:
479,95,35059,5,2,0:1:0:0:
479,62,35240,38,0,L|480:39,1,22.5000008583069,2|0,0:3|0:0,0:0:0:0:
483,63,35422,2,0,L|484:40,1,22.5000008583069,2|0,0:3|0:0,0:0:0:0:
256,192,35604,12,4,37013,0:3:0:0:
256,192,37059,12,4,39149,0:3:0:0:
496,360,40695,6,0,B|498:344|498:344|495:329|495:329|496:314,1,45.0000017166138,2|0,3:1|0:0,0:0:0:0:
503,270,41059,1,2,0:1:0:0:
504,262,41150,1,2,0:1:0:0:
505,254,41240,2,0,L|506:242,3,11.2500004291535,2|0|0|0,0:1|0:0|0:0|0:0,0:0:0:0:
