osu file format v14

[General]
AudioFilename: audio.mp3
AudioLeadIn: 0
PreviewTime: -1
Countdown: 1
SampleSet: None
StackLeniency: 0.7
Mode: 0
LetterboxInBreaks: 0
WidescreenStoryboard: 0

[Editor]
DistanceSpacing: 0.9
BeatDivisor: 4
GridSize: 4
TimelineZoom: 1

[Metadata]
Title:Da La Beng Ba
TitleUnicode:达拉崩吧
Artist:ilem
ArtistUnicode:ilem
Creator:cubelrti
Version:J
Source:vocaloid
Tags:
BeatmapID:1314574
BeatmapSetID:623674

[Difficulty]
HPDrainRate:6.7
CircleSize:4.5
OverallDifficulty:8.8
ApproachRate:9.7
SliderMultiplier:1.8
SliderTickRate:1

[Events]
//Background and Video events
0,0,"GettyImages-116004081-58fa046b5f9b581d59c1dd62.jpg",0,0
//Break Periods
2,74230,81476
2,121230,136976
//Storyboard Layer 0 (Background)
//Storyboard Layer 1 (Fail)
//Storyboard Layer 2 (Pass)
//Storyboard Layer 3 (Foreground)
//Storyboard Sound Samples

[TimingPoints]
30,500,4,1,0,100,1,0
10030,-100,4,1,0,50,0,0
42280,-100,4,1,0,65,0,1
49530,-100,4,1,0,65,0,0
50030,-100,4,1,0,65,0,1
58030,-100,4,1,0,65,0,0
153030,-66.6666666666667,4,1,0,65,0,0
153530,-100,4,1,0,65,0,0
169030,-50,4,1,0,65,0,0

[HitObjects]
168,240,10030,5,0,0:0:0:0:
512,136,10280,2,0,P|508:64|468:-4,1,135,2|0,0:0|0:0,0:0:0:0:
328,272,11030,2,0,L|336:384,1,90
88,64,11530,2,0,P|24:44|-36:48,1,90
152,324,12030,5,0,0:0:0:0:
432,40,12280,2,0,P|372:40|296:100,1,135,2|0,0:0|0:0,0:0:0:0:
64,312,13030,2,0,P|104:248|112:200,1,90
496,84,13530,2,0,P|488:144|488:196,1,90
504,316,14030,5,0,0:0:0:0:
228,68,14280,2,0,P|156:84|72:60,1,135,2|0,0:0|0:0,0:0:0:0:
452,320,15030,2,0,L|500:236,1,90
400,112,15405,1,0,0:0:0:0:
224,164,15530,2,0,L|182:243,1,90
288,300,15905,1,0,0:0:0:0:
452,184,16030,2,0,L|488:100,1,90
88,328,16530,2,0,P|36:340|-24:332,1,90
432,36,17030,2,0,P|465:65|508:77,2,90
496,296,18030,5,0,0:0:0:0:
80,60,18280,2,0,P|20:76|0:116,1,90,2|0,0:0|0:0,0:0:0:0:
244,320,18780,1,0,0:0:0:0:
248,32,19030,2,0,L|372:24,1,90
88,360,19530,2,0,L|-24:380,1,90
512,32,20030,5,0,0:0:0:0:
0,192,20280,2,0,P|28:228|36:288,1,90,2|0,0:0|0:0,0:0:0:0:
112,32,20780,1,0,0:0:0:0:
372,380,21030,2,0,P|420:340|468:328,1,90
68,312,21530,2,0,P|4:272|-20:232,1,90
184,56,22030,5,0,0:0:0:0:
420,256,22280,2,0,P|368:308|316:312,1,90,2|0,0:0|0:0,0:0:0:0:
112,264,22780,1,0,0:0:0:0:
440,88,23030,2,0,P|448:140|440:184,1,90
24,92,23530,2,0,P|80:48|124:48,1,90
412,308,24030,5,0,0:0:0:0:
356,44,24280,2,0,P|396:16|448:12,1,90
120,304,24780,2,0,P|40:284|4:256,1,90
176,112,25530,5,0,0:0:0:0:
396,212,25780,1,0,0:0:0:0:
152,288,26030,2,0,P|80:284|32:276,1,90
424,0,26530,2,0,P|479:7|524:16,1,90,2|0,0:0|0:0,0:0:0:0:
0,140,27030,1,0,0:0:0:0:
512,328,27280,1,0,0:0:0:0:
408,52,27530,1,0,0:0:0:0:
136,320,27780,1,0,0:0:0:0:
500,88,28030,6,0,P|496:32|508:-8,1,90
28,260,28530,2,0,P|40:312|32:356,1,90,2|0,0:0|0:0,0:0:0:0:
56,28,29030,1,0,0:0:0:0:
148,356,29280,1,0,0:0:0:0:
432,60,29530,1,0,0:0:0:0:
12,336,29780,1,0,0:0:0:0:
436,160,30030,6,0,L|532:228,1,90
20,128,30530,2,0,P|0:64|16:12,1,90,2|0,0:0|0:0,0:0:0:0:
476,332,31030,1,0,0:0:0:0:
196,320,31280,1,0,0:0:0:0:
196,320,31405,1,0,0:0:0:0:
160,60,31530,1,0,0:0:0:0:
472,20,31780,1,0,0:0:0:0:
80,308,32030,6,0,P|24:292|0:260,1,90
436,32,32530,2,0,P|487:44|512:80,1,90,2|0,0:0|0:0,0:0:0:0:
436,240,32905,1,0,0:0:0:0:
272,344,33030,2,0,P|242:298|220:264,2,90
444,24,33780,1,0,0:0:0:0:
0,76,34030,1,0,0:0:0:0:
420,328,34280,6,0,L|544:344,1,90,0|2,0:0|0:0,0:0:0:0:
8,72,34780,1,0,0:0:0:0:
496,112,35030,2,0,L|464:216,1,90
0,272,35530,2,0,L|40:172,1,90
340,0,36030,5,0,0:0:0:0:
424,300,36280,2,0,P|408:344|376:380,1,90,0|2,0:0|0:0,0:0:0:0:
0,112,36780,1,0,0:0:0:0:
380,224,37030,2,0,L|484:216,1,90
96,56,37530,2,0,L|-20:72,1,90
396,332,38030,5,0,0:0:0:0:
140,72,38280,2,0,P|204:104|224:136,1,90,0|2,0:0|0:0,0:0:0:0:
0,360,38780,1,0,0:0:0:0:
456,84,39030,2,0,L|516:4,1,90
54,280,39530,2,0,L|0:352,1,90
400,88,40030,5,0,0:0:0:0:
168,336,40280,2,0,L|280:348,1,90,0|2,0:0|0:0,0:0:0:0:
113,40,40780,2,0,L|24:32,1,90
384,288,41280,2,0,L|492:300,1,90
264,12,41780,1,0,0:0:0:0:
464,148,42030,5,2,0:0:0:0:
24,108,42280,1,0,0:0:0:0:
24,128,42530,1,2,0:0:0:0:
456,112,42780,1,0,0:0:0:0:
456,148,43030,5,2,0:0:0:0:
32,196,43280,1,0,0:0:0:0:
64,256,43530,1,2,0:0:0:0:
432,56,43780,1,0,0:0:0:0:
400,16,44030,5,2,0:0:0:0:
148,376,44280,1,0,0:0:0:0:
168,0,44530,1,2,0:0:0:0:
96,376,44780,1,0,0:0:0:0:
212,12,45030,1,2,0:0:0:0:
112,188,45405,5,0,0:0:0:0:
144,148,45530,1,0,0:0:0:0:
172,108,45655,1,0,0:0:0:0:
204,64,45780,1,0,0:0:0:0:
416,304,46030,5,2,0:0:0:0:
32,104,46280,1,0,0:0:0:0:
444,108,46530,1,2,0:0:0:0:
24,280,46780,1,0,0:0:0:0:
456,20,47030,5,2,0:0:0:0:
456,280,47280,1,0,0:0:0:0:
36,284,47530,1,2,0:0:0:0:
40,96,47780,1,0,0:0:0:0:
368,384,48030,5,2,0:0:0:0:
128,200,48280,1,0,0:0:0:0:
272,0,48530,1,2,0:0:0:0:
88,324,48780,1,0,0:0:0:0:
440,164,49030,1,0,0:0:0:0:
56,120,49530,5,0,0:0:0:0:
56,120,49655,1,0,0:0:0:0:
56,120,49780,1,0,0:0:0:0:
76,328,50030,5,2,0:0:0:0:
400,24,50280,1,0,0:0:0:0:
148,352,50530,1,2,0:0:0:0:
468,40,50780,1,0,0:0:0:0:
244,364,51030,1,2,0:0:0:0:
356,16,51280,1,0,0:0:0:0:
352,368,51530,1,2,0:0:0:0:
272,16,51780,1,0,0:0:0:0:
264,356,52030,1,2,0:0:0:0:
380,24,52280,1,0,0:0:0:0:
140,344,52530,1,2,0:0:0:0:
468,32,52780,1,0,0:0:0:0:
40,296,53030,1,2,0:0:0:0:
8,240,53405,5,0,0:1:0:0:
24,220,53530,1,0,0:0:0:0:
140,88,53780,1,0,0:0:0:0:
312,84,54030,5,2,0:0:0:0:
464,228,54280,1,0,0:0:0:0:
320,356,54530,1,2,0:0:0:0:
164,240,54780,1,0,0:0:0:0:
240,68,55030,1,2,0:0:0:0:
476,160,55280,1,0,0:0:0:0:
280,344,55530,1,2,0:0:0:0:
8,212,55780,1,0,0:0:0:0:
512,112,56030,1,2,0:0:0:0:
0,136,56280,1,0,0:0:0:0:
512,212,56530,1,2,0:0:0:0:
0,264,56780,1,0,0:0:0:0:
512,320,57030,1,0,0:0:0:0:
128,248,57780,5,0,0:0:0:0:
128,248,57905,1,0,0:0:0:0:
128,252,58030,2,0,L|204:244,1,45
248,312,58280,2,0,L|296:272,1,45
360,276,58530,1,0,0:0:0:0:
392,180,58655,1,0,0:0:0:0:
336,96,58780,1,0,0:0:0:0:
224,92,58905,1,0,0:0:0:0:
128,188,59030,6,0,L|76:192,1,45
168,308,59280,2,0,L|240:296,1,45
312,192,59530,1,0,0:0:0:0:
296,120,59613,1,0,0:0:0:0:
244,72,59696,1,0,0:0:0:0:
184,56,59780,1,0,0:0:0:0:
128,64,59863,1,0,0:0:0:0:
92,80,59946,1,0,0:0:0:0:
68,96,60030,6,0,L|140:120,1,45
188,272,60280,2,0,L|112:248,1,45
280,144,60530,2,0,L|336:164,1,45
408,348,60780,2,0,L|352:332,1,45
20,132,61030,5,0,0:0:0:0:
136,156,61155,1,0,0:0:0:0:
140,256,61280,1,0,0:0:0:0:
56,320,61405,5,0,0:0:0:0:
0,220,61530,1,0,0:0:0:0:
16,380,61655,1,0,0:0:0:0:
216,356,61780,1,0,0:0:0:0:
204,200,61905,1,0,0:0:0:0:
224,96,62030,6,0,L|272:60,1,45
388,108,62280,2,0,L|340:144,1,45
240,204,62530,5,0,0:0:0:0:
248,60,62655,1,0,0:0:0:0:
176,132,62780,1,0,0:0:0:0:
312,132,62905,1,0,0:0:0:0:
320,252,63030,6,0,L|256:256,1,45
92,260,63280,2,0,L|152:264,1,45
224,144,63530,5,0,0:0:0:0:
252,136,63613,1,0,0:0:0:0:
236,104,63696,1,0,0:0:0:0:
280,88,63779,1,0,0:0:0:0:
256,56,63863,1,0,0:0:0:0:
300,44,63946,1,0,0:0:0:0:
388,84,64029,5,0,0:0:0:0:
396,108,64113,1,0,0:0:0:0:
401,134,64196,1,0,0:0:0:0:
400,160,64279,1,0,0:0:0:0:
396,187,64363,1,0,0:0:0:0:
388,212,64446,1,0,0:0:0:0:
377,236,64529,5,0,0:0:0:0:
363,259,64613,1,0,0:0:0:0:
346,280,64696,1,0,0:0:0:0:
325,297,64779,1,0,0:0:0:0:
301,310,64863,1,0,0:0:0:0:
275,317,64946,1,0,0:0:0:0:
248,322,65029,5,0,0:0:0:0:
220,323,65113,1,0,0:0:0:0:
193,320,65196,1,0,0:0:0:0:
166,313,65280,1,0,0:0:0:0:
141,302,65363,1,0,0:0:0:0:
121,283,65446,1,0,0:0:0:0:
105,260,65530,5,0,0:0:0:0:
92,236,65613,1,0,0:0:0:0:
83,210,65696,1,0,0:0:0:0:
81,182,65780,1,0,0:0:0:0:
85,155,65863,1,0,0:0:0:0:
89,128,65946,1,0,0:0:0:0:
101,103,66030,6,0,L|139:62,1,45
281,165,66280,2,0,L|225:174,1,45
307,288,66530,2,0,L|375:294,1,45
463,37,66780,2,0,L|410:56,1,45
197,229,67030,5,0,0:0:0:0:
149,79,67155,1,0,0:0:0:0:
276,122,67280,1,0,0:0:0:0:
152,309,67405,1,0,0:0:0:0:
52,185,67530,1,0,0:0:0:0:
143,148,67655,1,0,0:0:0:0:
124,246,67780,1,0,0:0:0:0:
56,85,67905,1,0,0:0:0:0:
268,65,68030,5,0,0:0:0:0:
351,215,68155,1,0,0:0:0:0:
202,273,68280,1,0,0:0:0:0:
258,137,68405,1,0,0:0:0:0:
395,118,68530,1,0,0:0:0:0:
335,297,68655,1,0,0:0:0:0:
160,208,68780,2,0,L|80:224,1,45
295,248,69030,5,0,0:0:0:0:
345,64,69155,1,0,0:0:0:0:
146,123,69280,1,0,0:0:0:0:
323,170,69405,1,0,0:0:0:0:
237,59,69530,1,0,0:0:0:0:
157,200,69655,1,0,0:0:0:0:
292,108,69780,2,0,L|336:84,1,45
50,301,70030,6,0,L|112:298,1,45
161,201,70280,2,0,L|97:179,1,45
232,303,70530,2,0,L|211:357,1,45
296,153,70780,2,0,L|316:102,1,45
381,235,71030,6,0,L|366:284,1,45
424,122,71280,2,0,L|487:137,1,45
271,53,71530,1,0,0:0:0:0:
244,53,71613,1,0,0:0:0:0:
217,57,71696,1,0,0:0:0:0:
190,63,71780,1,0,0:0:0:0:
164,71,71863,1,0,0:0:0:0:
139,81,71946,1,0,0:0:0:0:
96,161,72030,5,0,0:0:0:0:
231,113,72155,1,0,0:0:0:0:
206,270,72280,1,0,0:0:0:0:
175,199,72405,1,0,0:0:0:0:
266,137,72530,1,0,0:0:0:0:
293,251,72655,1,0,0:0:0:0:
125,288,72780,1,0,0:0:0:0:
251,352,72905,1,0,0:0:0:0:
376,319,73030,1,0,0:0:0:0:
185,217,73155,1,0,0:0:0:0:
292,172,73280,5,0,0:0:0:0:
292,172,73342,1,0,0:0:0:0:
292,172,73405,1,0,0:0:0:0:
348,325,73530,5,0,0:0:0:0:
348,325,73592,1,0,0:0:0:0:
348,325,73655,1,0,0:0:0:0:
88,272,73780,5,0,0:0:0:0:
88,272,73842,1,0,0:0:0:0:
88,272,73905,1,0,0:0:0:0:
88,272,73967,1,0,0:0:0:0:
88,272,74030,1,0,0:0:0:0:
0,80,82030,6,0,L|117:85,1,90
460,368,82530,2,0,L|354:385,1,90
82,63,83030,1,0,0:0:0:0:
512,168,83280,1,0,0:0:0:0:
472,232,83530,1,0,0:0:0:0:
36,128,83780,1,0,0:0:0:0:
491,296,84030,6,0,L|491:177,1,90
32,51,84530,2,0,L|30:197,1,90
80,376,85030,1,0,0:0:0:0:
188,30,85280,1,0,0:0:0:0:
218,41,85530,1,0,0:0:0:0:
103,381,85780,1,0,0:0:0:0:
420,284,86030,6,0,L|547:301,1,90
124,24,86530,2,0,L|-9:-9,1,90
168,368,87030,1,0,0:0:0:0:
348,0,87280,1,0,0:0:0:0:
53,215,87530,1,0,0:0:0:0:
512,208,87780,1,0,0:0:0:0:
124,336,88030,6,0,L|-27:345,1,90
379,51,88530,2,0,P|443:48|497:69,1,90
33,185,89030,2,0,P|19:137|29:53,1,90
444,268,89530,2,0,P|445:307|424:379,1,90
92,128,90030,6,0,L|-50:83,1,90
508,40,90530,1,0,0:0:0:0:
296,347,90780,1,0,0:0:0:0:
341,50,91030,1,0,0:0:0:0:
146,342,91280,1,0,0:0:0:0:
27,159,91530,1,0,0:0:0:0:
431,175,91780,1,0,0:0:0:0:
69,309,92030,6,0,P|136:316|192:284,1,90
371,27,92530,2,0,P|321:16|257:33,1,90
420,336,93030,1,0,0:0:0:0:
66,121,93280,1,0,0:0:0:0:
398,166,93530,1,0,0:0:0:0:
42,219,93780,1,0,0:0:0:0:
415,334,94030,6,0,P|446:298|450:213,1,90
109,31,94530,2,0,P|70:56|47:102,1,90
300,344,95030,1,0,0:0:0:0:
300,0,95280,1,0,0:0:0:0:
100,363,95530,1,0,0:0:0:0:
381,8,95780,1,0,0:0:0:0:
430,356,96030,6,0,P|359:350|287:383,1,90
180,104,96530,2,0,P|227:96|289:49,1,90
114,71,96905,1,0,0:0:0:0:
128,262,97030,2,0,P|177:270|256:251,2,90
402,169,97780,1,0,0:0:0:0:
28,64,98030,5,0,0:0:0:0:
72,312,98280,2,0,L|192:320,1,90
268,64,98780,1,0,0:0:0:0:
412,320,99030,2,0,P|364:312|256:328,1,90
84,36,99530,1,0,0:0:0:0:
432,152,99780,1,0,0:0:0:0:
104,320,100030,6,0,L|64:208,1,90
412,40,100530,1,0,0:0:0:0:
304,344,100780,1,0,0:0:0:0:
132,232,101030,1,0,0:0:0:0:
272,40,101280,1,0,0:0:0:0:
504,336,101530,1,0,0:0:0:0:
32,344,101780,1,0,0:0:0:0:
476,152,102030,6,0,P|444:196|348:232,1,90
96,56,102530,2,0,P|40:20|8:-44,1,90
388,288,103030,1,0,0:0:0:0:
448,368,103280,1,0,0:0:0:0:
200,40,103530,2,0,P|236:16|300:16,1,90
180,304,104030,6,0,L|52:280,1,90
320,140,104530,2,0,L|452:164,1,90
228,36,105030,2,0,L|100:8,1,90
256,348,105530,5,0,0:0:0:0:
256,32,105780,1,0,0:0:0:0:
13,324,106030,5,0,0:0:0:0:
459,71,106280,1,0,0:0:0:0:
460,65,106530,1,0,0:0:0:0:
52,336,106780,1,0,0:0:0:0:
52,336,107030,1,0,0:0:0:0:
383,42,107280,1,0,0:0:0:0:
383,42,107530,1,0,0:0:0:0:
156,362,107780,1,0,0:0:0:0:
156,362,108030,1,0,0:0:0:0:
284,73,108280,1,0,0:0:0:0:
284,73,108530,1,0,0:0:0:0:
241,319,108780,1,0,0:0:0:0:
241,319,109030,1,0,0:0:0:0:
330,47,109405,5,0,0:0:0:0:
330,47,109530,1,0,0:0:0:0:
330,47,109655,1,0,0:0:0:0:
330,47,109780,1,0,0:0:0:0:
21,100,110030,5,0,0:0:0:0:
450,272,110280,1,0,0:0:0:0:
42,76,110530,1,0,0:0:0:0:
366,305,110780,1,0,0:0:0:0:
71,52,111030,1,0,0:0:0:0:
245,297,111280,1,0,0:0:0:0:
114,40,111530,1,0,0:0:0:0:
107,258,111780,1,0,0:0:0:0:
177,28,112030,1,0,0:0:0:0:
65,207,112280,1,0,0:0:0:0:
204,100,112530,1,0,0:0:0:0:
64,144,112780,1,0,0:0:0:0:
157,167,113030,1,0,0:0:0:0:
434,328,113530,5,0,0:0:0:0:
434,328,113655,1,0,0:0:0:0:
434,328,113780,1,0,0:0:0:0:
476,75,114030,5,0,0:0:0:0:
41,275,114280,1,0,0:0:0:0:
44,296,114530,1,0,0:0:0:0:
403,31,114780,1,0,0:0:0:0:
416,44,115030,1,0,0:0:0:0:
31,213,115280,1,0,0:0:0:0:
40,196,115530,1,0,0:0:0:0:
471,316,115780,1,0,0:0:0:0:
456,328,116030,1,0,0:0:0:0:
169,22,116280,1,0,0:0:0:0:
184,16,116530,1,0,0:0:0:0:
69,348,116780,1,0,0:0:0:0:
84,352,117030,1,0,0:0:0:0:
256,192,117280,5,0,0:0:0:0:
256,192,117530,1,0,0:0:0:0:
256,192,117780,1,0,0:0:0:0:
12,169,118030,5,0,0:0:0:0:
428,42,118280,1,0,0:0:0:0:
39,239,118530,1,0,0:0:0:0:
378,13,118780,1,0,0:0:0:0:
58,313,119030,1,0,0:0:0:0:
493,63,119280,1,0,0:0:0:0:
110,364,119530,1,0,0:0:0:0:
501,137,119780,1,0,0:0:0:0:
241,364,120030,1,0,0:0:0:0:
451,211,120280,1,0,0:0:0:0:
351,366,120530,1,0,0:0:0:0:
512,384,120780,1,0,0:0:0:0:
0,0,121030,1,0,0:0:0:0:
32,236,137530,5,0,0:0:0:0:
52,216,137780,1,0,0:0:0:0:
236,20,138030,1,0,0:0:0:0:
244,40,138280,1,0,0:0:0:0:
344,320,138530,1,0,0:0:0:0:
320,296,138780,1,0,0:0:0:0:
128,92,139030,1,0,0:0:0:0:
168,96,139280,1,0,0:0:0:0:
448,136,139530,1,0,0:0:0:0:
432,168,139780,1,0,0:0:0:0:
336,328,140030,1,0,0:0:0:0:
300,288,140280,1,0,0:0:0:0:
128,36,140530,1,0,0:0:0:0:
112,72,140780,1,0,0:0:0:0:
24,300,141030,1,0,0:0:0:0:
404,56,141530,6,0,L|520:72,1,90
28,284,142030,2,0,L|12:228,1,45
264,88,142280,2,0,L|272:136,1,45
392,332,142530,2,0,L|332:344,1,45
92,32,142780,2,0,L|164:20,1,45
448,228,143030,2,0,L|368:216,1,45
0,152,143280,2,0,L|0:200,1,45
392,352,143530,2,0,L|336:348,1,45
448,112,143780,2,0,L|456:56,1,45
56,56,144030,1,0,0:0:0:0:
160,352,144280,1,0,0:0:0:0:
56,56,144530,1,0,0:0:0:0:
160,352,144780,1,0,0:0:0:0:
264,20,145030,2,0,L|368:32,1,90
464,312,145530,5,0,0:0:0:0:
16,224,145780,1,0,0:0:0:0:
404,56,146030,2,0,L|352:52,1,45
76,312,146280,2,0,L|28:284,1,45
444,268,146530,2,0,L|400:308,1,45
176,40,146780,2,0,L|252:32,1,45
108,308,147030,2,0,L|48:292,1,45
460,236,147280,2,0,L|456:312,1,45
96,88,147530,2,0,L|128:36,1,45
336,348,147780,2,0,L|284:356,1,45
400,68,148030,2,0,L|456:80,1,45
60,308,148280,2,0,L|32:264,1,45
420,300,148530,2,0,L|376:364,1,45
328,12,148780,2,0,L|392:0,1,45
24,208,149030,2,0,L|24:88,1,90
200,340,149530,5,0,0:0:0:0:
432,16,149780,1,0,0:0:0:0:
16,76,150030,2,0,L|116:60,1,90
152,168,150405,1,0,0:0:0:0:
288,328,150530,2,0,L|160:352,1,90
32,316,150905,1,0,0:0:0:0:
124,116,151030,2,0,L|252:96,1,90
432,240,151405,1,0,0:0:0:0:
264,336,151530,2,0,L|172:312,1,90
72,32,151905,1,0,0:0:0:0:
216,48,152030,2,0,L|280:56,1,45
368,312,152280,2,0,L|436:324,1,45
40,160,152530,2,0,L|92:176,1,45
120,340,152780,2,0,L|180:356,1,45
252,32,153030,6,0,L|432:80,1,135.000005149842
420,320,153530,6,0,L|344:320,1,45
88,304,153780,2,0,L|152:304,1,45
352,36,154030,1,0,0:0:0:0:
352,36,154280,1,0,0:0:0:0:
280,360,154530,1,0,0:0:0:0:
352,36,154780,1,0,0:0:0:0:
16,196,155030,1,0,0:0:0:0:
16,196,155280,1,0,0:0:0:0:
436,220,155530,1,0,0:0:0:0:
16,196,155780,1,0,0:0:0:0:
408,36,156030,1,0,0:0:0:0:
128,360,156280,1,0,0:0:0:0:
176,8,156530,1,0,0:0:0:0:
352,376,156780,1,0,0:0:0:0:
264,184,157030,1,0,0:0:0:0:
24,184,157280,5,0,0:0:0:0:
24,184,157530,5,0,0:0:0:0:
264,184,157655,1,0,0:0:0:0:
496,192,157780,1,0,0:0:0:0:
132,24,158030,5,0,0:0:0:0:
392,380,158280,1,0,0:0:0:0:
476,176,158530,1,0,0:0:0:0:
56,184,158780,1,0,0:0:0:0:
136,384,159030,1,0,0:0:0:0:
392,24,159280,1,0,0:0:0:0:
64,168,159530,1,0,0:0:0:0:
484,176,159780,1,0,0:0:0:0:
360,376,160030,1,0,0:0:0:0:
164,12,160280,1,0,0:0:0:0:
132,376,160530,1,0,0:0:0:0:
400,16,160780,1,0,0:0:0:0:
24,184,161030,1,0,0:0:0:0:
252,260,161280,1,0,0:0:0:0:
512,372,161530,5,0,0:0:0:0:
256,192,161655,1,0,0:0:0:0:
0,0,161780,1,0,0:0:0:0:
112,304,162030,5,0,0:0:0:0:
420,56,162280,1,0,0:0:0:0:
160,28,162530,1,0,0:0:0:0:
376,340,162780,1,0,0:0:0:0:
420,56,163030,1,0,0:0:0:0:
128,308,163280,1,0,0:0:0:0:
192,28,163530,1,0,0:0:0:0:
372,348,163780,1,0,0:0:0:0:
116,304,164030,1,0,0:0:0:0:
372,348,164280,1,0,0:0:0:0:
116,304,164530,1,0,0:0:0:0:
372,348,164780,1,0,0:0:0:0:
432,64,165030,1,0,0:0:0:0:
164,12,165280,5,0,0:0:0:0:
384,340,165530,1,0,0:0:0:0:
100,308,165780,1,0,0:0:0:0:
416,60,166030,1,0,0:0:0:0:
416,60,166280,1,0,0:0:0:0:
372,328,166530,1,0,0:0:0:0:
416,60,166780,1,0,0:0:0:0:
372,328,167030,1,0,0:0:0:0:
372,328,167280,1,0,0:0:0:0:
116,272,167530,1,0,0:0:0:0:
372,328,167780,1,0,0:0:0:0:
116,272,168030,1,0,0:0:0:0:
116,272,168280,1,0,0:0:0:0:
204,20,168530,1,0,0:0:0:0:
116,272,168780,1,0,0:0:0:0:
408,268,169030,6,0,B|436:244|424:208|424:208|404:172|224:260,1,270
36,336,169530,5,0,0:0:0:0:
152,204,169655,1,0,0:0:0:0:
112,68,169780,1,0,0:0:0:0:
440,220,170030,5,0,0:0:0:0:
88,60,170280,1,0,0:0:0:0:
272,384,170530,1,2,0:0:0:0:
128,184,170780,1,0,0:0:0:0:
368,0,171030,1,2,0:0:0:0:
40,288,171280,1,0,0:0:0:0:
36,100,171530,1,2,0:0:0:0:
456,104,171780,1,0,0:0:0:0:
456,364,172030,1,2,0:0:0:0:
24,104,172280,1,0,0:0:0:0:
444,276,172530,1,2,0:0:0:0:
32,280,172780,1,0,0:0:0:0:
416,80,173030,1,2,0:0:0:0:
204,320,173405,5,0,0:0:0:0:
172,276,173530,1,0,0:0:0:0:
144,236,173655,1,0,0:0:0:0:
112,196,173780,1,0,0:0:0:0:
212,372,174030,1,2,0:0:0:0:
96,8,174280,1,0,0:0:0:0:
168,384,174530,1,2,0:0:0:0:
148,8,174780,1,0,0:0:0:0:
400,368,175030,1,2,0:0:0:0:
432,328,175280,1,0,0:0:0:0:
64,128,175530,1,2,0:0:0:0:
32,188,175780,1,0,0:0:0:0:
456,236,176030,1,2,0:0:0:0:
456,272,176280,1,0,0:0:0:0:
24,256,176530,1,2,0:0:0:0:
24,276,176780,1,0,0:0:0:0:
464,236,177030,1,2,0:0:0:0:
434,328,177530,5,0,0:0:0:0:
434,328,177780,1,0,0:0:0:0:
476,75,178030,1,0,0:0:0:0:
41,275,178280,1,0,0:0:0:0:
44,296,178530,1,0,0:0:0:0:
403,31,178780,1,0,0:0:0:0:
416,44,179030,1,0,0:0:0:0:
31,213,179280,1,0,0:0:0:0:
40,196,179530,1,0,0:0:0:0:
471,316,179780,1,0,0:0:0:0:
456,328,180030,1,0,0:0:0:0:
169,22,180280,1,0,0:0:0:0:
184,16,180530,1,0,0:0:0:0:
69,348,180780,1,0,0:0:0:0:
84,352,181030,1,0,0:0:0:0:
256,192,181280,5,0,0:0:0:0:
256,192,181530,1,0,0:0:0:0:
256,192,181780,1,0,0:0:0:0:
156,72,182030,1,0,0:0:0:0:
384,256,182280,1,0,0:0:0:0:
39,239,182530,1,0,0:0:0:0:
378,13,182780,1,0,0:0:0:0:
468,144,183030,1,0,0:0:0:0:
512,56,183280,1,0,0:0:0:0:
110,364,183530,1,0,0:0:0:0:
44,296,183780,1,0,0:0:0:0:
241,364,184030,5,0,0:0:0:0:
451,211,184280,1,0,0:0:0:0:
351,366,184530,1,0,0:0:0:0:
512,384,184780,1,0,0:0:0:0:
0,0,185030,1,0,0:0:0:0:
512,384,185280,1,0,0:0:0:0:
0,0,185530,5,0,0:0:0:0:
0,0,185780,1,0,0:0:0:0:
0,372,186030,6,0,L|228:388,1,180
512,16,186530,2,0,P|451:70|503:132,1,180
0,32,187030,2,0,P|65:85|135:38,1,180
508,312,187530,2,0,P|392:336|348:424,1,180
196,304,188030,2,0,P|292:228|308:124,1,180
48,0,188530,2,0,P|72:92|188:96,1,180
460,56,189030,2,0,P|325:54|198:99,2,270
256,348,190030,6,0,L|8:316,1,180
392,192,190530,2,0,P|492:92|468:60,1,180
140,92,191030,2,0,P|53:90|0:159,1,180
244,347,191530,2,0,L|424:344,1,180
483,64,192030,2,0,L|304:68,1,180
85,161,192530,2,0,L|64:340,1,180
384,216,193030,2,0,P|448:244|512:156,3,180
44,104,194030,5,0,0:0:0:0:
448,132,194280,1,0,0:0:0:0:
128,248,194530,1,0,0:0:0:0:
344,44,194780,1,0,0:0:0:0:
320,236,195030,1,0,0:0:0:0:
180,28,195280,1,0,0:0:0:0:
456,132,195530,1,0,0:0:0:0:
36,128,195780,1,0,0:0:0:0:
356,312,196030,2,0,L|136:352,1,180
204,88,196530,2,0,P|236:132|116:176,1,180
382,224,197030,2,0,P|463:133|376:48,2,270
76,200,198030,5,0,0:0:0:0:
464,80,198280,1,0,0:0:0:0:
376,328,198530,1,0,0:0:0:0:
76,68,198780,1,0,0:0:0:0:
312,216,199030,1,0,0:0:0:0:
96,336,199280,1,0,0:0:0:0:
312,28,199530,1,0,0:0:0:0:
488,148,199780,5,0,0:0:0:0:
280,172,199905,1,0,0:0:0:0:
80,192,200030,1,0,0:0:0:0:
164,84,200280,5,0,0:0:0:0:
444,340,200530,1,0,0:0:0:0:
60,120,200780,1,0,0:0:0:0:
256,192,201030,12,0,202030,0:0:0:0:
