osu file format v14

[General]
AudioFilename: audio.mp3
AudioLeadIn: 0
PreviewTime: 107225
Countdown: 0
SampleSet: None
StackLeniency: 0.7
Mode: 3
LetterboxInBreaks: 0
SpecialStyle: 0
WidescreenStoryboard: 0

[Editor]
DistanceSpacing: 0.8
BeatDivisor: 4
GridSize: 32
TimelineZoom: 1.8

[Metadata]
Title:Mirage
TitleUnicode:Mirage
Artist:ikaruga_nex
ArtistUnicode:ikaruga_nex
Creator:inteliser
Version:UNLIMITED [LN]
Source:SF2015
Tags:
BeatmapID:1038091
BeatmapSetID:486877

[Difficulty]
HPDrainRate:8
CircleSize:4
OverallDifficulty:6
ApproachRate:5
SliderMultiplier:1.4
SliderTickRate:1

[Events]
//Background and Video events
0,0,"mirage_ex.jpg",0,0
//Break Periods
//Storyboard Layer 0 (Background)
//Storyboard Layer 1 (Fail)
//Storyboard Layer 2 (Pass)
//Storyboard Layer 3 (Foreground)
//Storyboard Sound Samples

[TimingPoints]
0,331.455087835598,4,3,0,50,1,0
64965,-142.857142857143,4,3,0,50,0,0
75571,-133.333333333333,4,3,0,50,0,0
78223,-125,4,3,0,50,0,0
80875,-117.647058823529,4,3,0,50,0,0
83526,-111.111111111111,4,3,0,50,0,0
84852,-105.263157894737,4,3,0,50,0,0
86178,-100,4,3,0,50,0,0

[HitObjects]
64,192,1325,5,0,0:0:0:0:
192,192,1325,128,0,1823:0:0:0:0:
448,192,1491,128,0,1574:0:0:0:0:
320,192,1491,1,0,0:0:0:0:
64,192,1823,128,0,1905:0:0:0:0:
448,192,1823,1,0,0:0:0:0:
320,192,1823,128,0,2651:0:0:0:0:
448,192,2154,128,0,2237:0:0:0:0:
192,192,2320,1,0,0:0:0:0:
64,192,2485,128,0,2568:0:0:0:0:
448,192,2485,1,0,0:0:0:0:
192,192,2568,128,0,2651:0:0:0:0:
64,192,2651,128,0,3148:0:0:0:0:
448,192,2651,1,0,0:0:0:0:
320,192,2817,128,0,2900:0:0:0:0:
192,192,2817,1,0,0:0:0:0:
448,192,2983,1,0,0:0:0:0:
448,192,3148,128,0,3977:0:0:0:0:
192,192,3148,128,0,3231:0:0:0:0:
320,192,3148,1,0,0:0:0:0:
320,192,3480,128,0,3563:0:0:0:0:
64,192,3646,1,0,0:0:0:0:
64,192,3811,128,0,3894:0:0:0:0:
192,192,3811,1,0,0:0:0:0:
320,192,3894,128,0,3977:0:0:0:0:
192,192,3977,128,0,4474:0:0:0:0:
64,192,4143,128,0,4226:0:0:0:0:
320,192,4308,1,0,0:0:0:0:
320,192,4474,128,0,5303:0:0:0:0:
448,192,4474,128,0,4557:0:0:0:0:
64,192,4806,128,0,4888:0:0:0:0:
192,192,4971,1,0,0:0:0:0:
448,192,5137,128,0,5220:0:0:0:0:
64,192,5137,1,0,0:0:0:0:
192,192,5220,128,0,5303:0:0:0:0:
64,192,5303,128,0,5800:0:0:0:0:
448,192,5303,1,0,0:0:0:0:
448,192,5469,128,0,5551:0:0:0:0:
320,192,5469,1,0,0:0:0:0:
192,192,5634,1,0,0:0:0:0:
448,192,5800,128,0,6297:0:0:0:0:
320,192,5800,128,0,5883:0:0:0:0:
192,192,6131,128,0,6214:0:0:0:0:
320,192,6297,128,0,6629:0:0:0:0:
64,192,6297,1,0,0:0:0:0:
192,192,6463,128,0,6546:0:0:0:0:
448,192,6546,128,0,6629:0:0:0:0:
192,192,6629,128,0,7126:0:0:0:0:
64,192,6629,1,0,0:0:0:0:
448,192,6794,1,0,0:0:0:0:
320,192,6794,128,0,6877:0:0:0:0:
64,192,6960,1,0,0:0:0:0:
320,192,7126,128,0,7954:0:0:0:0:
448,192,7126,128,0,7209:0:0:0:0:
64,192,7126,1,0,0:0:0:0:
64,192,7457,128,0,7540:0:0:0:0:
192,192,7623,1,0,0:0:0:0:
448,192,7789,128,0,7872:0:0:0:0:
64,192,7789,1,0,0:0:0:0:
192,192,7872,128,0,7954:0:0:0:0:
64,192,7954,128,0,8452:0:0:0:0:
448,192,7954,1,0,0:0:0:0:
320,192,8120,128,0,8203:0:0:0:0:
448,192,8286,1,0,0:0:0:0:
448,192,8452,128,0,9280:0:0:0:0:
192,192,8452,128,0,8534:0:0:0:0:
320,192,8452,1,0,0:0:0:0:
320,192,8783,128,0,8866:0:0:0:0:
64,192,8949,1,0,0:0:0:0:
64,192,9115,128,0,9197:0:0:0:0:
192,192,9115,1,0,0:0:0:0:
320,192,9197,128,0,9280:0:0:0:0:
192,192,9280,128,0,11849:0:0:0:0:
64,192,9446,128,0,9529:0:0:0:0:
320,192,9612,1,0,0:0:0:0:
320,192,9777,128,0,10606:0:0:0:0:
448,192,9777,128,0,9860:0:0:0:0:
64,192,10109,128,0,10192:0:0:0:0:
448,192,10275,1,0,0:0:0:0:
448,192,10440,128,0,10523:0:0:0:0:
64,192,10440,1,0,0:0:0:0:
64,192,10606,128,0,11103:0:0:0:0:
448,192,10606,1,0,0:0:0:0:
320,192,10772,128,0,10855:0:0:0:0:
448,192,11103,128,0,11600:0:0:0:0:
320,192,11103,128,0,11186:0:0:0:0:
64,192,11269,1,0,0:0:0:0:
64,192,11435,128,0,11518:0:0:0:0:
320,192,11600,128,0,11849:0:0:0:0:
448,192,11766,128,0,11849:0:0:0:0:
64,192,11932,128,0,12926:0:0:0:0:
192,192,11932,128,0,12346:0:0:0:0:
320,192,11932,1,0,0:0:0:0:
448,192,11932,1,0,0:0:0:0:
448,192,12098,1,0,0:0:0:0:
320,192,12263,1,0,0:0:0:0:
192,192,12429,128,0,13258:0:0:0:0:
320,192,12429,1,0,0:0:0:0:
448,192,12429,1,0,0:0:0:0:
320,192,12595,1,0,0:0:0:0:
448,192,12761,1,0,0:0:0:0:
320,192,12926,128,0,13672:0:0:0:0:
448,192,12926,1,0,0:0:0:0:
448,192,13092,1,0,0:0:0:0:
64,192,13175,1,0,0:0:0:0:
448,192,13258,128,0,14252:0:0:0:0:
64,192,13258,1,0,0:0:0:0:
192,192,13423,1,0,0:0:0:0:
64,192,13589,1,0,0:0:0:0:
320,192,13755,128,0,14584:0:0:0:0:
64,192,13755,1,0,0:0:0:0:
192,192,13755,1,0,0:0:0:0:
192,192,13921,1,0,0:0:0:0:
64,192,14086,1,0,0:0:0:0:
192,192,14252,128,0,15081:0:0:0:0:
64,192,14252,1,0,0:0:0:0:
64,192,14418,1,0,0:0:0:0:
448,192,14501,1,0,0:0:0:0:
64,192,14584,128,0,15578:0:0:0:0:
448,192,14584,1,0,0:0:0:0:
320,192,14749,1,0,0:0:0:0:
448,192,14915,1,0,0:0:0:0:
320,192,15081,128,0,15909:0:0:0:0:
448,192,15081,1,0,0:0:0:0:
192,192,15246,1,0,0:0:0:0:
448,192,15412,1,0,0:0:0:0:
448,192,15578,128,0,16324:0:0:0:0:
192,192,15578,1,0,0:0:0:0:
64,192,15744,1,0,0:0:0:0:
192,192,15826,1,0,0:0:0:0:
192,192,15909,128,0,16904:0:0:0:0:
64,192,15909,1,0,0:0:0:0:
320,192,16075,1,0,0:0:0:0:
64,192,16241,1,0,0:0:0:0:
448,192,16407,128,0,17567:0:0:0:0:
64,192,16407,1,0,0:0:0:0:
320,192,16407,1,0,0:0:0:0:
320,192,16572,1,0,0:0:0:0:
64,192,16738,1,0,0:0:0:0:
320,192,16904,128,0,17401:0:0:0:0:
64,192,16904,1,0,0:0:0:0:
64,192,17069,1,0,0:0:0:0:
192,192,17152,1,0,0:0:0:0:
64,192,17235,1,0,0:0:0:0:
192,192,17401,1,0,0:0:0:0:
64,192,17401,128,0,17732:0:0:0:0:
320,192,17567,1,0,0:0:0:0:
192,192,17567,128,0,17898:0:0:0:0:
448,192,17732,1,0,0:0:0:0:
320,192,17732,128,0,18064:0:0:0:0:
64,192,17898,1,0,0:0:0:0:
448,192,17898,128,0,18230:0:0:0:0:
192,192,18064,1,0,0:0:0:0:
64,192,18064,128,0,18395:0:0:0:0:
320,192,18230,1,0,0:0:0:0:
192,192,18230,128,0,18727:0:0:0:0:
448,192,18395,1,0,0:0:0:0:
320,192,18395,128,0,18561:0:0:0:0:
448,192,18561,1,0,0:0:0:0:
64,192,18561,128,0,18892:0:0:0:0:
320,192,18727,1,0,0:0:0:0:
448,192,18727,128,0,19058:0:0:0:0:
192,192,18892,1,0,0:0:0:0:
320,192,18892,128,0,19224:0:0:0:0:
64,192,19058,1,0,0:0:0:0:
192,192,19058,128,0,19390:0:0:0:0:
448,192,19224,1,0,0:0:0:0:
64,192,19224,128,0,19555:0:0:0:0:
320,192,19390,1,0,0:0:0:0:
448,192,19390,128,0,19721:0:0:0:0:
192,192,19555,1,0,0:0:0:0:
320,192,19555,128,0,19887:0:0:0:0:
64,192,19721,1,0,0:0:0:0:
192,192,19721,128,0,19887:0:0:0:0:
448,192,19887,1,0,0:0:0:0:
64,192,19887,128,0,19970:0:0:0:0:
192,192,19970,128,0,20053:0:0:0:0:
64,192,20053,1,0,0:0:0:0:
320,192,20053,128,0,20135:0:0:0:0:
448,192,20135,128,0,20218:0:0:0:0:
64,192,20218,1,0,0:0:0:0:
320,192,20218,128,0,20301:0:0:0:0:
192,192,20301,128,0,20384:0:0:0:0:
320,192,20384,1,0,0:0:0:0:
64,192,20384,128,0,20467:0:0:0:0:
192,192,20467,1,0,0:0:0:0:
64,192,20550,1,0,0:0:0:0:
448,192,20550,128,0,20633:0:0:0:0:
320,192,20633,128,0,20715:0:0:0:0:
448,192,20715,1,0,0:0:0:0:
192,192,20715,128,0,20798:0:0:0:0:
64,192,20798,128,0,20881:0:0:0:0:
448,192,20881,1,0,0:0:0:0:
192,192,20881,128,0,20964:0:0:0:0:
320,192,20964,128,0,21047:0:0:0:0:
192,192,21047,1,0,0:0:0:0:
448,192,21047,128,0,21130:0:0:0:0:
64,192,21130,1,0,0:0:0:0:
320,192,21213,1,0,0:0:0:0:
448,192,21213,128,0,21378:0:0:0:0:
64,192,21295,1,0,0:0:0:0:
192,192,21378,1,0,0:0:0:0:
320,192,21378,128,0,21544:0:0:0:0:
448,192,21461,1,0,0:0:0:0:
64,192,21544,1,0,0:0:0:0:
192,192,21544,128,0,21710:0:0:0:0:
320,192,21627,1,0,0:0:0:0:
448,192,21710,1,0,0:0:0:0:
64,192,21710,128,0,21876:0:0:0:0:
192,192,21793,1,0,0:0:0:0:
320,192,21876,1,0,0:0:0:0:
448,192,21903,1,0,0:0:0:0:
64,192,21931,1,0,0:0:0:0:
192,192,21958,1,0,0:0:0:0:
320,192,21986,1,0,0:0:0:0:
448,192,22014,1,0,0:0:0:0:
64,192,22041,1,0,0:0:0:0:
192,192,22041,128,0,22207:0:0:0:0:
448,192,22207,1,0,0:0:0:0:
320,192,22207,128,0,22373:0:0:0:0:
64,192,22373,1,0,0:0:0:0:
192,192,22373,128,0,22538:0:0:0:0:
448,192,22538,128,0,22704:0:0:0:0:
320,192,22538,1,0,0:0:0:0:
192,192,22704,1,0,0:0:0:0:
64,192,22870,128,0,23367:0:0:0:0:
448,192,22870,128,0,23036:0:0:0:0:
320,192,22870,1,0,0:0:0:0:
192,192,22953,1,0,0:0:0:0:
320,192,23036,1,0,0:0:0:0:
448,192,23201,128,0,23367:0:0:0:0:
192,192,23201,1,0,0:0:0:0:
320,192,23367,1,0,0:0:0:0:
448,192,23533,128,0,23699:0:0:0:0:
64,192,23533,128,0,24030:0:0:0:0:
192,192,23533,1,0,0:0:0:0:
320,192,23616,1,0,0:0:0:0:
192,192,23699,1,0,0:0:0:0:
448,192,23864,128,0,24030:0:0:0:0:
320,192,23864,1,0,0:0:0:0:
192,192,24030,1,0,0:0:0:0:
448,192,24196,128,0,24361:0:0:0:0:
64,192,24196,128,0,24693:0:0:0:0:
320,192,24196,1,0,0:0:0:0:
192,192,24361,1,0,0:0:0:0:
448,192,24527,128,0,24693:0:0:0:0:
320,192,24527,1,0,0:0:0:0:
192,192,24610,1,0,0:0:0:0:
320,192,24693,1,0,0:0:0:0:
192,192,24776,1,0,0:0:0:0:
448,192,24859,128,0,25356:0:0:0:0:
64,192,24859,128,0,25024:0:0:0:0:
320,192,24859,1,0,0:0:0:0:
192,192,25024,1,0,0:0:0:0:
64,192,25190,128,0,25356:0:0:0:0:
320,192,25190,1,0,0:0:0:0:
192,192,25356,1,0,0:0:0:0:
448,192,25522,128,0,26019:0:0:0:0:
64,192,25522,128,0,25687:0:0:0:0:
320,192,25522,1,0,0:0:0:0:
192,192,25604,1,0,0:0:0:0:
320,192,25687,1,0,0:0:0:0:
64,192,25853,128,0,26019:0:0:0:0:
192,192,25853,1,0,0:0:0:0:
320,192,26019,1,0,0:0:0:0:
448,192,26184,128,0,26682:0:0:0:0:
64,192,26184,128,0,26350:0:0:0:0:
192,192,26184,1,0,0:0:0:0:
320,192,26267,1,0,0:0:0:0:
192,192,26350,1,0,0:0:0:0:
64,192,26516,128,0,26682:0:0:0:0:
320,192,26516,1,0,0:0:0:0:
192,192,26682,5,0,0:0:0:0:
64,192,26847,128,0,27013:0:0:0:0:
448,192,26847,128,0,27345:0:0:0:0:
320,192,26847,1,0,0:0:0:0:
192,192,26930,1,0,0:0:0:0:
320,192,27013,1,0,0:0:0:0:
192,192,27096,1,0,0:0:0:0:
64,192,27179,128,0,27345:0:0:0:0:
320,192,27179,1,0,0:0:0:0:
192,192,27262,1,0,0:0:0:0:
320,192,27345,1,0,0:0:0:0:
192,192,27427,1,0,0:0:0:0:
64,192,27510,128,0,27676:0:0:0:0:
448,192,27510,128,0,27676:0:0:0:0:
320,192,27510,1,0,0:0:0:0:
192,192,27676,1,0,0:0:0:0:
64,192,27842,128,0,28007:0:0:0:0:
320,192,27842,1,0,0:0:0:0:
448,192,27842,1,0,0:0:0:0:
448,192,28007,128,0,28173:0:0:0:0:
192,192,28007,1,0,0:0:0:0:
64,192,28173,128,0,28670:0:0:0:0:
320,192,28173,1,0,0:0:0:0:
192,192,28256,1,0,0:0:0:0:
448,192,28339,128,0,28505:0:0:0:0:
320,192,28339,1,0,0:0:0:0:
192,192,28505,1,0,0:0:0:0:
448,192,28670,128,0,28836:0:0:0:0:
320,192,28670,1,0,0:0:0:0:
64,192,28836,128,0,29333:0:0:0:0:
192,192,28836,1,0,0:0:0:0:
320,192,28919,1,0,0:0:0:0:
448,192,29002,128,0,29168:0:0:0:0:
192,192,29002,1,0,0:0:0:0:
320,192,29168,1,0,0:0:0:0:
448,192,29333,128,0,29499:0:0:0:0:
192,192,29333,1,0,0:0:0:0:
64,192,29499,128,0,29996:0:0:0:0:
320,192,29499,1,0,0:0:0:0:
448,192,29665,128,0,29830:0:0:0:0:
192,192,29665,1,0,0:0:0:0:
320,192,29830,1,0,0:0:0:0:
192,192,29913,1,0,0:0:0:0:
448,192,29996,128,0,30162:0:0:0:0:
320,192,29996,1,0,0:0:0:0:
192,192,30079,1,0,0:0:0:0:
64,192,30162,128,0,30328:0:0:0:0:
320,192,30162,1,0,0:0:0:0:
192,192,30245,1,0,0:0:0:0:
320,192,30328,1,0,0:0:0:0:
448,192,30328,1,0,0:0:0:0:
192,192,30411,1,0,0:0:0:0:
64,192,30493,1,0,0:0:0:0:
448,192,30493,128,0,30659:0:0:0:0:
320,192,30493,1,0,0:0:0:0:
64,192,30659,128,0,30825:0:0:0:0:
192,192,30659,1,0,0:0:0:0:
448,192,30825,128,0,31322:0:0:0:0:
320,192,30825,1,0,0:0:0:0:
192,192,30908,1,0,0:0:0:0:
64,192,30991,128,0,31156:0:0:0:0:
320,192,30991,1,0,0:0:0:0:
192,192,31156,1,0,0:0:0:0:
64,192,31322,128,0,31488:0:0:0:0:
320,192,31322,1,0,0:0:0:0:
448,192,31488,128,0,31985:0:0:0:0:
192,192,31488,1,0,0:0:0:0:
320,192,31571,1,0,0:0:0:0:
64,192,31653,128,0,31819:0:0:0:0:
192,192,31653,1,0,0:0:0:0:
320,192,31819,1,0,0:0:0:0:
192,192,31902,1,0,0:0:0:0:
64,192,31985,128,0,32151:0:0:0:0:
320,192,31985,1,0,0:0:0:0:
192,192,32068,1,0,0:0:0:0:
448,192,32151,128,0,32648:0:0:0:0:
320,192,32151,1,0,0:0:0:0:
192,192,32234,1,0,0:0:0:0:
64,192,32316,128,0,32482:0:0:0:0:
320,192,32316,1,0,0:0:0:0:
192,192,32399,1,0,0:0:0:0:
320,192,32482,1,0,0:0:0:0:
192,192,32482,1,0,0:0:0:0:
64,192,32648,128,0,32814:0:0:0:0:
192,192,32731,1,0,0:0:0:0:
320,192,32731,1,0,0:0:0:0:
448,192,32814,128,0,33145:0:0:0:0:
64,192,32979,128,0,33145:0:0:0:0:
192,192,32979,1,0,0:0:0:0:
320,192,32979,1,0,0:0:0:0:
320,192,33145,1,0,0:0:0:0:
192,192,33145,128,0,33311:0:0:0:0:
320,192,33311,128,0,33476:0:0:0:0:
64,192,33311,1,0,0:0:0:0:
192,192,33476,128,0,33974:0:0:0:0:
448,192,33476,1,0,0:0:0:0:
64,192,33559,1,0,0:0:0:0:
320,192,33642,128,0,33808:0:0:0:0:
448,192,33642,1,0,0:0:0:0:
64,192,33808,1,0,0:0:0:0:
320,192,33974,128,0,34139:0:0:0:0:
448,192,33974,1,0,0:0:0:0:
192,192,34139,128,0,34637:0:0:0:0:
64,192,34139,1,0,0:0:0:0:
448,192,34222,1,0,0:0:0:0:
320,192,34305,128,0,34471:0:0:0:0:
64,192,34305,1,0,0:0:0:0:
448,192,34471,1,0,0:0:0:0:
320,192,34637,128,0,34802:0:0:0:0:
64,192,34637,1,0,0:0:0:0:
192,192,34802,128,0,35299:0:0:0:0:
448,192,34802,1,0,0:0:0:0:
64,192,34885,1,0,0:0:0:0:
320,192,34968,128,0,35134:0:0:0:0:
448,192,34968,1,0,0:0:0:0:
64,192,35134,1,0,0:0:0:0:
448,192,35217,1,0,0:0:0:0:
320,192,35299,128,0,35465:0:0:0:0:
64,192,35299,1,0,0:0:0:0:
448,192,35382,1,0,0:0:0:0:
192,192,35465,128,0,35631:0:0:0:0:
64,192,35465,1,0,0:0:0:0:
448,192,35548,1,0,0:0:0:0:
320,192,35631,1,0,0:0:0:0:
64,192,35631,1,0,0:0:0:0:
448,192,35714,1,0,0:0:0:0:
192,192,35797,1,0,0:0:0:0:
320,192,35797,128,0,35962:0:0:0:0:
64,192,35797,1,0,0:0:0:0:
192,192,35962,128,0,36128:0:0:0:0:
448,192,35962,1,0,0:0:0:0:
320,192,36128,128,0,36625:0:0:0:0:
64,192,36128,1,0,0:0:0:0:
448,192,36211,1,0,0:0:0:0:
192,192,36294,128,0,36460:0:0:0:0:
64,192,36294,1,0,0:0:0:0:
448,192,36460,1,0,0:0:0:0:
192,192,36625,128,0,36791:0:0:0:0:
64,192,36625,1,0,0:0:0:0:
320,192,36791,128,0,37288:0:0:0:0:
448,192,36791,1,0,0:0:0:0:
64,192,36874,1,0,0:0:0:0:
192,192,36957,128,0,37122:0:0:0:0:
448,192,36957,1,0,0:0:0:0:
64,192,37122,1,0,0:0:0:0:
192,192,37288,128,0,37454:0:0:0:0:
448,192,37288,1,0,0:0:0:0:
320,192,37454,128,0,37951:0:0:0:0:
64,192,37454,1,0,0:0:0:0:
448,192,37537,1,0,0:0:0:0:
192,192,37620,128,0,37785:0:0:0:0:
64,192,37620,1,0,0:0:0:0:
448,192,37785,1,0,0:0:0:0:
64,192,37868,1,0,0:0:0:0:
192,192,37951,128,0,38117:0:0:0:0:
448,192,37951,1,0,0:0:0:0:
64,192,38034,1,0,0:0:0:0:
320,192,38117,128,0,38283:0:0:0:0:
448,192,38117,1,0,0:0:0:0:
64,192,38200,1,0,0:0:0:0:
192,192,38283,128,0,38448:0:0:0:0:
448,192,38283,1,0,0:0:0:0:
64,192,38365,1,0,0:0:0:0:
320,192,38448,128,0,38697:0:0:0:0:
448,192,38448,128,0,38531:0:0:0:0:
192,192,38614,1,0,0:0:0:0:
448,192,38614,128,0,38863:0:0:0:0:
64,192,38780,1,0,0:0:0:0:
320,192,38780,128,0,39360:0:0:0:0:
192,192,38863,1,0,0:0:0:0:
64,192,38945,1,0,0:0:0:0:
448,192,38945,128,0,39194:0:0:0:0:
192,192,39111,1,0,0:0:0:0:
64,192,39277,1,0,0:0:0:0:
448,192,39277,128,0,39526:0:0:0:0:
192,192,39443,1,0,0:0:0:0:
320,192,39443,128,0,39691:0:0:0:0:
64,192,39526,1,0,0:0:0:0:
192,192,39608,1,0,0:0:0:0:
448,192,39608,128,0,39691:0:0:0:0:
448,192,39774,1,0,0:0:0:0:
192,192,39774,128,0,40023:0:0:0:0:
64,192,39774,128,0,39857:0:0:0:0:
320,192,39940,1,0,0:0:0:0:
64,192,39940,128,0,40188:0:0:0:0:
448,192,40106,1,0,0:0:0:0:
192,192,40106,128,0,40686:0:0:0:0:
320,192,40188,1,0,0:0:0:0:
64,192,40271,128,0,40520:0:0:0:0:
448,192,40271,1,0,0:0:0:0:
320,192,40437,1,0,0:0:0:0:
64,192,40603,128,0,40851:0:0:0:0:
448,192,40603,1,0,0:0:0:0:
320,192,40686,1,0,0:0:0:0:
192,192,40768,128,0,41017:0:0:0:0:
448,192,40768,1,0,0:0:0:0:
320,192,40851,1,0,0:0:0:0:
64,192,40934,128,0,41100:0:0:0:0:
448,192,40934,1,0,0:0:0:0:
192,192,41100,1,0,0:0:0:0:
320,192,41100,128,0,41349:0:0:0:0:
64,192,41183,1,0,0:0:0:0:
192,192,41266,1,0,0:0:0:0:
448,192,41266,128,0,41349:0:0:0:0:
64,192,41349,1,0,0:0:0:0:
192,192,41431,1,0,0:0:0:0:
320,192,41431,128,0,41680:0:0:0:0:
448,192,41431,128,0,41514:0:0:0:0:
64,192,41514,1,0,0:0:0:0:
192,192,41597,1,0,0:0:0:0:
448,192,41597,128,0,41846:0:0:0:0:
64,192,41680,1,0,0:0:0:0:
192,192,41763,1,0,0:0:0:0:
320,192,41763,128,0,42011:0:0:0:0:
64,192,41846,1,0,0:0:0:0:
192,192,41929,1,0,0:0:0:0:
448,192,41929,128,0,42011:0:0:0:0:
64,192,42011,1,0,0:0:0:0:
192,192,42094,1,0,0:0:0:0:
320,192,42094,128,0,42426:0:0:0:0:
448,192,42094,128,0,42177:0:0:0:0:
64,192,42177,1,0,0:0:0:0:
192,192,42260,1,0,0:0:0:0:
448,192,42260,128,0,42426:0:0:0:0:
64,192,42426,128,0,42509:0:0:0:0:
192,192,42426,128,0,42757:0:0:0:0:
64,192,42591,1,0,0:0:0:0:
320,192,42674,128,0,42923:0:0:0:0:
64,192,42757,128,0,42840:0:0:0:0:
192,192,42840,128,0,43006:0:0:0:0:
64,192,42923,1,0,0:0:0:0:
448,192,42923,128,0,43006:0:0:0:0:
320,192,43006,128,0,43089:0:0:0:0:
192,192,43089,128,0,43254:0:0:0:0:
448,192,43089,128,0,43172:0:0:0:0:
320,192,43172,128,0,43337:0:0:0:0:
448,192,43254,128,0,43337:0:0:0:0:
64,192,43254,128,0,43752:0:0:0:0:
192,192,43337,128,0,43669:0:0:0:0:
320,192,43420,128,0,43586:0:0:0:0:
448,192,43420,128,0,43503:0:0:0:0:
320,192,43752,1,0,0:0:0:0:
448,192,43752,128,0,44249:0:0:0:0:
64,192,43917,1,0,0:0:0:0:
320,192,43917,1,0,0:0:0:0:
192,192,43917,128,0,44083:0:0:0:0:
64,192,44083,1,0,0:0:0:0:
320,192,44083,1,0,0:0:0:0:
320,192,44249,1,0,0:0:0:0:
192,192,44249,128,0,44414:0:0:0:0:
64,192,44249,1,0,0:0:0:0:
320,192,44414,1,0,0:0:0:0:
448,192,44414,128,0,44912:0:0:0:0:
64,192,44580,1,0,0:0:0:0:
320,192,44580,1,0,0:0:0:0:
192,192,44580,128,0,44746:0:0:0:0:
64,192,44746,1,0,0:0:0:0:
320,192,44746,1,0,0:0:0:0:
64,192,44912,1,0,0:0:0:0:
192,192,44912,1,0,0:0:0:0:
320,192,44912,128,0,45077:0:0:0:0:
192,192,45077,1,0,0:0:0:0:
64,192,45077,128,0,45575:0:0:0:0:
192,192,45243,1,0,0:0:0:0:
448,192,45243,1,0,0:0:0:0:
320,192,45243,128,0,45409:0:0:0:0:
192,192,45409,1,0,0:0:0:0:
448,192,45409,1,0,0:0:0:0:
192,192,45575,1,0,0:0:0:0:
448,192,45575,1,0,0:0:0:0:
320,192,45575,128,0,45740:0:0:0:0:
192,192,45740,1,0,0:0:0:0:
64,192,45740,128,0,45906:0:0:0:0:
320,192,45906,128,0,46155:0:0:0:0:
448,192,45906,128,0,45989:0:0:0:0:
192,192,45989,128,0,46072:0:0:0:0:
448,192,46072,128,0,46155:0:0:0:0:
64,192,46072,128,0,46237:0:0:0:0:
192,192,46155,128,0,46237:0:0:0:0:
320,192,46237,128,0,46403:0:0:0:0:
448,192,46237,128,0,46403:0:0:0:0:
64,192,46403,1,0,0:0:0:0:
192,192,46403,128,0,46900:0:0:0:0:
64,192,46569,1,0,0:0:0:0:
448,192,46569,1,0,0:0:0:0:
320,192,46569,128,0,46735:0:0:0:0:
448,192,46735,1,0,0:0:0:0:
64,192,46735,1,0,0:0:0:0:
64,192,46900,1,0,0:0:0:0:
448,192,46900,1,0,0:0:0:0:
320,192,46900,128,0,47066:0:0:0:0:
64,192,47066,1,0,0:0:0:0:
192,192,47066,128,0,47563:0:0:0:0:
64,192,47232,1,0,0:0:0:0:
448,192,47232,1,0,0:0:0:0:
320,192,47232,128,0,47398:0:0:0:0:
64,192,47398,1,0,0:0:0:0:
448,192,47398,1,0,0:0:0:0:
64,192,47563,1,0,0:0:0:0:
448,192,47563,1,0,0:0:0:0:
320,192,47563,128,0,47729:0:0:0:0:
192,192,47729,1,0,0:0:0:0:
448,192,47729,128,0,48226:0:0:0:0:
64,192,47895,1,0,0:0:0:0:
320,192,47895,1,0,0:0:0:0:
192,192,47895,128,0,48060:0:0:0:0:
64,192,48060,1,0,0:0:0:0:
320,192,48060,1,0,0:0:0:0:
64,192,48226,1,0,0:0:0:0:
192,192,48226,1,0,0:0:0:0:
320,192,48226,128,0,48392:0:0:0:0:
192,192,48392,1,0,0:0:0:0:
64,192,48392,128,0,48889:0:0:0:0:
320,192,48558,128,0,48641:0:0:0:0:
448,192,48558,128,0,48723:0:0:0:0:
192,192,48641,128,0,48806:0:0:0:0:
320,192,48723,128,0,48806:0:0:0:0:
448,192,48806,128,0,49055:0:0:0:0:
192,192,48889,1,0,0:0:0:0:
320,192,48889,128,0,49055:0:0:0:0:
192,192,49055,1,0,0:0:0:0:
64,192,49055,128,0,49552:0:0:0:0:
192,192,49221,1,0,0:0:0:0:
448,192,49221,1,0,0:0:0:0:
320,192,49221,128,0,49386:0:0:0:0:
192,192,49386,1,0,0:0:0:0:
448,192,49386,1,0,0:0:0:0:
320,192,49552,1,0,0:0:0:0:
192,192,49552,1,0,0:0:0:0:
448,192,49552,128,0,49718:0:0:0:0:
320,192,49718,1,0,0:0:0:0:
64,192,49718,128,0,50215:0:0:0:0:
448,192,49883,1,0,0:0:0:0:
192,192,49883,1,0,0:0:0:0:
320,192,49883,128,0,50049:0:0:0:0:
192,192,50049,1,0,0:0:0:0:
448,192,50049,1,0,0:0:0:0:
192,192,50215,1,0,0:0:0:0:
448,192,50215,1,0,0:0:0:0:
320,192,50215,128,0,50381:0:0:0:0:
192,192,50381,1,0,0:0:0:0:
448,192,50381,128,0,50878:0:0:0:0:
64,192,50546,1,0,0:0:0:0:
320,192,50546,1,0,0:0:0:0:
192,192,50546,128,0,50712:0:0:0:0:
320,192,50712,1,0,0:0:0:0:
64,192,50712,1,0,0:0:0:0:
192,192,50878,1,0,0:0:0:0:
64,192,50878,1,0,0:0:0:0:
320,192,50878,128,0,51044:0:0:0:0:
192,192,51044,1,0,0:0:0:0:
448,192,51044,128,0,51209:0:0:0:0:
64,192,51209,128,0,51292:0:0:0:0:
192,192,51209,128,0,51458:0:0:0:0:
320,192,51292,128,0,51375:0:0:0:0:
64,192,51375,128,0,51458:0:0:0:0:
448,192,51375,128,0,51541:0:0:0:0:
320,192,51458,128,0,51541:0:0:0:0:
64,192,51541,128,0,51706:0:0:0:0:
192,192,51541,128,0,51706:0:0:0:0:
320,192,51706,1,0,0:0:0:0:
448,192,51706,128,0,52204:0:0:0:0:
64,192,51872,1,0,0:0:0:0:
320,192,51872,1,0,0:0:0:0:
192,192,51872,128,0,52038:0:0:0:0:
64,192,52038,1,0,0:0:0:0:
320,192,52038,1,0,0:0:0:0:
64,192,52204,1,0,0:0:0:0:
320,192,52204,1,0,0:0:0:0:
192,192,52204,128,0,52369:0:0:0:0:
320,192,52369,1,0,0:0:0:0:
448,192,52369,128,0,52867:0:0:0:0:
64,192,52535,1,0,0:0:0:0:
320,192,52535,1,0,0:0:0:0:
192,192,52535,128,0,52701:0:0:0:0:
64,192,52701,1,0,0:0:0:0:
320,192,52701,1,0,0:0:0:0:
192,192,52867,1,0,0:0:0:0:
320,192,52867,1,0,0:0:0:0:
64,192,52867,128,0,53032:0:0:0:0:
320,192,53032,1,0,0:0:0:0:
192,192,53032,1,0,0:0:0:0:
448,192,53032,128,0,53115:0:0:0:0:
64,192,53115,1,0,0:0:0:0:
320,192,53115,128,0,53198:0:0:0:0:
448,192,53198,1,0,0:0:0:0:
192,192,53198,128,0,53281:0:0:0:0:
320,192,53281,1,0,0:0:0:0:
64,192,53281,128,0,53364:0:0:0:0:
448,192,53364,1,0,0:0:0:0:
192,192,53364,128,0,53529:0:0:0:0:
64,192,53529,1,0,0:0:0:0:
320,192,53529,128,0,53695:0:0:0:0:
64,192,53695,1,0,0:0:0:0:
192,192,53695,1,0,0:0:0:0:
448,192,53695,1,0,0:0:0:0:
64,192,54027,1,0,0:0:0:0:
192,192,54027,1,0,0:0:0:0:
320,192,54027,128,0,54358:0:0:0:0:
192,192,54358,1,0,0:0:0:0:
64,192,54358,128,0,54772:0:0:0:0:
320,192,54441,1,0,0:0:0:0:
448,192,54524,128,0,54607:0:0:0:0:
320,192,54690,1,0,0:0:0:0:
448,192,54690,128,0,55104:0:0:0:0:
192,192,54772,1,0,0:0:0:0:
64,192,54855,128,0,54938:0:0:0:0:
192,192,55021,1,0,0:0:0:0:
64,192,55021,128,0,55435:0:0:0:0:
320,192,55104,1,0,0:0:0:0:
448,192,55187,128,0,55270:0:0:0:0:
320,192,55352,1,0,0:0:0:0:
448,192,55352,128,0,55601:0:0:0:0:
192,192,55435,1,0,0:0:0:0:
64,192,55518,128,0,55601:0:0:0:0:
64,192,55684,128,0,55933:0:0:0:0:
448,192,55684,128,0,55933:0:0:0:0:
192,192,55767,1,0,0:0:0:0:
320,192,55850,1,0,0:0:0:0:
64,192,56015,1,0,0:0:0:0:
192,192,56015,1,0,0:0:0:0:
448,192,56015,128,0,56098:0:0:0:0:
64,192,56098,1,0,0:0:0:0:
320,192,56098,128,0,56181:0:0:0:0:
448,192,56181,1,0,0:0:0:0:
192,192,56181,128,0,56264:0:0:0:0:
320,192,56264,1,0,0:0:0:0:
64,192,56264,128,0,56347:0:0:0:0:
448,192,56347,1,0,0:0:0:0:
192,192,56347,128,0,56513:0:0:0:0:
320,192,56513,1,0,0:0:0:0:
448,192,56513,128,0,56678:0:0:0:0:
64,192,56595,1,0,0:0:0:0:
192,192,56678,1,0,0:0:0:0:
320,192,56678,128,0,56844:0:0:0:0:
448,192,56761,1,0,0:0:0:0:
64,192,56844,1,0,0:0:0:0:
192,192,56844,128,0,57010:0:0:0:0:
448,192,57010,1,0,0:0:0:0:
320,192,57010,128,0,57341:0:0:0:0:
192,192,57093,128,0,57258:0:0:0:0:
64,192,57176,1,0,0:0:0:0:
64,192,57341,1,0,0:0:0:0:
192,192,57341,128,0,57673:0:0:0:0:
320,192,57424,128,0,57590:0:0:0:0:
448,192,57507,1,0,0:0:0:0:
448,192,57673,1,0,0:0:0:0:
320,192,57673,128,0,58004:0:0:0:0:
192,192,57756,128,0,57921:0:0:0:0:
64,192,57838,1,0,0:0:0:0:
64,192,58004,1,0,0:0:0:0:
192,192,58004,128,0,58336:0:0:0:0:
320,192,58087,128,0,58253:0:0:0:0:
448,192,58170,1,0,0:0:0:0:
64,192,58336,1,0,0:0:0:0:
320,192,58336,128,0,58667:0:0:0:0:
192,192,58418,128,0,58584:0:0:0:0:
448,192,58501,1,0,0:0:0:0:
448,192,58667,1,0,0:0:0:0:
192,192,58667,128,0,59081:0:0:0:0:
320,192,58750,128,0,58916:0:0:0:0:
64,192,58833,1,0,0:0:0:0:
320,192,58999,128,0,59081:0:0:0:0:
448,192,58999,128,0,59330:0:0:0:0:
192,192,59164,1,0,0:0:0:0:
320,192,59164,128,0,59496:0:0:0:0:
64,192,59330,1,0,0:0:0:0:
192,192,59330,128,0,59661:0:0:0:0:
64,192,59496,1,0,0:0:0:0:
448,192,59496,128,0,59661:0:0:0:0:
320,192,59661,1,0,0:0:0:0:
64,192,59661,128,0,59827:0:0:0:0:
192,192,59744,1,0,0:0:0:0:
320,192,59827,1,0,0:0:0:0:
448,192,59827,128,0,59993:0:0:0:0:
192,192,59910,1,0,0:0:0:0:
320,192,59993,1,0,0:0:0:0:
64,192,59993,128,0,60159:0:0:0:0:
192,192,60076,1,0,0:0:0:0:
320,192,60159,1,0,0:0:0:0:
448,192,60159,128,0,60324:0:0:0:0:
192,192,60241,1,0,0:0:0:0:
320,192,60324,1,0,0:0:0:0:
64,192,60324,128,0,60490:0:0:0:0:
192,192,60407,1,0,0:0:0:0:
320,192,60490,1,0,0:0:0:0:
448,192,60490,128,0,60656:0:0:0:0:
192,192,60573,1,0,0:0:0:0:
320,192,60656,1,0,0:0:0:0:
64,192,60656,128,0,60822:0:0:0:0:
192,192,60739,1,0,0:0:0:0:
320,192,60822,1,0,0:0:0:0:
448,192,60822,128,0,60987:0:0:0:0:
192,192,60904,1,0,0:0:0:0:
64,192,60987,1,0,0:0:0:0:
320,192,60987,128,0,61153:0:0:0:0:
448,192,61070,1,0,0:0:0:0:
64,192,61153,1,0,0:0:0:0:
192,192,61153,128,0,61319:0:0:0:0:
448,192,61236,1,0,0:0:0:0:
64,192,61319,1,0,0:0:0:0:
320,192,61319,128,0,61484:0:0:0:0:
448,192,61402,1,0,0:0:0:0:
64,192,61484,1,0,0:0:0:0:
192,192,61484,128,0,61650:0:0:0:0:
448,192,61567,1,0,0:0:0:0:
64,192,61650,1,0,0:0:0:0:
320,192,61650,128,0,61816:0:0:0:0:
448,192,61733,1,0,0:0:0:0:
64,192,61816,1,0,0:0:0:0:
192,192,61816,128,0,61899:0:0:0:0:
448,192,61899,1,0,0:0:0:0:
320,192,61899,128,0,61982:0:0:0:0:
64,192,61982,1,0,0:0:0:0:
192,192,61982,128,0,62064:0:0:0:0:
448,192,62064,1,0,0:0:0:0:
320,192,62064,128,0,62147:0:0:0:0:
64,192,62147,1,0,0:0:0:0:
192,192,62147,128,0,62313:0:0:0:0:
448,192,62230,1,0,0:0:0:0:
320,192,62313,1,0,0:0:0:0:
448,192,62368,1,0,0:0:0:0:
64,192,62424,1,0,0:0:0:0:
192,192,62479,128,0,62534:0:0:0:0:
320,192,62479,1,0,0:0:0:0:
448,192,62534,1,0,0:0:0:0:
64,192,62589,1,0,0:0:0:0:
192,192,62645,1,0,0:0:0:0:
320,192,62700,1,0,0:0:0:0:
448,192,62755,1,0,0:0:0:0:
64,192,62810,128,0,62865:0:0:0:0:
192,192,62810,1,0,0:0:0:0:
320,192,62865,1,0,0:0:0:0:
448,192,62921,1,0,0:0:0:0:
64,192,62976,1,0,0:0:0:0:
192,192,63031,1,0,0:0:0:0:
320,192,63086,1,0,0:0:0:0:
64,192,63142,1,0,0:0:0:0:
448,192,63142,128,0,63197:0:0:0:0:
192,192,63197,1,0,0:0:0:0:
320,192,63252,1,0,0:0:0:0:
448,192,63307,1,0,0:0:0:0:
64,192,63363,1,0,0:0:0:0:
192,192,63418,1,0,0:0:0:0:
320,192,63473,128,0,63528:0:0:0:0:
448,192,63473,1,0,0:0:0:0:
64,192,63528,1,0,0:0:0:0:
192,192,63584,1,0,0:0:0:0:
320,192,63639,1,0,0:0:0:0:
448,192,63639,1,0,0:0:0:0:
192,192,63694,1,0,0:0:0:0:
64,192,63749,1,0,0:0:0:0:
320,192,63805,1,0,0:0:0:0:
448,192,63805,128,0,63860:0:0:0:0:
192,192,63860,1,0,0:0:0:0:
64,192,63915,1,0,0:0:0:0:
448,192,63970,1,0,0:0:0:0:
320,192,64026,1,0,0:0:0:0:
192,192,64081,1,0,0:0:0:0:
448,192,64136,1,0,0:0:0:0:
64,192,64136,128,0,64191:0:0:0:0:
320,192,64191,1,0,0:0:0:0:
192,192,64247,1,0,0:0:0:0:
64,192,64302,1,0,0:0:0:0:
192,192,64357,1,0,0:0:0:0:
320,192,64412,1,0,0:0:0:0:
448,192,64468,128,0,64523:0:0:0:0:
64,192,64468,1,0,0:0:0:0:
320,192,64523,1,0,0:0:0:0:
192,192,64578,1,0,0:0:0:0:
64,192,64633,128,0,64688:0:0:0:0:
448,192,64633,1,0,0:0:0:0:
192,192,64688,1,0,0:0:0:0:
320,192,64744,1,0,0:0:0:0:
64,192,64799,1,0,0:0:0:0:
448,192,64799,128,0,64854:0:0:0:0:
320,192,64854,1,0,0:0:0:0:
192,192,64909,1,0,0:0:0:0:
448,192,64965,1,0,0:0:0:0:
64,192,64965,128,0,65048:0:0:0:0:
192,192,65130,1,0,0:0:0:0:
320,192,65296,1,0,0:0:0:0:
64,192,65462,1,0,0:0:0:0:
448,192,65462,128,0,65545:0:0:0:0:
64,192,65959,1,0,0:0:0:0:
192,192,65959,128,0,66042:0:0:0:0:
320,192,66291,1,0,0:0:0:0:
448,192,66291,128,0,66373:0:0:0:0:
192,192,66456,1,0,0:0:0:0:
64,192,66622,1,0,0:0:0:0:
320,192,66622,1,0,0:0:0:0:
448,192,66788,1,0,0:0:0:0:
192,192,66788,128,0,66871:0:0:0:0:
64,192,67119,1,0,0:0:0:0:
448,192,67285,1,0,0:0:0:0:
320,192,67285,128,0,67368:0:0:0:0:
320,192,67616,1,0,0:0:0:0:
192,192,67616,128,0,67699:0:0:0:0:
448,192,67782,1,0,0:0:0:0:
64,192,67948,1,0,0:0:0:0:
192,192,68114,1,0,0:0:0:0:
320,192,68114,128,0,68196:0:0:0:0:
192,192,68611,1,0,0:0:0:0:
64,192,68611,128,0,68694:0:0:0:0:
320,192,68942,128,0,69025:0:0:0:0:
448,192,69274,1,0,0:0:0:0:
64,192,69274,1,0,0:0:0:0:
192,192,69439,128,0,69522:0:0:0:0:
192,192,69937,1,0,0:0:0:0:
64,192,70102,1,0,0:0:0:0:
448,192,70268,1,0,0:0:0:0:
192,192,70268,128,0,70351:0:0:0:0:
320,192,70434,1,0,0:0:0:0:
64,192,70599,1,0,0:0:0:0:
320,192,70765,1,0,0:0:0:0:
192,192,70765,128,0,70848:0:0:0:0:
320,192,71262,1,0,0:0:0:0:
448,192,71262,128,0,71345:0:0:0:0:
64,192,71594,1,0,0:0:0:0:
320,192,71594,128,0,71677:0:0:0:0:
192,192,71760,1,0,0:0:0:0:
320,192,71925,1,0,0:0:0:0:
192,192,72091,128,0,72174:0:0:0:0:
448,192,72091,1,0,0:0:0:0:
320,192,72588,1,0,0:0:0:0:
448,192,72588,128,0,72671:0:0:0:0:
448,192,72920,1,0,0:0:0:0:
192,192,72920,128,0,73002:0:0:0:0:
320,192,73085,1,0,0:0:0:0:
64,192,73251,1,0,0:0:0:0:
320,192,73417,1,0,0:0:0:0:
448,192,73417,128,0,73500:0:0:0:0:
64,192,73748,1,0,0:0:0:0:
192,192,73914,1,0,0:0:0:0:
320,192,73914,128,0,73997:0:0:0:0:
448,192,74245,1,0,0:0:0:0:
64,192,74245,128,0,74328:0:0:0:0:
320,192,74411,1,0,0:0:0:0:
192,192,74577,1,0,0:0:0:0:
64,192,74908,1,0,0:0:0:0:
192,192,75074,1,0,0:0:0:0:
320,192,75240,1,0,0:0:0:0:
64,192,75406,1,0,0:0:0:0:
320,192,75571,1,0,0:0:0:0:
192,192,75571,1,0,0:0:0:0:
448,192,75571,128,0,75654:0:0:0:0:
64,192,75737,1,0,0:0:0:0:
192,192,75903,1,0,0:0:0:0:
64,192,75903,1,0,0:0:0:0:
64,192,76068,1,0,0:0:0:0:
320,192,76068,128,0,76151:0:0:0:0:
64,192,76234,1,0,0:0:0:0:
64,192,76400,1,0,0:0:0:0:
192,192,76400,1,0,0:0:0:0:
64,192,76566,1,0,0:0:0:0:
448,192,76566,128,0,76648:0:0:0:0:
64,192,76731,1,0,0:0:0:0:
64,192,76897,1,0,0:0:0:0:
448,192,76897,1,0,0:0:0:0:
320,192,76897,128,0,76980:0:0:0:0:
64,192,77063,1,0,0:0:0:0:
64,192,77229,1,0,0:0:0:0:
192,192,77229,1,0,0:0:0:0:
64,192,77394,1,0,0:0:0:0:
320,192,77394,128,0,77477:0:0:0:0:
64,192,77560,1,0,0:0:0:0:
64,192,77726,1,0,0:0:0:0:
64,192,77891,1,0,0:0:0:0:
448,192,77891,128,0,77974:0:0:0:0:
64,192,78057,1,0,0:0:0:0:
64,192,78223,1,0,0:0:0:0:
192,192,78223,1,0,0:0:0:0:
320,192,78223,128,0,78306:0:0:0:0:
448,192,78223,1,0,0:0:0:0:
192,192,78389,1,0,0:0:0:0:
192,192,78554,1,0,0:0:0:0:
64,192,78554,128,0,78637:0:0:0:0:
320,192,78637,1,0,0:0:0:0:
192,192,78720,1,0,0:0:0:0:
448,192,78720,1,0,0:0:0:0:
64,192,78720,128,0,78803:0:0:0:0:
320,192,78803,1,0,0:0:0:0:
192,192,78886,1,0,0:0:0:0:
192,192,79052,1,0,0:0:0:0:
192,192,79217,1,0,0:0:0:0:
448,192,79217,128,0,79300:0:0:0:0:
320,192,79300,1,0,0:0:0:0:
192,192,79383,1,0,0:0:0:0:
320,192,79466,1,0,0:0:0:0:
192,192,79549,1,0,0:0:0:0:
192,192,79714,1,0,0:0:0:0:
192,192,79880,1,0,0:0:0:0:
64,192,79880,1,0,0:0:0:0:
320,192,79963,1,0,0:0:0:0:
192,192,80046,1,0,0:0:0:0:
448,192,80046,128,0,80129:0:0:0:0:
320,192,80129,1,0,0:0:0:0:
192,192,80212,1,0,0:0:0:0:
192,192,80377,1,0,0:0:0:0:
64,192,80377,1,0,0:0:0:0:
192,192,80543,1,0,0:0:0:0:
448,192,80543,128,0,80626:0:0:0:0:
320,192,80626,1,0,0:0:0:0:
64,192,80709,1,0,0:0:0:0:
192,192,80792,1,0,0:0:0:0:
64,192,80875,128,0,80957:0:0:0:0:
448,192,80875,128,0,80957:0:0:0:0:
320,192,80875,128,0,80957:0:0:0:0:
192,192,80957,1,0,0:0:0:0:
320,192,81040,1,0,0:0:0:0:
64,192,81040,1,0,0:0:0:0:
192,192,81123,1,0,0:0:0:0:
320,192,81206,1,0,0:0:0:0:
448,192,81206,1,0,0:0:0:0:
192,192,81289,1,0,0:0:0:0:
64,192,81372,1,0,0:0:0:0:
448,192,81372,1,0,0:0:0:0:
320,192,81372,128,0,81455:0:0:0:0:
192,192,81455,1,0,0:0:0:0:
320,192,81537,1,0,0:0:0:0:
192,192,81620,1,0,0:0:0:0:
320,192,81703,1,0,0:0:0:0:
448,192,81703,1,0,0:0:0:0:
192,192,81786,1,0,0:0:0:0:
448,192,81869,1,0,0:0:0:0:
64,192,81869,1,0,0:0:0:0:
320,192,81869,128,0,81952:0:0:0:0:
192,192,81952,1,0,0:0:0:0:
320,192,82035,1,0,0:0:0:0:
192,192,82117,1,0,0:0:0:0:
64,192,82200,128,0,82283:0:0:0:0:
448,192,82200,128,0,82283:0:0:0:0:
320,192,82200,128,0,82283:0:0:0:0:
192,192,82283,1,0,0:0:0:0:
320,192,82366,1,0,0:0:0:0:
64,192,82366,1,0,0:0:0:0:
192,192,82449,1,0,0:0:0:0:
320,192,82532,1,0,0:0:0:0:
448,192,82532,1,0,0:0:0:0:
192,192,82615,1,0,0:0:0:0:
64,192,82698,1,0,0:0:0:0:
448,192,82698,1,0,0:0:0:0:
320,192,82698,128,0,82780:0:0:0:0:
192,192,82780,1,0,0:0:0:0:
320,192,82863,1,0,0:0:0:0:
64,192,82863,1,0,0:0:0:0:
192,192,82946,1,0,0:0:0:0:
320,192,83029,1,0,0:0:0:0:
448,192,83029,1,0,0:0:0:0:
192,192,83112,1,0,0:0:0:0:
64,192,83195,1,0,0:0:0:0:
448,192,83195,1,0,0:0:0:0:
320,192,83195,128,0,83278:0:0:0:0:
192,192,83278,1,0,0:0:0:0:
320,192,83360,1,0,0:0:0:0:
192,192,83443,1,0,0:0:0:0:
320,192,83526,1,0,0:0:0:0:
448,192,83526,128,0,83581:0:0:0:0:
64,192,83581,1,0,0:0:0:0:
192,192,83637,1,0,0:0:0:0:
320,192,83692,1,0,0:0:0:0:
448,192,83747,1,0,0:0:0:0:
64,192,83802,1,0,0:0:0:0:
192,192,83858,1,0,0:0:0:0:
320,192,83913,1,0,0:0:0:0:
448,192,83968,1,0,0:0:0:0:
64,192,84023,1,0,0:0:0:0:
192,192,84079,1,0,0:0:0:0:
320,192,84134,1,0,0:0:0:0:
448,192,84189,1,0,0:0:0:0:
64,192,84189,128,0,84244:0:0:0:0:
320,192,84244,1,0,0:0:0:0:
192,192,84300,1,0,0:0:0:0:
64,192,84355,1,0,0:0:0:0:
448,192,84410,1,0,0:0:0:0:
320,192,84465,1,0,0:0:0:0:
192,192,84521,1,0,0:0:0:0:
64,192,84576,1,0,0:0:0:0:
448,192,84631,1,0,0:0:0:0:
320,192,84686,1,0,0:0:0:0:
192,192,84742,1,0,0:0:0:0:
64,192,84797,1,0,0:0:0:0:
320,192,84852,1,0,0:0:0:0:
448,192,84852,128,0,84893:0:0:0:0:
64,192,84893,1,0,0:0:0:0:
192,192,84935,1,0,0:0:0:0:
320,192,84976,1,0,0:0:0:0:
448,192,85018,1,0,0:0:0:0:
64,192,85059,1,0,0:0:0:0:
192,192,85101,1,0,0:0:0:0:
320,192,85142,1,0,0:0:0:0:
448,192,85183,1,0,0:0:0:0:
64,192,85183,128,0,85225:0:0:0:0:
192,192,85225,1,0,0:0:0:0:
320,192,85266,1,0,0:0:0:0:
448,192,85308,1,0,0:0:0:0:
64,192,85349,1,0,0:0:0:0:
192,192,85391,1,0,0:0:0:0:
320,192,85432,1,0,0:0:0:0:
448,192,85473,1,0,0:0:0:0:
192,192,85515,1,0,0:0:0:0:
64,192,85515,128,0,85556:0:0:0:0:
448,192,85556,1,0,0:0:0:0:
320,192,85598,1,0,0:0:0:0:
192,192,85639,1,0,0:0:0:0:
64,192,85681,1,0,0:0:0:0:
448,192,85722,1,0,0:0:0:0:
320,192,85764,1,0,0:0:0:0:
192,192,85805,1,0,0:0:0:0:
64,192,85846,1,0,0:0:0:0:
448,192,85846,128,0,85888:0:0:0:0:
320,192,85888,1,0,0:0:0:0:
192,192,85929,1,0,0:0:0:0:
64,192,85971,1,0,0:0:0:0:
448,192,86012,1,0,0:0:0:0:
320,192,86054,1,0,0:0:0:0:
192,192,86095,1,0,0:0:0:0:
64,192,86136,1,0,0:0:0:0:
320,192,86178,128,0,87504:0:0:0:0:
448,192,86178,128,0,86261:0:0:0:0:
64,192,86841,128,0,86924:0:0:0:0:
448,192,87172,128,0,87255:0:0:0:0:
64,192,87504,128,0,88167:0:0:0:0:
192,192,87504,128,0,87587:0:0:0:0:
192,192,88167,128,0,88498:0:0:0:0:
448,192,88167,128,0,88249:0:0:0:0:
320,192,88167,1,0,0:0:0:0:
320,192,88498,128,0,88829:0:0:0:0:
64,192,88664,1,0,0:0:0:0:
448,192,88829,128,0,90155:0:0:0:0:
64,192,88829,128,0,88912:0:0:0:0:
192,192,88829,1,0,0:0:0:0:
320,192,89327,128,0,89410:0:0:0:0:
192,192,89492,128,0,89575:0:0:0:0:
64,192,89492,1,0,0:0:0:0:
192,192,89824,1,0,0:0:0:0:
64,192,90155,128,0,90818:0:0:0:0:
320,192,90155,128,0,90238:0:0:0:0:
192,192,90155,1,0,0:0:0:0:
320,192,90818,128,0,91481:0:0:0:0:
192,192,90818,128,0,90901:0:0:0:0:
448,192,90818,1,0,0:0:0:0:
64,192,91315,1,0,0:0:0:0:
192,192,91481,128,0,92144:0:0:0:0:
448,192,91481,1,0,0:0:0:0:
320,192,91564,1,0,0:0:0:0:
64,192,91647,1,0,0:0:0:0:
320,192,91730,1,0,0:0:0:0:
448,192,91813,1,0,0:0:0:0:
64,192,91895,1,0,0:0:0:0:
320,192,91978,1,0,0:0:0:0:
448,192,92061,1,0,0:0:0:0:
64,192,92144,128,0,92475:0:0:0:0:
320,192,92144,1,0,0:0:0:0:
192,192,92227,1,0,0:0:0:0:
448,192,92310,1,0,0:0:0:0:
320,192,92393,1,0,0:0:0:0:
192,192,92475,128,0,92807:0:0:0:0:
448,192,92475,1,0,0:0:0:0:
320,192,92558,1,0,0:0:0:0:
64,192,92641,1,0,0:0:0:0:
448,192,92724,1,0,0:0:0:0:
320,192,92807,128,0,93470:0:0:0:0:
64,192,92807,1,0,0:0:0:0:
192,192,92890,128,0,92973:0:0:0:0:
448,192,92973,128,0,93056:0:0:0:0:
192,192,93056,128,0,93138:0:0:0:0:
64,192,93138,128,0,93221:0:0:0:0:
448,192,93221,128,0,93304:0:0:0:0:
192,192,93304,128,0,93387:0:0:0:0:
64,192,93387,128,0,93470:0:0:0:0:
448,192,93470,128,0,94133:0:0:0:0:
192,192,93470,128,0,93553:0:0:0:0:
320,192,93553,128,0,93636:0:0:0:0:
64,192,93636,128,0,93718:0:0:0:0:
320,192,93718,128,0,93801:0:0:0:0:
192,192,93801,128,0,93884:0:0:0:0:
64,192,93884,128,0,93967:0:0:0:0:
192,192,93967,128,0,94050:0:0:0:0:
320,192,94050,128,0,94133:0:0:0:0:
192,192,94133,128,0,94796:0:0:0:0:
64,192,94133,128,0,94298:0:0:0:0:
320,192,94298,128,0,94381:0:0:0:0:
64,192,94381,128,0,94547:0:0:0:0:
448,192,94547,128,0,94630:0:0:0:0:
64,192,94630,128,0,94796:0:0:0:0:
320,192,94796,128,0,95459:0:0:0:0:
448,192,94796,128,0,94961:0:0:0:0:
64,192,94961,128,0,95127:0:0:0:0:
192,192,95127,128,0,95293:0:0:0:0:
448,192,95293,128,0,95459:0:0:0:0:
64,192,95459,128,0,96121:0:0:0:0:
192,192,95459,128,0,95624:0:0:0:0:
320,192,95624,128,0,95707:0:0:0:0:
192,192,95707,128,0,95873:0:0:0:0:
448,192,95873,128,0,95956:0:0:0:0:
320,192,95956,128,0,96121:0:0:0:0:
192,192,96121,128,0,96784:0:0:0:0:
448,192,96121,128,0,96287:0:0:0:0:
320,192,96287,128,0,96453:0:0:0:0:
64,192,96453,128,0,96619:0:0:0:0:
320,192,96619,128,0,96784:0:0:0:0:
64,192,96784,1,0,0:0:0:0:
448,192,96784,128,0,97364:0:0:0:0:
320,192,96867,128,0,97033:0:0:0:0:
192,192,96950,128,0,97116:0:0:0:0:
64,192,97033,128,0,97199:0:0:0:0:
320,192,97116,128,0,97364:0:0:0:0:
192,192,97199,128,0,97282:0:0:0:0:
64,192,97282,128,0,97447:0:0:0:0:
192,192,97364,128,0,97530:0:0:0:0:
448,192,97447,1,0,0:0:0:0:
320,192,97447,128,0,97613:0:0:0:0:
64,192,97530,128,0,97696:0:0:0:0:
192,192,97613,128,0,97696:0:0:0:0:
320,192,97696,128,0,97779:0:0:0:0:
64,192,97779,1,0,0:0:0:0:
192,192,97779,128,0,98193:0:0:0:0:
320,192,97862,128,0,97944:0:0:0:0:
448,192,97944,128,0,98027:0:0:0:0:
320,192,98027,128,0,98110:0:0:0:0:
64,192,98110,1,0,0:0:0:0:
448,192,98110,128,0,98276:0:0:0:0:
320,192,98193,128,0,98359:0:0:0:0:
192,192,98276,128,0,98442:0:0:0:0:
448,192,98359,128,0,98690:0:0:0:0:
64,192,98442,1,0,0:0:0:0:
320,192,98442,128,0,98607:0:0:0:0:
192,192,98525,128,0,98690:0:0:0:0:
64,192,98607,128,0,98773:0:0:0:0:
320,192,98690,128,0,98939:0:0:0:0:
448,192,98773,1,0,0:0:0:0:
192,192,98773,128,0,98856:0:0:0:0:
64,192,98856,128,0,99022:0:0:0:0:
192,192,98939,128,0,99187:0:0:0:0:
320,192,99022,128,0,99105:0:0:0:0:
64,192,99105,1,0,0:0:0:0:
448,192,99105,128,0,99353:0:0:0:0:
320,192,99187,128,0,99270:0:0:0:0:
192,192,99270,128,0,99519:0:0:0:0:
320,192,99353,128,0,99436:0:0:0:0:
448,192,99436,1,0,0:0:0:0:
64,192,99436,1,0,0:0:0:0:
320,192,99519,128,0,99685:0:0:0:0:
192,192,99602,128,0,99767:0:0:0:0:
64,192,99685,128,0,99850:0:0:0:0:
320,192,99767,128,0,100016:0:0:0:0:
192,192,99850,128,0,99933:0:0:0:0:
64,192,99933,128,0,100182:0:0:0:0:
192,192,100016,128,0,100099:0:0:0:0:
320,192,100099,1,0,0:0:0:0:
448,192,100099,128,0,100265:0:0:0:0:
192,192,100182,128,0,100348:0:0:0:0:
64,192,100265,128,0,100430:0:0:0:0:
448,192,100348,128,0,100679:0:0:0:0:
192,192,100430,1,0,0:0:0:0:
320,192,100430,128,0,100596:0:0:0:0:
64,192,100513,128,0,100928:0:0:0:0:
192,192,100596,128,0,100679:0:0:0:0:
320,192,100679,128,0,100762:0:0:0:0:
192,192,100762,1,0,0:0:0:0:
448,192,100762,128,0,101093:0:0:0:0:
320,192,100845,128,0,101010:0:0:0:0:
192,192,100928,128,0,101010:0:0:0:0:
64,192,101010,128,0,101176:0:0:0:0:
192,192,101093,1,0,0:0:0:0:
320,192,101093,128,0,101342:0:0:0:0:
448,192,101176,128,0,101342:0:0:0:0:
64,192,101259,128,0,101508:0:0:0:0:
192,192,101342,128,0,101425:0:0:0:0:
320,192,101425,1,0,0:0:0:0:
448,192,101425,128,0,101590:0:0:0:0:
192,192,101508,128,0,101673:0:0:0:0:
64,192,101590,128,0,101756:0:0:0:0:
448,192,101673,128,0,102005:0:0:0:0:
320,192,101756,128,0,101922:0:0:0:0:
192,192,101756,1,0,0:0:0:0:
64,192,101839,128,0,102005:0:0:0:0:
192,192,101922,128,0,102088:0:0:0:0:
320,192,102005,128,0,102088:0:0:0:0:
64,192,102088,1,0,0:0:0:0:
448,192,102088,128,0,102253:0:0:0:0:
320,192,102171,128,0,102336:0:0:0:0:
64,192,102253,1,0,0:0:0:0:
192,192,102253,128,0,102419:0:0:0:0:
448,192,102336,128,0,102502:0:0:0:0:
64,192,102419,1,0,0:0:0:0:
320,192,102419,128,0,102585:0:0:0:0:
192,192,102502,128,0,102668:0:0:0:0:
64,192,102585,1,0,0:0:0:0:
448,192,102585,128,0,102751:0:0:0:0:
320,192,102668,128,0,102833:0:0:0:0:
192,192,102751,1,0,0:0:0:0:
64,192,102751,1,0,0:0:0:0:
448,192,102833,128,0,102999:0:0:0:0:
192,192,102916,1,0,0:0:0:0:
320,192,102916,128,0,103082:0:0:0:0:
64,192,102999,128,0,103165:0:0:0:0:
192,192,103082,1,0,0:0:0:0:
448,192,103082,128,0,103248:0:0:0:0:
320,192,103165,128,0,103331:0:0:0:0:
192,192,103248,1,0,0:0:0:0:
64,192,103248,128,0,103413:0:0:0:0:
448,192,103331,128,0,103496:0:0:0:0:
320,192,103413,1,0,0:0:0:0:
192,192,103413,1,0,0:0:0:0:
64,192,103496,128,0,103662:0:0:0:0:
320,192,103579,1,0,0:0:0:0:
448,192,103579,128,0,103745:0:0:0:0:
192,192,103662,128,0,103828:0:0:0:0:
320,192,103745,1,0,0:0:0:0:
64,192,103745,128,0,103911:0:0:0:0:
448,192,103828,128,0,103994:0:0:0:0:
320,192,103911,1,0,0:0:0:0:
192,192,103911,128,0,104076:0:0:0:0:
64,192,103994,128,0,104159:0:0:0:0:
320,192,104076,1,0,0:0:0:0:
448,192,104076,1,0,0:0:0:0:
192,192,104159,128,0,104325:0:0:0:0:
64,192,104242,128,0,104408:0:0:0:0:
448,192,104242,1,0,0:0:0:0:
320,192,104325,128,0,104491:0:0:0:0:
448,192,104408,1,0,0:0:0:0:
192,192,104408,128,0,104574:0:0:0:0:
64,192,104491,128,0,104656:0:0:0:0:
448,192,104574,1,0,0:0:0:0:
320,192,104574,128,0,104905:0:0:0:0:
192,192,104656,128,0,104905:0:0:0:0:
448,192,104739,128,0,105154:0:0:0:0:
64,192,104739,1,0,0:0:0:0:
64,192,104905,1,0,0:0:0:0:
192,192,104988,128,0,105071:0:0:0:0:
320,192,104988,128,0,105154:0:0:0:0:
64,192,105071,1,0,0:0:0:0:
192,192,105154,128,0,105568:0:0:0:0:
448,192,105236,1,0,0:0:0:0:
64,192,105236,1,0,0:0:0:0:
320,192,105236,128,0,105402:0:0:0:0:
64,192,105402,1,0,0:0:0:0:
448,192,105402,128,0,106065:0:0:0:0:
64,192,105568,1,0,0:0:0:0:
320,192,105568,128,0,105899:0:0:0:0:
192,192,105734,1,0,0:0:0:0:
64,192,105734,1,0,0:0:0:0:
64,192,105899,1,0,0:0:0:0:
64,192,106065,1,0,0:0:0:0:
192,192,106107,1,0,0:0:0:0:
320,192,106148,1,0,0:0:0:0:
448,192,106189,1,0,0:0:0:0:
64,192,106231,1,0,0:0:0:0:
192,192,106272,1,0,0:0:0:0:
320,192,106314,1,0,0:0:0:0:
448,192,106355,1,0,0:0:0:0:
64,192,106397,1,0,0:0:0:0:
192,192,106438,1,0,0:0:0:0:
448,192,106479,1,0,0:0:0:0:
320,192,106521,1,0,0:0:0:0:
64,192,106562,1,0,0:0:0:0:
192,192,106604,1,0,0:0:0:0:
448,192,106645,1,0,0:0:0:0:
320,192,106687,1,0,0:0:0:0:
192,192,106728,5,0,0:0:0:0:
64,192,106756,1,0,0:0:0:0:
448,192,106783,1,0,0:0:0:0:
320,192,106811,1,0,0:0:0:0:
192,192,106839,1,0,0:0:0:0:
64,192,106866,1,0,0:0:0:0:
320,192,106894,128,0,107225:0:0:0:0:
448,192,106894,128,0,107059:0:0:0:0:
192,192,107059,128,0,107391:0:0:0:0:
64,192,107059,1,0,0:0:0:0:
64,192,107225,128,0,107391:0:0:0:0:
448,192,107391,128,0,107640:0:0:0:0:
320,192,107474,128,0,107640:0:0:0:0:
192,192,107557,128,0,107640:0:0:0:0:
64,192,107640,128,0,107722:0:0:0:0:
192,192,107722,1,0,0:0:0:0:
320,192,107722,1,0,0:0:0:0:
448,192,107722,128,0,107971:0:0:0:0:
64,192,107805,128,0,107971:0:0:0:0:
192,192,107888,128,0,108054:0:0:0:0:
320,192,107971,128,0,108137:0:0:0:0:
448,192,108054,1,0,0:0:0:0:
64,192,108054,128,0,108302:0:0:0:0:
192,192,108137,128,0,108302:0:0:0:0:
320,192,108220,128,0,108302:0:0:0:0:
448,192,108302,128,0,108385:0:0:0:0:
192,192,108385,1,0,0:0:0:0:
320,192,108385,1,0,0:0:0:0:
64,192,108385,128,0,108717:0:0:0:0:
448,192,108468,128,0,108634:0:0:0:0:
320,192,108551,128,0,108634:0:0:0:0:
192,192,108634,128,0,108800:0:0:0:0:
448,192,108717,1,0,0:0:0:0:
320,192,108717,128,0,108882:0:0:0:0:
64,192,108800,128,0,108965:0:0:0:0:
192,192,108882,128,0,108965:0:0:0:0:
320,192,108965,128,0,109048:0:0:0:0:
64,192,109048,1,0,0:0:0:0:
448,192,109048,1,0,0:0:0:0:
192,192,109048,128,0,109297:0:0:0:0:
320,192,109131,128,0,109214:0:0:0:0:
448,192,109214,128,0,109297:0:0:0:0:
320,192,109297,128,0,109545:0:0:0:0:
448,192,109380,1,0,0:0:0:0:
192,192,109380,128,0,109463:0:0:0:0:
64,192,109463,128,0,109628:0:0:0:0:
192,192,109545,128,0,109628:0:0:0:0:
320,192,109628,128,0,109711:0:0:0:0:
64,192,109711,1,0,0:0:0:0:
192,192,109711,1,0,0:0:0:0:
448,192,109711,128,0,109960:0:0:0:0:
320,192,109794,128,0,109960:0:0:0:0:
192,192,109877,128,0,109960:0:0:0:0:
64,192,109960,128,0,110043:0:0:0:0:
448,192,110043,1,0,0:0:0:0:
192,192,110043,128,0,110291:0:0:0:0:
320,192,110043,128,0,110208:0:0:0:0:
64,192,110125,128,0,110291:0:0:0:0:
448,192,110208,128,0,110291:0:0:0:0:
320,192,110291,128,0,110374:0:0:0:0:
64,192,110374,1,0,0:0:0:0:
448,192,110374,128,0,110705:0:0:0:0:
192,192,110374,1,0,0:0:0:0:
320,192,110457,128,0,110623:0:0:0:0:
192,192,110540,128,0,110623:0:0:0:0:
64,192,110623,128,0,110788:0:0:0:0:
192,192,110705,1,0,0:0:0:0:
320,192,110705,128,0,110954:0:0:0:0:
448,192,110788,128,0,110954:0:0:0:0:
64,192,110871,128,0,110954:0:0:0:0:
192,192,110954,128,0,111037:0:0:0:0:
64,192,111037,1,0,0:0:0:0:
448,192,111037,1,0,0:0:0:0:
320,192,111037,128,0,111120:0:0:0:0:
192,192,111120,128,0,111286:0:0:0:0:
320,192,111203,128,0,111451:0:0:0:0:
448,192,111286,128,0,111368:0:0:0:0:
64,192,111368,1,0,0:0:0:0:
192,192,111368,128,0,111534:0:0:0:0:
448,192,111451,128,0,111617:0:0:0:0:
320,192,111534,128,0,111617:0:0:0:0:
192,192,111617,128,0,111700:0:0:0:0:
320,192,111700,1,0,0:0:0:0:
448,192,111700,1,0,0:0:0:0:
64,192,111700,128,0,111948:0:0:0:0:
192,192,111783,128,0,111948:0:0:0:0:
320,192,111866,128,0,112031:0:0:0:0:
448,192,111948,128,0,112197:0:0:0:0:
64,192,112031,1,0,0:0:0:0:
192,192,112031,128,0,112114:0:0:0:0:
320,192,112114,128,0,112280:0:0:0:0:
64,192,112197,1,0,0:0:0:0:
192,192,112197,128,0,112363:0:0:0:0:
448,192,112280,128,0,112529:0:0:0:0:
64,192,112363,1,0,0:0:0:0:
320,192,112363,128,0,112446:0:0:0:0:
192,192,112446,128,0,112611:0:0:0:0:
64,192,112529,1,0,0:0:0:0:
320,192,112529,128,0,112611:0:0:0:0:
448,192,112611,128,0,112694:0:0:0:0:
192,192,112694,1,0,0:0:0:0:
320,192,112694,1,0,0:0:0:0:
64,192,112694,128,0,112943:0:0:0:0:
448,192,112777,128,0,112943:0:0:0:0:
320,192,112860,128,0,112943:0:0:0:0:
192,192,112943,128,0,113026:0:0:0:0:
64,192,113026,1,0,0:0:0:0:
448,192,113026,1,0,0:0:0:0:
320,192,113026,128,0,113274:0:0:0:0:
192,192,113109,128,0,113191:0:0:0:0:
64,192,113191,128,0,113606:0:0:0:0:
192,192,113274,128,0,113357:0:0:0:0:
320,192,113357,1,0,0:0:0:0:
448,192,113357,128,0,113523:0:0:0:0:
192,192,113440,128,0,113606:0:0:0:0:
320,192,113523,128,0,113606:0:0:0:0:
448,192,113606,128,0,113689:0:0:0:0:
64,192,113689,128,0,113771:0:0:0:0:
192,192,113689,1,0,0:0:0:0:
320,192,113689,1,0,0:0:0:0:
448,192,113771,128,0,113937:0:0:0:0:
64,192,113854,128,0,114103:0:0:0:0:
192,192,113937,128,0,114020:0:0:0:0:
448,192,114020,1,0,0:0:0:0:
320,192,114020,128,0,114269:0:0:0:0:
192,192,114103,128,0,114269:0:0:0:0:
64,192,114186,128,0,114269:0:0:0:0:
448,192,114269,128,0,114352:0:0:0:0:
192,192,114352,1,0,0:0:0:0:
320,192,114352,1,0,0:0:0:0:
64,192,114352,128,0,114600:0:0:0:0:
448,192,114434,128,0,114600:0:0:0:0:
320,192,114517,128,0,114766:0:0:0:0:
192,192,114600,128,0,114683:0:0:0:0:
64,192,114683,1,0,0:0:0:0:
448,192,114683,128,0,114849:0:0:0:0:
192,192,114766,128,0,114932:0:0:0:0:
320,192,114849,128,0,114932:0:0:0:0:
448,192,114932,128,0,115014:0:0:0:0:
64,192,115014,1,0,0:0:0:0:
320,192,115014,1,0,0:0:0:0:
192,192,115014,128,0,115180:0:0:0:0:
448,192,115097,128,0,115263:0:0:0:0:
64,192,115180,128,0,115346:0:0:0:0:
192,192,115263,128,0,115346:0:0:0:0:
448,192,115346,1,0,0:0:0:0:
320,192,115346,128,0,115512:0:0:0:0:
192,192,115512,128,0,115677:0:0:0:0:
320,192,115594,128,0,115760:0:0:0:0:
448,192,115677,1,0,0:0:0:0:
64,192,115677,1,0,0:0:0:0:
192,192,115760,128,0,116092:0:0:0:0:
320,192,115843,128,0,116257:0:0:0:0:
448,192,116009,1,0,0:0:0:0:
192,192,116175,128,0,116423:0:0:0:0:
64,192,116340,1,0,0:0:0:0:
448,192,116340,1,0,0:0:0:0:
320,192,116340,128,0,116589:0:0:0:0:
192,192,116506,128,0,116672:0:0:0:0:
320,192,116672,128,0,116837:0:0:0:0:
448,192,116672,128,0,116755:0:0:0:0:
448,192,116837,128,0,117003:0:0:0:0:
192,192,116920,128,0,117086:0:0:0:0:
320,192,116920,128,0,117500:0:0:0:0:
448,192,117086,128,0,117666:0:0:0:0:
64,192,117169,1,0,0:0:0:0:
192,192,117169,128,0,117335:0:0:0:0:
64,192,117335,1,0,0:0:0:0:
192,192,117500,1,0,0:0:0:0:
64,192,117500,128,0,117998:0:0:0:0:
320,192,117666,1,0,0:0:0:0:
192,192,117666,128,0,117998:0:0:0:0:
448,192,117832,1,0,0:0:0:0:
320,192,117832,128,0,117998:0:0:0:0:
448,192,117998,128,0,118246:0:0:0:0:
320,192,118080,128,0,118163:0:0:0:0:
192,192,118163,1,0,0:0:0:0:
320,192,118246,1,0,0:0:0:0:
448,192,118329,1,0,0:0:0:0:
64,192,118329,128,0,118495:0:0:0:0:
192,192,118329,128,0,118412:0:0:0:0:
320,192,118412,1,0,0:0:0:0:
192,192,118495,1,0,0:0:0:0:
64,192,118578,1,0,0:0:0:0:
192,192,118660,1,0,0:0:0:0:
448,192,118660,128,0,118909:0:0:0:0:
320,192,118743,128,0,118909:0:0:0:0:
192,192,118826,128,0,118909:0:0:0:0:
64,192,118909,128,0,118992:0:0:0:0:
192,192,118992,128,0,119075:0:0:0:0:
320,192,118992,128,0,119158:0:0:0:0:
448,192,118992,128,0,119240:0:0:0:0:
64,192,119075,1,0,0:0:0:0:
192,192,119158,1,0,0:0:0:0:
320,192,119240,1,0,0:0:0:0:
448,192,119323,128,0,119572:0:0:0:0:
320,192,119406,128,0,119489:0:0:0:0:
192,192,119489,1,0,0:0:0:0:
64,192,119489,1,0,0:0:0:0:
320,192,119572,1,0,0:0:0:0:
448,192,119655,1,0,0:0:0:0:
64,192,119655,1,0,0:0:0:0:
192,192,119655,128,0,119903:0:0:0:0:
320,192,119738,128,0,119821:0:0:0:0:
64,192,119821,1,0,0:0:0:0:
448,192,119821,1,0,0:0:0:0:
320,192,119903,1,0,0:0:0:0:
64,192,119986,128,0,120152:0:0:0:0:
192,192,119986,128,0,120069:0:0:0:0:
320,192,120069,1,0,0:0:0:0:
448,192,120152,1,0,0:0:0:0:
192,192,120152,1,0,0:0:0:0:
64,192,120235,1,0,0:0:0:0:
448,192,120318,1,0,0:0:0:0:
192,192,120318,128,0,120401:0:0:0:0:
320,192,120318,128,0,120483:0:0:0:0:
64,192,120401,1,0,0:0:0:0:
448,192,120483,1,0,0:0:0:0:
192,192,120483,1,0,0:0:0:0:
320,192,120566,1,0,0:0:0:0:
64,192,120649,128,0,120898:0:0:0:0:
448,192,120649,1,0,0:0:0:0:
192,192,120732,128,0,120815:0:0:0:0:
320,192,120815,1,0,0:0:0:0:
192,192,120898,1,0,0:0:0:0:
64,192,120981,1,0,0:0:0:0:
448,192,120981,128,0,121146:0:0:0:0:
320,192,120981,128,0,121063:0:0:0:0:
192,192,121063,1,0,0:0:0:0:
320,192,121146,1,0,0:0:0:0:
448,192,121229,1,0,0:0:0:0:
320,192,121312,1,0,0:0:0:0:
64,192,121312,128,0,121561:0:0:0:0:
192,192,121395,128,0,121561:0:0:0:0:
320,192,121478,128,0,121561:0:0:0:0:
448,192,121561,128,0,121644:0:0:0:0:
320,192,121644,128,0,121726:0:0:0:0:
192,192,121644,128,0,121809:0:0:0:0:
64,192,121644,128,0,121892:0:0:0:0:
448,192,121726,1,0,0:0:0:0:
320,192,121809,1,0,0:0:0:0:
192,192,121892,1,0,0:0:0:0:
64,192,121975,128,0,122224:0:0:0:0:
192,192,122058,128,0,122141:0:0:0:0:
320,192,122141,1,0,0:0:0:0:
448,192,122141,1,0,0:0:0:0:
192,192,122224,1,0,0:0:0:0:
448,192,122306,1,0,0:0:0:0:
64,192,122306,1,0,0:0:0:0:
320,192,122306,128,0,122555:0:0:0:0:
192,192,122389,128,0,122472:0:0:0:0:
448,192,122472,1,0,0:0:0:0:
64,192,122472,1,0,0:0:0:0:
192,192,122555,1,0,0:0:0:0:
320,192,122638,128,0,122804:0:0:0:0:
192,192,122721,128,0,122886:0:0:0:0:
64,192,122804,1,0,0:0:0:0:
448,192,122804,1,0,0:0:0:0:
320,192,122886,1,0,0:0:0:0:
64,192,122969,1,0,0:0:0:0:
448,192,122969,128,0,123218:0:0:0:0:
192,192,122969,1,0,0:0:0:0:
320,192,123052,128,0,123135:0:0:0:0:
64,192,123135,1,0,0:0:0:0:
192,192,123135,1,0,0:0:0:0:
320,192,123218,1,0,0:0:0:0:
448,192,123301,128,0,123549:0:0:0:0:
320,192,123384,128,0,123549:0:0:0:0:
192,192,123467,128,0,123549:0:0:0:0:
64,192,123549,128,0,123632:0:0:0:0:
192,192,123632,128,0,123715:0:0:0:0:
320,192,123632,128,0,123798:0:0:0:0:
448,192,123632,128,0,123881:0:0:0:0:
64,192,123715,1,0,0:0:0:0:
192,192,123798,1,0,0:0:0:0:
320,192,123881,1,0,0:0:0:0:
448,192,123964,1,0,0:0:0:0:
64,192,123964,128,0,124212:0:0:0:0:
192,192,124047,128,0,124212:0:0:0:0:
320,192,124129,128,0,124212:0:0:0:0:
448,192,124212,128,0,124295:0:0:0:0:
64,192,124295,128,0,124544:0:0:0:0:
192,192,124295,128,0,124461:0:0:0:0:
320,192,124295,128,0,124378:0:0:0:0:
448,192,124378,1,0,0:0:0:0:
320,192,124461,1,0,0:0:0:0:
192,192,124544,1,0,0:0:0:0:
64,192,124627,128,0,124875:0:0:0:0:
448,192,124709,128,0,124792:0:0:0:0:
320,192,124792,128,0,124958:0:0:0:0:
448,192,124875,128,0,125207:0:0:0:0:
64,192,124958,1,0,0:0:0:0:
192,192,124958,128,0,125124:0:0:0:0:
320,192,125041,128,0,125290:0:0:0:0:
64,192,125124,128,0,125290:0:0:0:0:
192,192,125207,128,0,125290:0:0:0:0:
448,192,125290,128,0,125621:0:0:0:0:
192,192,125372,128,0,125538:0:0:0:0:
64,192,125455,128,0,125538:0:0:0:0:
320,192,125538,128,0,125704:0:0:0:0:
64,192,125621,1,0,0:0:0:0:
192,192,125621,128,0,125870:0:0:0:0:
448,192,125704,128,0,125787:0:0:0:0:
320,192,125787,128,0,125870:0:0:0:0:
448,192,125870,128,0,125952:0:0:0:0:
192,192,125952,128,0,126118:0:0:0:0:
320,192,125952,128,0,126118:0:0:0:0:
64,192,125952,128,0,126035:0:0:0:0:
64,192,126118,128,0,126284:0:0:0:0:
192,192,126201,128,0,126367:0:0:0:0:
320,192,126201,128,0,126532:0:0:0:0:
64,192,126367,128,0,126532:0:0:0:0:
192,192,126450,128,0,126532:0:0:0:0:
448,192,126450,128,0,126532:0:0:0:0:
64,192,126615,128,0,126864:0:0:0:0:
320,192,126615,128,0,126781:0:0:0:0:
448,192,126615,128,0,126698:0:0:0:0:
448,192,126781,128,0,127030:0:0:0:0:
192,192,126864,128,0,126947:0:0:0:0:
320,192,126864,128,0,126947:0:0:0:0:
64,192,126947,128,0,127195:0:0:0:0:
192,192,127030,128,0,127195:0:0:0:0:
320,192,127030,128,0,127195:0:0:0:0:
448,192,127113,128,0,127195:0:0:0:0:
192,192,127278,128,0,127444:0:0:0:0:
320,192,127278,128,0,127610:0:0:0:0:
448,192,127278,128,0,127361:0:0:0:0:
448,192,127444,128,0,127610:0:0:0:0:
64,192,127527,128,0,127858:0:0:0:0:
192,192,127527,128,0,127610:0:0:0:0:
192,192,127693,128,0,127858:0:0:0:0:
320,192,127693,128,0,127858:0:0:0:0:
448,192,127693,128,0,127858:0:0:0:0:
64,192,127941,128,0,128024:0:0:0:0:
192,192,127941,128,0,128273:0:0:0:0:
320,192,127941,128,0,128107:0:0:0:0:
64,192,128107,128,0,128273:0:0:0:0:
320,192,128190,128,0,128273:0:0:0:0:
448,192,128190,128,0,128438:0:0:0:0:
64,192,128355,128,0,128438:0:0:0:0:
192,192,128355,128,0,128521:0:0:0:0:
320,192,128355,128,0,128438:0:0:0:0:
64,192,128521,1,0,0:0:0:0:
320,192,128521,1,0,0:0:0:0:
448,192,128521,1,0,0:0:0:0:
192,192,128604,128,0,129598:0:0:0:0:
320,192,128604,1,0,0:0:0:0:
448,192,128604,1,0,0:0:0:0:
64,192,128687,128,0,128853:0:0:0:0:
320,192,128770,128,0,129018:0:0:0:0:
448,192,128853,128,0,128936:0:0:0:0:
64,192,128936,128,0,129101:0:0:0:0:
448,192,129018,1,0,0:0:0:0:
320,192,129101,1,0,0:0:0:0:
64,192,129184,1,0,0:0:0:0:
448,192,129267,1,0,0:0:0:0:
64,192,129350,128,0,129516:0:0:0:0:
320,192,129433,128,0,129516:0:0:0:0:
448,192,129516,128,0,129598:0:0:0:0:
64,192,129598,128,0,129764:0:0:0:0:
320,192,129598,128,0,129681:0:0:0:0:
448,192,129681,1,0,0:0:0:0:
192,192,129764,128,0,129930:0:0:0:0:
320,192,129764,1,0,0:0:0:0:
64,192,129847,1,0,0:0:0:0:
448,192,129930,128,0,130593:0:0:0:0:
320,192,129930,1,0,0:0:0:0:
64,192,130013,128,0,130178:0:0:0:0:
192,192,130096,128,0,130427:0:0:0:0:
320,192,130178,128,0,130261:0:0:0:0:
64,192,130261,128,0,130344:0:0:0:0:
320,192,130344,128,0,130510:0:0:0:0:
64,192,130427,1,0,0:0:0:0:
192,192,130510,1,0,0:0:0:0:
64,192,130593,128,0,130841:0:0:0:0:
320,192,130593,128,0,130759:0:0:0:0:
192,192,130676,128,0,130759:0:0:0:0:
448,192,130759,1,0,0:0:0:0:
192,192,130841,128,0,131090:0:0:0:0:
320,192,130841,128,0,130924:0:0:0:0:
64,192,130924,128,0,131007:0:0:0:0:
320,192,131007,1,0,0:0:0:0:
448,192,131090,128,0,131256:0:0:0:0:
64,192,131090,128,0,131173:0:0:0:0:
192,192,131173,1,0,0:0:0:0:
320,192,131256,128,0,132250:0:0:0:0:
64,192,131256,1,0,0:0:0:0:
448,192,131339,128,0,131504:0:0:0:0:
192,192,131421,128,0,131670:0:0:0:0:
64,192,131504,128,0,131587:0:0:0:0:
448,192,131587,128,0,131753:0:0:0:0:
64,192,131670,1,0,0:0:0:0:
192,192,131753,1,0,0:0:0:0:
448,192,131836,1,0,0:0:0:0:
64,192,131919,1,0,0:0:0:0:
448,192,132001,128,0,132167:0:0:0:0:
192,192,132084,128,0,132167:0:0:0:0:
64,192,132167,128,0,132333:0:0:0:0:
192,192,132250,128,0,132416:0:0:0:0:
448,192,132250,128,0,132333:0:0:0:0:
320,192,132333,128,0,132499:0:0:0:0:
448,192,132416,128,0,132499:0:0:0:0:
64,192,132416,1,0,0:0:0:0:
192,192,132499,1,0,0:0:0:0:
320,192,132582,128,0,133244:0:0:0:0:
448,192,132582,1,0,0:0:0:0:
64,192,132664,128,0,132830:0:0:0:0:
192,192,132747,128,0,132996:0:0:0:0:
448,192,132830,128,0,132913:0:0:0:0:
64,192,132913,128,0,133079:0:0:0:0:
448,192,132996,1,0,0:0:0:0:
192,192,133079,1,0,0:0:0:0:
64,192,133162,1,0,0:0:0:0:
448,192,133244,128,0,133493:0:0:0:0:
192,192,133244,128,0,133410:0:0:0:0:
320,192,133327,128,0,133410:0:0:0:0:
64,192,133410,128,0,133576:0:0:0:0:
320,192,133493,128,0,133742:0:0:0:0:
192,192,133493,128,0,133576:0:0:0:0:
448,192,133576,1,0,0:0:0:0:
192,192,133659,1,0,0:0:0:0:
64,192,133742,128,0,133907:0:0:0:0:
448,192,133742,1,0,0:0:0:0:
320,192,133824,1,0,0:0:0:0:
192,192,133907,128,0,134570:0:0:0:0:
448,192,133907,1,0,0:0:0:0:
64,192,133990,128,0,134156:0:0:0:0:
320,192,134073,128,0,134322:0:0:0:0:
448,192,134156,128,0,134239:0:0:0:0:
64,192,134239,128,0,134405:0:0:0:0:
448,192,134322,1,0,0:0:0:0:
320,192,134405,1,0,0:0:0:0:
64,192,134487,1,0,0:0:0:0:
320,192,134570,128,0,135233:0:0:0:0:
448,192,134570,128,0,134736:0:0:0:0:
192,192,134653,128,0,134819:0:0:0:0:
64,192,134736,128,0,134985:0:0:0:0:
448,192,134819,128,0,134902:0:0:0:0:
192,192,134902,128,0,135067:0:0:0:0:
448,192,134985,1,0,0:0:0:0:
64,192,135067,1,0,0:0:0:0:
192,192,135150,1,0,0:0:0:0:
64,192,135233,128,0,135896:0:0:0:0:
448,192,135233,1,0,0:0:0:0:
320,192,135316,128,0,135482:0:0:0:0:
192,192,135399,128,0,135647:0:0:0:0:
448,192,135482,128,0,135565:0:0:0:0:
320,192,135565,128,0,135730:0:0:0:0:
448,192,135647,128,0,135813:0:0:0:0:
192,192,135730,1,0,0:0:0:0:
320,192,135813,1,0,0:0:0:0:
192,192,135896,128,0,136559:0:0:0:0:
448,192,135896,1,0,0:0:0:0:
64,192,135979,128,0,136145:0:0:0:0:
320,192,136062,128,0,136310:0:0:0:0:
448,192,136145,128,0,136228:0:0:0:0:
64,192,136228,128,0,136393:0:0:0:0:
448,192,136310,1,0,0:0:0:0:
320,192,136393,1,0,0:0:0:0:
64,192,136476,1,0,0:0:0:0:
320,192,136559,128,0,137222:0:0:0:0:
448,192,136559,1,0,0:0:0:0:
64,192,136642,128,0,136808:0:0:0:0:
192,192,136725,128,0,136973:0:0:0:0:
448,192,136808,128,0,136890:0:0:0:0:
64,192,136890,128,0,137056:0:0:0:0:
448,192,136973,1,0,0:0:0:0:
192,192,137056,1,0,0:0:0:0:
64,192,137139,1,0,0:0:0:0:
448,192,137222,128,0,137885:0:0:0:0:
192,192,137222,1,0,0:0:0:0:
64,192,137305,128,0,137470:0:0:0:0:
192,192,137388,128,0,137636:0:0:0:0:
320,192,137470,128,0,137553:0:0:0:0:
64,192,137553,128,0,137719:0:0:0:0:
320,192,137636,1,0,0:0:0:0:
192,192,137719,1,0,0:0:0:0:
64,192,137802,1,0,0:0:0:0:
192,192,137885,128,0,138548:0:0:0:0:
320,192,137885,128,0,138051:0:0:0:0:
64,192,137968,128,0,138051:0:0:0:0:
448,192,138051,128,0,138216:0:0:0:0:
320,192,138133,128,0,138216:0:0:0:0:
64,192,138216,128,0,138382:0:0:0:0:
320,192,138299,128,0,138382:0:0:0:0:
448,192,138382,1,0,0:0:0:0:
320,192,138465,1,0,0:0:0:0:
64,192,138548,128,0,139211:0:0:0:0:
192,192,138713,1,0,0:0:0:0:
320,192,138713,128,0,138879:0:0:0:0:
192,192,138879,1,0,0:0:0:0:
448,192,138879,128,0,139045:0:0:0:0:
320,192,139045,128,0,139211:0:0:0:0:
192,192,139211,128,0,139874:0:0:0:0:
448,192,139211,1,0,0:0:0:0:
64,192,139376,1,0,0:0:0:0:
320,192,139376,1,0,0:0:0:0:
64,192,139542,1,0,0:0:0:0:
320,192,139542,1,0,0:0:0:0:
448,192,139542,1,0,0:0:0:0:
448,192,139708,1,0,0:0:0:0:
320,192,139791,1,0,0:0:0:0:
448,192,139874,128,0,140536:0:0:0:0:
64,192,139874,1,0,0:0:0:0:
192,192,139956,1,0,0:0:0:0:
64,192,140039,1,0,0:0:0:0:
320,192,140039,1,0,0:0:0:0:
64,192,140205,1,0,0:0:0:0:
192,192,140205,1,0,0:0:0:0:
320,192,140205,1,0,0:0:0:0:
64,192,140371,1,0,0:0:0:0:
320,192,140371,1,0,0:0:0:0:
320,192,140536,128,0,141199:0:0:0:0:
64,192,140536,128,0,140619:0:0:0:0:
192,192,140536,128,0,140702:0:0:0:0:
448,192,140619,128,0,140785:0:0:0:0:
64,192,140702,128,0,140785:0:0:0:0:
192,192,140785,128,0,140868:0:0:0:0:
64,192,140868,128,0,141117:0:0:0:0:
448,192,140868,128,0,140951:0:0:0:0:
192,192,140951,128,0,141034:0:0:0:0:
448,192,141034,128,0,141117:0:0:0:0:
192,192,141117,128,0,141199:0:0:0:0:
64,192,141199,128,0,141862:0:0:0:0:
448,192,141199,128,0,141365:0:0:0:0:
320,192,141282,128,0,141448:0:0:0:0:
192,192,141365,128,0,141448:0:0:0:0:
448,192,141448,128,0,141531:0:0:0:0:
192,192,141531,128,0,141614:0:0:0:0:
320,192,141531,128,0,141697:0:0:0:0:
448,192,141614,128,0,141779:0:0:0:0:
192,192,141697,128,0,141779:0:0:0:0:
320,192,141779,128,0,141862:0:0:0:0:
192,192,141862,128,0,142525:0:0:0:0:
448,192,141862,128,0,142028:0:0:0:0:
320,192,141945,128,0,142111:0:0:0:0:
64,192,142028,128,0,142111:0:0:0:0:
448,192,142111,128,0,142194:0:0:0:0:
64,192,142194,128,0,142359:0:0:0:0:
320,192,142194,128,0,142277:0:0:0:0:
448,192,142277,128,0,142442:0:0:0:0:
320,192,142359,128,0,142442:0:0:0:0:
64,192,142442,128,0,142525:0:0:0:0:
320,192,142525,128,0,143188:0:0:0:0:
448,192,142525,128,0,142691:0:0:0:0:
64,192,142608,128,0,142774:0:0:0:0:
192,192,142691,128,0,142774:0:0:0:0:
448,192,142774,128,0,142857:0:0:0:0:
64,192,142857,128,0,142940:0:0:0:0:
192,192,142857,128,0,143022:0:0:0:0:
448,192,142940,128,0,143105:0:0:0:0:
64,192,143022,128,0,143105:0:0:0:0:
192,192,143105,128,0,143188:0:0:0:0:
448,192,143188,128,0,143851:0:0:0:0:
64,192,143188,128,0,143354:0:0:0:0:
320,192,143271,128,0,143437:0:0:0:0:
192,192,143354,128,0,143437:0:0:0:0:
64,192,143437,128,0,143520:0:0:0:0:
320,192,143520,128,0,143602:0:0:0:0:
192,192,143520,128,0,143685:0:0:0:0:
64,192,143602,128,0,143768:0:0:0:0:
320,192,143685,128,0,143768:0:0:0:0:
192,192,143768,128,0,143851:0:0:0:0:
320,192,143851,128,0,144514:0:0:0:0:
64,192,143851,128,0,144017:0:0:0:0:
192,192,143934,128,0,144100:0:0:0:0:
448,192,144017,128,0,144100:0:0:0:0:
64,192,144100,128,0,144182:0:0:0:0:
192,192,144182,128,0,144265:0:0:0:0:
448,192,144182,128,0,144348:0:0:0:0:
64,192,144265,128,0,144431:0:0:0:0:
192,192,144348,128,0,144431:0:0:0:0:
448,192,144431,128,0,144514:0:0:0:0:
192,192,144514,128,0,145177:0:0:0:0:
64,192,144514,128,0,144763:0:0:0:0:
320,192,144597,128,0,144680:0:0:0:0:
448,192,144680,128,0,144763:0:0:0:0:
320,192,144763,128,0,144845:0:0:0:0:
64,192,144845,128,0,144928:0:0:0:0:
448,192,144845,128,0,145094:0:0:0:0:
320,192,144928,128,0,145011:0:0:0:0:
64,192,145011,128,0,145094:0:0:0:0:
320,192,145094,128,0,145177:0:0:0:0:
448,192,145177,128,0,145840:0:0:0:0:
64,192,145177,128,0,145425:0:0:0:0:
192,192,145260,128,0,145343:0:0:0:0:
320,192,145343,128,0,145425:0:0:0:0:
192,192,145425,128,0,145508:0:0:0:0:
64,192,145508,128,0,145591:0:0:0:0:
320,192,145508,128,0,145757:0:0:0:0:
192,192,145591,128,0,145674:0:0:0:0:
64,192,145674,128,0,145757:0:0:0:0:
192,192,145757,128,0,145840:0:0:0:0:
320,192,145840,128,0,146503:0:0:0:0:
64,192,145840,128,0,146088:0:0:0:0:
448,192,145923,128,0,146005:0:0:0:0:
192,192,146005,128,0,146088:0:0:0:0:
448,192,146088,128,0,146171:0:0:0:0:
64,192,146171,128,0,146254:0:0:0:0:
192,192,146171,128,0,146420:0:0:0:0:
448,192,146254,128,0,146337:0:0:0:0:
64,192,146337,128,0,146420:0:0:0:0:
448,192,146420,128,0,146503:0:0:0:0:
64,192,146503,128,0,147166:0:0:0:0:
192,192,146503,128,0,146751:0:0:0:0:
320,192,146586,128,0,146668:0:0:0:0:
448,192,146668,128,0,146751:0:0:0:0:
320,192,146751,128,0,146834:0:0:0:0:
192,192,146834,128,0,146917:0:0:0:0:
448,192,146834,128,0,147083:0:0:0:0:
320,192,146917,128,0,147000:0:0:0:0:
192,192,147000,128,0,147083:0:0:0:0:
320,192,147083,128,0,147166:0:0:0:0:
192,192,147166,128,0,147828:0:0:0:0:
448,192,147166,128,0,147248:0:0:0:0:
64,192,147248,128,0,147331:0:0:0:0:
448,192,147331,1,0,0:0:0:0:
320,192,147331,128,0,147414:0:0:0:0:
64,192,147414,128,0,147497:0:0:0:0:
320,192,147497,1,0,0:0:0:0:
448,192,147497,128,0,147580:0:0:0:0:
64,192,147580,128,0,147663:0:0:0:0:
448,192,147663,1,0,0:0:0:0:
320,192,147663,128,0,147746:0:0:0:0:
64,192,147746,128,0,147828:0:0:0:0:
320,192,147828,128,0,148491:0:0:0:0:
448,192,147828,128,0,147911:0:0:0:0:
192,192,147911,128,0,147994:0:0:0:0:
448,192,147994,1,0,0:0:0:0:
64,192,147994,128,0,148077:0:0:0:0:
192,192,148077,128,0,148160:0:0:0:0:
64,192,148160,1,0,0:0:0:0:
448,192,148160,128,0,148243:0:0:0:0:
192,192,148243,128,0,148326:0:0:0:0:
448,192,148326,1,0,0:0:0:0:
64,192,148326,128,0,148409:0:0:0:0:
192,192,148409,128,0,148491:0:0:0:0:
448,192,148491,128,0,149817:0:0:0:0:
64,192,148491,128,0,148574:0:0:0:0:
320,192,148574,128,0,148657:0:0:0:0:
64,192,148657,1,0,0:0:0:0:
192,192,148657,128,0,148740:0:0:0:0:
320,192,148740,128,0,148823:0:0:0:0:
192,192,148823,1,0,0:0:0:0:
64,192,148823,128,0,148906:0:0:0:0:
320,192,148906,128,0,148989:0:0:0:0:
64,192,148989,1,0,0:0:0:0:
192,192,148989,128,0,149071:0:0:0:0:
320,192,149071,128,0,149154:0:0:0:0:
64,192,149154,1,0,0:0:0:0:
192,192,149196,1,0,0:0:0:0:
320,192,149237,1,0,0:0:0:0:
64,192,149279,1,0,0:0:0:0:
192,192,149320,1,0,0:0:0:0:
320,192,149361,1,0,0:0:0:0:
64,192,149403,1,0,0:0:0:0:
192,192,149444,1,0,0:0:0:0:
320,192,149486,1,0,0:0:0:0:
64,192,149527,1,0,0:0:0:0:
192,192,149569,1,0,0:0:0:0:
320,192,149610,1,0,0:0:0:0:
64,192,149651,1,0,0:0:0:0:
192,192,149693,1,0,0:0:0:0:
320,192,149734,1,0,0:0:0:0:
64,192,149776,1,0,0:0:0:0:
320,192,149817,1,0,0:0:0:0:
192,192,149817,1,0,0:0:0:0:
